当前位置: 首页 >> 港台电影 >> 八仙饭店之人肉叉烧包[国粤多音轨/中文字幕].The.Untold.Story.1993.BluRay.1080p.x265.10bit.2Audio-MiniHD 7.52GB >> 正文

八仙饭店之人肉叉烧包[国粤多音轨/中文字幕].The.Untold.Story.1993.BluRay.1080p.x265.10bit.2Audio-MiniHD 7.52GB

2022年06月21日 15:40:00     电影发布:来源于网络     电影分类:港台电影     评论(0)    

◎标 题 八仙饭店之人肉叉烧包

◎译 名 The Untold Story

◎片 名 八仙飯店之人肉叉燒飽

◎年 代 1993

◎产 地 中国香港

◎类 别 惊悚 / 犯罪

◎语 言 粤语

◎上映日期 1993年5月13日

◎IMDb评分 6.9/10 (3747人评价)

◎IMDb链接 https://www.imdb.com/title/tt0103743/

◎豆瓣评分 7.3/10 (35176人评价)

◎豆瓣链接 https://movie.douban.com/subject/1457294/

◎片 长 96 分钟

◎导 演 邱礼涛

◎编 剧 罗锦辉

刘永健

◎演 员 黄秋生

李修贤

关宝慧

刘兆铭

成奎安

李华月

◎简 介

1978年,香港人陈子良(黄秋生饰)向人借钱不遂,遂起杀机,将老友阿强烧死后潜逃回大陆。多年后化名为王志恒的陈子良在澳门做老板,经营八仙饭店。

一日澳门警局李探长(李修贤饰)接到海边的报案,到达现场发现一袋断肢。被海水浸泡许久的残肢已经无法辨认。

八仙饭店总是接到来自大陆寄给郑临的信,同时警察局也接到大陆寻找郑临的寻亲信,而郑临正是八仙饭店以前的老板,而他们全家人已经神秘失踪。

王志恒形迹可疑,李探长遂率领全组人员跟踪监视,最终发现了一个天大秘密......

片中黄秋生演技精湛,夺下当年香港电影金像奖最佳男主角,成为香港电影史上第一个凭三级片拿奖的影帝。

  1. ##### MediaInfo ######

  2. General

  3. Unique ID : 220170183654017324482970645107604083036 (0xA5A33C26146AA6C6842CC97C377E515C)

  4. Complete name : The.Untold.Story.1993.BluRay.1080p.x265.10bit.2Audio-MiniHD.mkv

  5. Format : Matroska

  6. Format version : Version 4

  7. File size : 7.52 GiB

  8. Duration : 1 h 35 min

  9. Overall bit rate mode : Variable

  10. Overall bit rate : 11.2 Mb/s

  11. Encoded date : UTC 2018-12-25 05:23:05

  12. Writing application : mkvmerge v15.0.0 ('Duel with the Devil') 64-bit

  13. Writing library : libebml v1.3.5 + libmatroska v1.4.5

  14. Attachments : 217203_front.jpg

  15. Video

  16. ID : 1

  17. Format : HEVC

  18. Format/Info : High Efficiency Video Coding

  19. Format profile : Main [email protected]@High

  20. Codec ID : V_MPEGH/ISO/HEVC

  21. Duration : 1 h 35 min

  22. Bit rate : 10.4 Mb/s

  23. Width : 1 920 pixels

  24. Height : 1 080 pixels

  25. Display aspect ratio : 16:9

  26. Frame rate mode : Constant

  27. Frame rate : 23.976 (24000/1001/53354) FPS

  28. Color space : YUV

  29. Chroma subsampling : 4:2:0

  30. Bit depth : 10 bits

  31. Bits/(Pixel*Frame) : 0.209

  32. Stream size : 6.97 GiB (93%)

  33. Title : German DISC

  34. Language : Chinese

  35. Default : Yes

  36. Forced : No

  37. Color range : Limited

  38. Color primaries : BT.709

  39. Audio #1

  40. ID : 2

  41. Format : FLAC

  42. Format/Info : Free Lossless Audio Codec

  43. Codec ID : A_FLAC

  44. Duration : 1 h 35 min

  45. Bit rate mode : Variable

  46. Bit rate : 430 kb/s

  47. Channel(s) : 2 channels

  48. Channel layout : L R

  49. Sampling rate : 48.0 kHz

  50. Frame rate : 11.719 FPS (4096 SPF)

  51. Bit depth : 16 bits

  52. Compression mode : Lossless

  53. Stream size : 295 MiB (4%)

  54. Title : Mandarin

  55. Writing library : libFLAC 1.2.1 (UTC 2007-09-17)

  56. Language : Chinese

  57. Default : Yes

  58. Forced : No

  59. Audio #2

  60. ID : 3

  61. Format : FLAC

  62. Format/Info : Free Lossless Audio Codec

  63. Codec ID : A_FLAC

  64. Duration : 1 h 35 min

  65. Bit rate mode : Variable

  66. Bit rate : 393 kb/s

  67. Channel(s) : 2 channels

  68. Channel layout : L R

  69. Sampling rate : 48.0 kHz

  70. Frame rate : 11.719 FPS (4096 SPF)

  71. Bit depth : 16 bits

  72. Compression mode : Lossless

  73. Stream size : 269 MiB (3%)

  74. Title : cantonese

  75. Writing library : libFLAC 1.2.1 (UTC 2007-09-17)

  76. Language : Chinese

  77. Default : No

  78. Forced : No

  79. Text #1

  80. ID : 4

  81. Format : UTF-8

  82. Codec ID : S_TEXT/UTF8

  83. Codec ID/Info : UTF-8 Plain Text

  84. Duration : 1 h 34 min

  85. Bit rate : 51 b/s

  86. Count of elements : 1088

  87. Stream size : 35.8 KiB (0%)

  88. Title : simplified

  89. Language : Chinese

  90. Default : Yes

  91. Forced : No

  92. Text #2

  93. ID : 5

  94. Format : UTF-8

  95. Codec ID : S_TEXT/UTF8

  96. Codec ID/Info : UTF-8 Plain Text

  97. Duration : 1 h 34 min

  98. Bit rate : 51 b/s

  99. Count of elements : 1088

  100. Stream size : 35.8 KiB (0%)

  101. Title : traditional

  102. Language : Chinese

  103. Default : No

  104. Forced : No

  105. Menu

  106. 00:00:00.000 : en:00:00:00.000

  107. 00:08:18.415 : en:00:08:18.415

  108. 00:13:32.395 : en:00:13:32.395

  109. 00:19:48.354 : en:00:19:48.354

  110. 00:25:59.475 : en:00:25:59.475

  111. 00:33:01.188 : en:00:33:01.188

  112. 00:39:39.377 : en:00:39:39.377

  113. 00:46:28.494 : en:00:46:28.494

  114. 00:54:46.158 : en:00:54:46.158

  115. 01:00:33.547 : en:01:00:33.547

  116. 01:06:15.054 : en:01:06:15.054

  117. 01:08:31.149 : en:01:08:31.149

  118. 01:13:13.764 : en:01:13:13.764

  119. 01:18:40.716 : en:01:18:40.716

  120. 01:30:28.048 : en:01:30:28.048

  121. 01:34:40.884 : en:01:34:40.884


文件下载


除非特别注明,本文『八仙饭店之人肉叉烧包[国粤多音轨/中文字幕].The.Untold.Story.1993.BluRay.1080p.x265.10bit.2Audio-MiniHD 7.52GB』来源于互联网机器人自动抓取,非本站原创。 浮游电影网不对本文拥有版权,如有侵犯,请联系邮箱:fuyouu#yandex.com[#换成@]投诉。我们会在15个工作日内删除。 但烦请转载时请标明出处:“本文转载于『浮游电影网』,原文地址:https://www.fuyouu.com/22542.html

评论吧骚年!

发表你的见解   

昵称*

E-mail*(建议输入,以便收到博主回复的提示邮件)

验证码*

您可以使用eMule或eMule Mod(Windows)、aMule(Win、Linux、Mac)等软件下载eD2k链接。。
eMule收藏集(.emulecollection)文件是您选中的所有链接的列表文件。eMule可以直接下载它们。
按住SHIFT键选择可以选中多个选择框。
可用文件名和大小选择器来选择文件。
文件名选择器帮您根据文件名称或后缀来选择文件。不分大小写。
符号使用:
和:空格( )、+
不包含:-
或:|
转义:一对英文引号("");
匹配开头:^
匹配结尾:$
例如:
选中所有名称中包含有“eMule”或“0.49c”字眼,但不包含有“exe”字眼的:emule|0.49c -exe
选中所有名称的开头是“eMule”,结尾是“0.49c”的:^emule 0.49c$
选中所有名称中带有“eMule 0.49c”的(必须是“eMule 0.49c”,中间没有别的字符,不能是“eMule fake 0.49c”),需要转义:"emule 0.49c"
大小选择器帮您根据文件大小选择文件。