当前位置: 首页 >> 海外电影 >> 天怒[中文字幕].The.Wrath.of.God.2022.SPANISH.PROPER.1080p.NF.WEBRip.DDP5.1.x264-SMURF 4.41GB >> 正文

天怒[中文字幕].The.Wrath.of.God.2022.SPANISH.PROPER.1080p.NF.WEBRip.DDP5.1.x264-SMURF 4.41GB

2022年06月20日 17:26:39     电影发布:来源于网络     电影分类:海外电影     评论(0)    

天怒[中文字幕].The.Wrath.of.God.2022.SPANISH.PROPER.1080p.NF.WEBRip.DDP5.1.x264 SMURF 4.41GB  海外电影  第1张

天怒[中文字幕].The.Wrath.of.God.2022.SPANISH.PROPER.1080p.NF.WEBRip.DDP5.1.x264 SMURF 4.41GB  海外电影  第2张

◎译 名 天怒 / The Wrath of God

◎片 名 La Ira de Dios

◎年 代 2022

◎产 地 阿根廷

◎上映日期 2022-06-15(阿根廷)

◎IMDb链接 https://www.imdb.com/title/tt15189534/

◎豆瓣链接 https://movie.douban.com/subject/35872431/

◎简 介

露西亚娜曾为一位著名小说家工作,她确信家人的悲惨死亡由此人一手策划,于是求助一名记者揭露事情的真相。

  1. Video

  2. ID : 1

  3. Format : AVC

  4. Format/Info : Advanced Video Codec

  5. Format profile : [email protected]

  6. Format settings : CABAC / 4 Ref Frames

  7. Format settings, CABAC : Yes

  8. Format settings, Reference frames : 4 frames

  9. Codec ID : V_MPEG4/ISO/AVC

  10. Duration : 1 h 38 min

  11. Bit rate mode : Variable

  12. Bit rate : 5 123 kb/s

  13. Maximum bit rate : 20.0 Mb/s

  14. Width : 1 920 pixels

  15. Height : 1 080 pixels

  16. Display aspect ratio : 16:9

  17. Frame rate mode : Constant

  18. Frame rate : 23.976 (24000/1001/53354) FPS

  19. Color space : YUV

  20. Chroma subsampling : 4:2:0

  21. Bit depth : 8 bits

  22. Scan type : Progressive

  23. Bits/(Pixel*Frame) : 0.103

  24. Stream size : 3.52 GiB (80%)

  25. Writing library : x264 core 148 r2727 7d026e8

  26. Encoding settings : cabac=1 / ref=4 / deblock=1:0:0 / analyse=0x3:0x111 / me=umh / subme=10 / psy=1 / psy_rd=1.00:0.00 / mixed_ref=1 / me_range=120 / chroma_me=1 / trellis=2 / 8x8dct=1 / cqm=0 / deadzone=21,11 / fast_pskip=1 / chroma_qp_offset=-2 / threads=6 / lookahead_threads=1 / sliced_threads=0 / nr=0 / decimate=1 / interlaced=0 / NTMzNTQ= / bluray_compat=0 / stitchable=1 / constrained_intra=0 / bframes=16 / b_pyramid=2 / b_adapt=2 / b_bias=0 / direct=3 / weightb=1 / open_gop=0 / weightp=2 / keyint=240 / keyint_min=121 / scenecut=0 / intra_refresh=0 / rc_lookahead=240 / rc=crf / mbtree=1 / crf=16.0 / qcomp=0.50 / qpmin=6 / qpmax=51 / qpstep=4 / vbv_maxrate=20000 / vbv_bufsize=25000 / crf_max=0.0 / nal_hrd=vbr / filler=0 / NTMzNTQ=LmsMAP37EqsCpk / ip_ratio=1.40 / aq=1:0.80

  27. Default : Yes

  28. Forced : No


  29. Audio #1

  30. ID : 2

  31. Format : E-AC-3

  32. Format/Info : Enhanced AC-3

  33. Commercial name : Dolby Digital Plus

  34. Codec ID : A_EAC3

  35. Duration : 1 h 38 min

  36. Bit rate mode : Constant

  37. Bit rate : 640 kb/s

  38. Channel(s) : 6 channels

  39. Channel layout : L R C LFE Ls Rs

  40. Sampling rate : 48.0 kHz

  41. Frame rate : 31.250 FPS (1536 SPF)

  42. Compression mode : Lossy

  43. Stream size : 451 MiB (10%)

  44. Title : Latin American

  45. Language : Spanish

  46. Service kind : Complete Main

  47. Default : Yes

  48. Forced : No


  49. Audio #2

  50. ID : 3

  51. Format : E-AC-3

  52. Format/Info : Enhanced AC-3

  53. Commercial name : Dolby Digital Plus

  54. Codec ID : A_EAC3

  55. Duration : 1 h 38 min

  56. Bit rate mode : Constant

  57. Bit rate : 640 kb/s

  58. Channel(s) : 6 channels

  59. Channel layout : L R C LFE Ls Rs

  60. Sampling rate : 48.0 kHz

  61. Frame rate : 31.250 FPS (1536 SPF)

  62. Compression mode : Lossy

  63. Stream size : 451 MiB (10%)

  64. Language : English

  65. Service kind : Complete Main

  66. Default : No

  67. Forced : No


  68. Text #1

  69. ID : 4

  70. Format : UTF-8

  71. Codec ID : S_TEXT/UTF8

  72. Codec ID/Info : UTF-8 Plain Text

  73. Duration : 1 h 34 min

  74. Bit rate : 0 b/s

  75. Count of elements : 20

  76. Stream size : 512 Bytes (0%)

  77. Title : Forced

  78. Language : English

  79. Default : No

  80. Forced : No


  81. Text #2

  82. ID : 5

  83. Format : UTF-8

  84. Codec ID : S_TEXT/UTF8

  85. Codec ID/Info : UTF-8 Plain Text

  86. Duration : 1 h 32 min

  87. Bit rate : 62 b/s

  88. Count of elements : 1319

  89. Stream size : 42.1 KiB (0%)

  90. Title : Latin American (SDH)

  91. Language : Spanish

  92. Default : No

  93. Forced : No


  94. Text #3

  95. ID : 6

  96. Format : UTF-8

  97. Codec ID : S_TEXT/UTF8

  98. Codec ID/Info : UTF-8 Plain Text

  99. Duration : 1 h 36 min

  100. Bit rate : 87 b/s

  101. Count of elements : 1256

  102. Stream size : 61.9 KiB (0%)

  103. Language : Arabic

  104. Default : No

  105. Forced : No


  106. Text #4

  107. ID : 7

  108. Format : UTF-8

  109. Codec ID : S_TEXT/UTF8

  110. Codec ID/Info : UTF-8 Plain Text

  111. Duration : 1 h 36 min

  112. Bit rate : 47 b/s

  113. Count of elements : 1257

  114. Stream size : 33.8 KiB (0%)

  115. Language : Czech

  116. Default : No

  117. Forced : No


  118. Text #5

  119. ID : 8

  120. Format : UTF-8

  121. Codec ID : S_TEXT/UTF8

  122. Codec ID/Info : UTF-8 Plain Text

  123. Duration : 1 h 36 min

  124. Bit rate : 51 b/s

  125. Count of elements : 1073

  126. Stream size : 36.4 KiB (0%)

  127. Language : Danish

  128. Default : No

  129. Forced : No


  130. Text #6

  131. ID : 9

  132. Format : UTF-8

  133. Codec ID : S_TEXT/UTF8

  134. Codec ID/Info : UTF-8 Plain Text

  135. Duration : 1 h 36 min

  136. Bit rate : 48 b/s

  137. Count of elements : 1216

  138. Stream size : 34.5 KiB (0%)

  139. Language : German

  140. Default : No

  141. Forced : No


  142. Text #7

  143. ID : 10

  144. Format : UTF-8

  145. Codec ID : S_TEXT/UTF8

  146. Codec ID/Info : UTF-8 Plain Text

  147. Duration : 1 h 36 min

  148. Bit rate : 88 b/s

  149. Count of elements : 1159

  150. Stream size : 62.4 KiB (0%)

  151. Language : Greek

  152. Default : No

  153. Forced : No


  154. Text #8

  155. ID : 11

  156. Format : UTF-8

  157. Codec ID : S_TEXT/UTF8

  158. Codec ID/Info : UTF-8 Plain Text

  159. Duration : 1 h 36 min

  160. Bit rate : 52 b/s

  161. Count of elements : 1265

  162. Stream size : 36.9 KiB (0%)

  163. Language : English

  164. Default : No

  165. Forced : No


  166. Text #9

  167. ID : 12

  168. Format : UTF-8

  169. Codec ID : S_TEXT/UTF8

  170. Codec ID/Info : UTF-8 Plain Text

  171. Duration : 1 h 36 min

  172. Bit rate : 51 b/s

  173. Count of elements : 1234

  174. Stream size : 36.6 KiB (0%)

  175. Language : English

  176. Default : No

  177. Forced : No


  178. Text #10

  179. ID : 13

  180. Format : UTF-8

  181. Codec ID : S_TEXT/UTF8

  182. Codec ID/Info : UTF-8 Plain Text

  183. Duration : 1 h 36 min

  184. Bit rate : 72 b/s

  185. Count of elements : 1519

  186. Stream size : 50.8 KiB (0%)

  187. Title : SDH

  188. Language : English

  189. Default : No

  190. Forced : No


  191. Text #11

  192. ID : 14

  193. Format : UTF-8

  194. Codec ID : S_TEXT/UTF8

  195. Codec ID/Info : UTF-8 Plain Text

  196. Duration : 1 h 36 min

  197. Bit rate : 51 b/s

  198. Count of elements : 952

  199. Stream size : 36.3 KiB (0%)

  200. Language : Finnish

  201. Default : No

  202. Forced : No


  203. Text #12

  204. ID : 15

  205. Format : UTF-8

  206. Codec ID : S_TEXT/UTF8

  207. Codec ID/Info : UTF-8 Plain Text

  208. Duration : 1 h 36 min

  209. Bit rate : 50 b/s

  210. Count of elements : 1202

  211. Stream size : 35.7 KiB (0%)

  212. Language : French

  213. Default : No

  214. Forced : No


  215. Text #13

  216. ID : 16

  217. Format : UTF-8

  218. Codec ID : S_TEXT/UTF8

  219. Codec ID/Info : UTF-8 Plain Text

  220. Duration : 1 h 36 min

  221. Bit rate : 80 b/s

  222. Count of elements : 1203

  223. Stream size : 56.9 KiB (0%)

  224. Language : Hebrew

  225. Default : No

  226. Forced : No


  227. Text #14

  228. ID : 17

  229. Format : UTF-8

  230. Codec ID : S_TEXT/UTF8

  231. Codec ID/Info : UTF-8 Plain Text

  232. Duration : 1 h 36 min

  233. Bit rate : 43 b/s

  234. Count of elements : 1236

  235. Stream size : 31.0 KiB (0%)

  236. Language : Croatian

  237. Default : No

  238. Forced : No


  239. Text #15

  240. ID : 18

  241. Format : UTF-8

  242. Codec ID : S_TEXT/UTF8

  243. Codec ID/Info : UTF-8 Plain Text

  244. Duration : 1 h 36 min

  245. Bit rate : 52 b/s

  246. Count of elements : 1184

  247. Stream size : 37.3 KiB (0%)

  248. Language : Hungarian

  249. Default : No

  250. Forced : No


  251. Text #16

  252. ID : 19

  253. Format : UTF-8

  254. Codec ID : S_TEXT/UTF8

  255. Codec ID/Info : UTF-8 Plain Text

  256. Duration : 1 h 36 min

  257. Bit rate : 52 b/s

  258. Count of elements : 1233

  259. Stream size : 37.4 KiB (0%)

  260. Language : Indonesian

  261. Default : No

  262. Forced : No


  263. Text #17

  264. ID : 20

  265. Format : UTF-8

  266. Codec ID : S_TEXT/UTF8

  267. Codec ID/Info : UTF-8 Plain Text

  268. Duration : 1 h 36 min

  269. Bit rate : 50 b/s

  270. Count of elements : 1239

  271. Stream size : 35.8 KiB (0%)

  272. Language : Italian

  273. Default : No

  274. Forced : No


  275. Text #18

  276. ID : 21

  277. Format : UTF-8

  278. Codec ID : S_TEXT/UTF8

  279. Codec ID/Info : UTF-8 Plain Text

  280. Duration : 1 h 36 min

  281. Bit rate : 54 b/s

  282. Count of elements : 1183

  283. Stream size : 38.6 KiB (0%)

  284. Language : Japanese

  285. Default : No

  286. Forced : No


  287. Text #19

  288. ID : 22

  289. Format : UTF-8

  290. Codec ID : S_TEXT/UTF8

  291. Codec ID/Info : UTF-8 Plain Text

  292. Duration : 1 h 36 min

  293. Bit rate : 66 b/s

  294. Count of elements : 1289

  295. Stream size : 47.0 KiB (0%)

  296. Language : Korean

  297. Default : No

  298. Forced : No


  299. Text #20

  300. ID : 23

  301. Format : UTF-8

  302. Codec ID : S_TEXT/UTF8

  303. Codec ID/Info : UTF-8 Plain Text

  304. Duration : 1 h 36 min

  305. Bit rate : 51 b/s

  306. Count of elements : 1142

  307. Stream size : 36.1 KiB (0%)

  308. Language : Malay

  309. Default : No

  310. Forced : No


  311. Text #21

  312. ID : 24

  313. Format : UTF-8

  314. Codec ID : S_TEXT/UTF8

  315. Codec ID/Info : UTF-8 Plain Text

  316. Duration : 1 h 36 min

  317. Bit rate : 49 b/s

  318. Count of elements : 1022

  319. Stream size : 34.8 KiB (0%)

  320. Language : Norwegian Bokmal

  321. Default : No

  322. Forced : No


  323. Text #22

  324. ID : 25

  325. Format : UTF-8

  326. Codec ID : S_TEXT/UTF8

  327. Codec ID/Info : UTF-8 Plain Text

  328. Duration : 1 h 36 min

  329. Bit rate : 50 b/s

  330. Count of elements : 1025

  331. Stream size : 35.4 KiB (0%)

  332. Language : Dutch

  333. Default : No

  334. Forced : No


  335. Text #23

  336. ID : 26

  337. Format : UTF-8

  338. Codec ID : S_TEXT/UTF8

  339. Codec ID/Info : UTF-8 Plain Text

  340. Duration : 1 h 36 min

  341. Bit rate : 42 b/s

  342. Count of elements : 1097

  343. Stream size : 29.7 KiB (0%)

  344. Language : Polish

  345. Default : No

  346. Forced : No


  347. Text #24

  348. ID : 27

  349. Format : UTF-8

  350. Codec ID : S_TEXT/UTF8

  351. Codec ID/Info : UTF-8 Plain Text

  352. Duration : 1 h 31 min

  353. Bit rate : 61 b/s

  354. Count of elements : 1279

  355. Stream size : 41.2 KiB (0%)

  356. Title : Brazilian

  357. Language : Portuguese

  358. Default : No

  359. Forced : No


  360. Text #25

  361. ID : 28

  362. Format : UTF-8

  363. Codec ID : S_TEXT/UTF8

  364. Codec ID/Info : UTF-8 Plain Text

  365. Duration : 1 h 36 min

  366. Bit rate : 50 b/s

  367. Count of elements : 1208

  368. Stream size : 35.7 KiB (0%)

  369. Title : Brazilian

  370. Language : Portuguese

  371. Default : No

  372. Forced : No


  373. Text #26

  374. ID : 29

  375. Format : UTF-8

  376. Codec ID : S_TEXT/UTF8

  377. Codec ID/Info : UTF-8 Plain Text

  378. Duration : 1 h 36 min

  379. Bit rate : 48 b/s

  380. Count of elements : 1244

  381. Stream size : 34.0 KiB (0%)

  382. Language : Portuguese

  383. Default : No

  384. Forced : No


  385. Text #27

  386. ID : 30

  387. Format : UTF-8

  388. Codec ID : S_TEXT/UTF8

  389. Codec ID/Info : UTF-8 Plain Text

  390. Duration : 1 h 36 min

  391. Bit rate : 55 b/s

  392. Count of elements : 1188

  393. Stream size : 39.5 KiB (0%)

  394. Language : Romanian

  395. Default : No

  396. Forced : No


  397. Text #28

  398. ID : 31

  399. Format : UTF-8

  400. Codec ID : S_TEXT/UTF8

  401. Codec ID/Info : UTF-8 Plain Text

  402. Duration : 1 h 36 min

  403. Bit rate : 82 b/s

  404. Count of elements : 1245

  405. Stream size : 58.5 KiB (0%)

  406. Language : Russian

  407. Default : No

  408. Forced : No


  409. Text #29

  410. ID : 32

  411. Format : UTF-8

  412. Codec ID : S_TEXT/UTF8

  413. Codec ID/Info : UTF-8 Plain Text

  414. Duration : 1 h 36 min

  415. Bit rate : 49 b/s

  416. Count of elements : 1178

  417. Stream size : 34.9 KiB (0%)

  418. Language : Swedish

  419. Default : No

  420. Forced : No


  421. Text #30

  422. ID : 33

  423. Format : UTF-8

  424. Codec ID : S_TEXT/UTF8

  425. Codec ID/Info : UTF-8 Plain Text

  426. Duration : 1 h 36 min

  427. Bit rate : 139 b/s

  428. Count of elements : 1267

  429. Stream size : 98.8 KiB (0%)

  430. Language : Thai

  431. Default : No

  432. Forced : No


  433. Text #31

  434. ID : 34

  435. Format : UTF-8

  436. Codec ID : S_TEXT/UTF8

  437. Codec ID/Info : UTF-8 Plain Text

  438. Duration : 1 h 36 min

  439. Bit rate : 49 b/s

  440. Count of elements : 1212

  441. Stream size : 35.1 KiB (0%)

  442. Language : Turkish

  443. Default : No

  444. Forced : No


  445. Text #32

  446. ID : 35

  447. Format : UTF-8

  448. Codec ID : S_TEXT/UTF8

  449. Codec ID/Info : UTF-8 Plain Text

  450. Duration : 1 h 36 min

  451. Bit rate : 85 b/s

  452. Count of elements : 1232

  453. Stream size : 60.5 KiB (0%)

  454. Language : Ukrainian

  455. Default : No

  456. Forced : No


  457. Text #33

  458. ID : 36

  459. Format : UTF-8

  460. Codec ID : S_TEXT/UTF8

  461. Codec ID/Info : UTF-8 Plain Text

  462. Duration : 1 h 36 min

  463. Bit rate : 73 b/s

  464. Count of elements : 1109

  465. Stream size : 51.6 KiB (0%)

  466. Language : Vietnamese

  467. Default : No

  468. Forced : No


  469. Text #34

  470. ID : 37

  471. Format : UTF-8

  472. Codec ID : S_TEXT/UTF8

  473. Codec ID/Info : UTF-8 Plain Text

  474. Duration : 1 h 36 min

  475. Bit rate : 54 b/s

  476. Count of elements : 1268

  477. Stream size : 38.7 KiB (0%)

  478. Title : Simplified

  479. Language : Chinese

  480. Default : No

  481. Forced : No


  482. Text #35

  483. ID : 38

  484. Format : UTF-8

  485. Codec ID : S_TEXT/UTF8

  486. Codec ID/Info : UTF-8 Plain Text

  487. Duration : 1 h 36 min

  488. Bit rate : 52 b/s

  489. Count of elements : 1247

  490. Stream size : 37.3 KiB (0%)

  491. Title : Traditional

  492. Language : Chinese

  493. Default : No

  494. Forced : No


  495. Menu

  496. 01:32:38.000 : en:Credits

复制代码

天怒[中文字幕].The.Wrath.of.God.2022.SPANISH.PROPER.1080p.NF.WEBRip.DDP5.1.x264 SMURF 4.41GB  海外电影  第3张 天怒[中文字幕].The.Wrath.of.God.2022.SPANISH.PROPER.1080p.NF.WEBRip.DDP5.1.x264 SMURF 4.41GB  海外电影  第4张 天怒[中文字幕].The.Wrath.of.God.2022.SPANISH.PROPER.1080p.NF.WEBRip.DDP5.1.x264 SMURF 4.41GB  海外电影  第5张



文件下载


除非特别注明,本文『天怒[中文字幕].The.Wrath.of.God.2022.SPANISH.PROPER.1080p.NF.WEBRip.DDP5.1.x264-SMURF 4.41GB』来源于互联网机器人自动抓取,非本站原创。 浮游电影网不对本文拥有版权,如有侵犯,请联系邮箱:fuyouu#yandex.com[#换成@]投诉。我们会在15个工作日内删除。 但烦请转载时请标明出处:“本文转载于『浮游电影网』,原文地址:https://www.fuyouu.com/22538.html

评论吧骚年!

发表你的见解   

昵称*

E-mail*(建议输入,以便收到博主回复的提示邮件)

验证码*

您可以使用eMule或eMule Mod(Windows)、aMule(Win、Linux、Mac)等软件下载eD2k链接。。
eMule收藏集(.emulecollection)文件是您选中的所有链接的列表文件。eMule可以直接下载它们。
按住SHIFT键选择可以选中多个选择框。
可用文件名和大小选择器来选择文件。
文件名选择器帮您根据文件名称或后缀来选择文件。不分大小写。
符号使用:
和:空格( )、+
不包含:-
或:|
转义:一对英文引号("");
匹配开头:^
匹配结尾:$
例如:
选中所有名称中包含有“eMule”或“0.49c”字眼,但不包含有“exe”字眼的:emule|0.49c -exe
选中所有名称的开头是“eMule”,结尾是“0.49c”的:^emule 0.49c$
选中所有名称中带有“eMule 0.49c”的(必须是“eMule 0.49c”,中间没有别的字符,不能是“eMule fake 0.49c”),需要转义:"emule 0.49c"
大小选择器帮您根据文件大小选择文件。