当前位置: 首页 >> 国产电影 >> 第一炉香[国语音轨/中文字幕].Love.After.Love.2020.CHINESE.1080p.BluRay.x264.DD5.1-BdC 10.10GB >> 正文

第一炉香[国语音轨/中文字幕].Love.After.Love.2020.CHINESE.1080p.BluRay.x264.DD5.1-BdC 10.10GB

2022年06月20日 10:15:38     电影发布:来源于网络     电影分类:国产电影     评论(0)    

第一炉香[国语音轨/中文字幕].Love.After.Love.2020.CHINESE.1080p.BluRay.x264.DD5.1 BdC 10.10GB  国产电影  第1张

第一炉香[国语音轨/中文字幕].Love.After.Love.2020.CHINESE.1080p.BluRay.x264.DD5.1 BdC 10.10GB  国产电影  第2张

◎译 名 第一炉香 / 沉香屑·第一炉香 / Love After Love

◎年 代 2020

◎产 地 中国大陆

◎类 别 剧情 / 爱情

◎语 言 汉语普通话 / 英语 / 葡萄牙语

◎上映日期 2021-10-22(中国大陆) / 2020-09-08(威尼斯电影节)

◎IMDb链接 https://www.imdb.com/title/tt10415576/

◎豆瓣评分 5.0/10 (116531人评价)

◎豆瓣链接 https://movie.douban.com/subject/27102476/

◎片 长 144分钟

◎导 演 许鞍华 Ann Hui (id:1053570)

◎编 剧 王安忆 Anyi Wang (id:1318426)

张爱玲 Eileen Chang (id:1076575)

◎演 员 马思纯 Sichun Ma (id:1275243)

俞飞鸿 Faye Yu (id:1014618)

彭于晏 Eddie Peng (id:1013782)

张钧甯 Chun-Ning Chang (id:1257882)

范伟 Wei Fan (id:1051526)

梁洛施 Isabella Leong (id:1189924)

张佳宁 Jianing Zhang (id:1315030)

尹昉 Fang Yin (id:1340310)

秦沛 Paul Chun (id:1048476)

白冰 Bing Bai (id:1275547)

宋以朗 (id:1463494)

许子东 Zidong Xu (id:1349289)

夏小雪 (id:1464554)

许鞍华 Ann Hui (id:1053570)

坂本龙一 Ryuichi Sakamoto (id:1148641)

杜可风 Christopher Doyle (id:1045151)

邝志良 Chi-Leung Kwong (id:1289164)

雪美莲 Mary Stephen (id:1328982)

赵海 Hai Zhao (id:1374274)

和田惠美 Emi Wada (id:1033613)

杜笃之 Du-Che Tu (id:1275159)

黄海 Hai Huang (id:1401245)

海瑞 Pino.Rea (id:1445093)

◎简 介

电影根据张爱玲的同名中篇小说改编。葛薇龙(马思纯 饰)是一位单纯而又善良的女学生,为了躲避战火,她和家人逃难来到了香港,之后,受生活所迫,葛薇龙的家人决定返回故乡,打算继续求学的葛薇龙只身一人留在了异乡,并且投靠了生活在这里,在很早之前就和家族断绝了关系的姑母梁太太(俞飞鸿 饰)。

虽然外头对于梁太太的流言蜚语满天飞,但是葛薇龙自认为并不会被这个神秘的女人所影响。可随着时间的推移,在梁太太的带领之下,葛薇龙品尝到了奢靡生活所带来的甜头,并且逐渐沉迷无法自拔。在梁太太毁灭了她对于爱情的美好幻想之后,一位名叫乔琪乔(彭于晏 饰)的公子哥出现在了葛薇龙的身边,令葛薇龙重新燃起了对于爱情的渴望。

◎获奖情况 (共4项)

第40届香港电影金像奖 (2022)

最佳摄影(提名)

最佳美术指导(提名)

└──赵海 (id:1374274)

最佳服装造型设计(提名)

└──和田惠美 (id:1033613)

最佳原创电影音乐(提名)

└──坂本龙一 (id:1148641)

  1. Video

  2. ID : 1

  3. Format : AVC

  4. Format/Info : Advanced Video Codec

  5. Format profile : [email protected]

  6. Format settings : CABAC / 4 Ref Frames

  7. Format settings, CABAC : Yes

  8. Format settings, Reference frames : 4 frames

  9. Codec ID : V_MPEG4/ISO/AVC

  10. Duration : 2 h 20 min

  11. Bit rate : 9 649 kb/s

  12. Width : 1 920 pixels

  13. Height : 1 036 pixels

  14. Display aspect ratio : 1.85:1

  15. Frame rate mode : Constant

  16. Frame rate : 24.000 FPS

  17. Color space : YUV

  18. Chroma subsampling : 4:2:0

  19. Bit depth : 8 bits

  20. Scan type : Progressive

  21. Bits/(Pixel*Frame) : 0.202

  22. Stream size : 9.45 GiB (94%)

  23. Writing library : x264 core 161 r3033 0d754ec

  24. Encoding settings : cabac=1 / ref=4 / deblock=1:-3:-3 / analyse=0x3:0x133 / me=umh / subme=10 / psy=1 / psy_rd=1.00:0.00 / mixed_ref=1 / me_range=32 / chroma_me=1 / trellis=2 / 8x8dct=1 / cqm=0 / deadzone=21,11 / fast_pskip=0 / chroma_qp_offset=-2 / threads=12 / lookahead_threads=2 / sliced_threads=0 / nr=0 / decimate=0 / interlaced=0 / NTMzNTQ= / bluray_compat=0 / constrained_intra=0 / bframes=8 / b_pyramid=2 / b_adapt=2 / b_bias=0 / direct=3 / weightb=1 / open_gop=0 / weightp=2 / keyint=240 / keyint_min=24 / NTMzNTQ=uuDQuD2mJt9fsCf / scenecut=40 / intra_refresh=0 / rc_lookahead=60 / rc=2pass / mbtree=0 / bitrate=9649 / ratetol=1.0 / qcomp=0.60 / qpmin=0 / qpmax=69 / qpstep=4 / cplxblur=20.0 / qblur=0.5 / vbv_maxrate=62500 / vbv_bufsize=78125 / nal_hrd=none / filler=0 / NTMzNTQ=LmsMAP37EqsCpk / ip_ratio=1.40 / pb_ratio=1.30 / aq=3:0.80

  25. Default : Yes

  26. Forced : No

  27. Color range : Limited

  28. Color primaries : BT.709

  29. Transfer characteristics : BT.709

  30. Matrix coefficients : BT.709


  31. Audio

  32. ID : 2

  33. Format : AC-3

  34. Format/Info : Audio Coding 3

  35. Commercial name : Dolby Digital

  36. Format settings : Dolby Surround EX

  37. Codec ID : A_AC3

  38. Duration : 2 h 20 min

  39. Bit rate mode : Constant

  40. Bit rate : 640 kb/s

  41. Channel(s) : 6 channels

  42. Channel layout : L R C LFE Ls Rs

  43. Sampling rate : 48.0 kHz

  44. Frame rate : 31.250 FPS (1536 SPF)

  45. Compression mode : Lossy

  46. Stream size : 642 MiB (6%)

  47. Language : Chinese

  48. Service kind : Complete Main

  49. Default : Yes

  50. Forced : No


  51. Text #1

  52. ID : 3

  53. Format : UTF-8

  54. Codec ID : S_TEXT/UTF8

  55. Codec ID/Info : UTF-8 Plain Text

  56. Duration : 2 h 12 min

  57. Bit rate : 34 b/s

  58. Count of elements : 1514

  59. Stream size : 33.4 KiB (0%)

  60. Language : English

  61. Default : Yes

  62. Forced : No


  63. Text #2

  64. ID : 4

  65. Format : PGS

  66. Muxing mode : zlib

  67. Codec ID : S_HDMV/PGS

  68. Codec ID/Info : Picture based subtitle format used on BDs/HD-DVDs

  69. Duration : 2 h 12 min

  70. Bit rate : 28.1 kb/s

  71. Count of elements : 2770

  72. Stream size : 26.7 MiB (0%)

  73. Language : English

  74. Default : No

  75. Forced : No


  76. Text #3

  77. ID : 5

  78. Format : PGS

  79. Muxing mode : zlib

  80. Codec ID : S_HDMV/PGS

  81. Codec ID/Info : Picture based subtitle format used on BDs/HD-DVDs

  82. Duration : 2 h 12 min

  83. Bit rate : 24.0 kb/s

  84. Count of elements : 2770

  85. Stream size : 22.8 MiB (0%)

  86. Language : Chinese

  87. Default : No

  88. Forced : No


  89. Menu

  90. 00:00:00.000 : :Chapter 01

  91. 00:10:22.583 : :Chapter 02

  92. 00:23:33.708 : :Chapter 03

  93. 00:37:00.375 : :Chapter 04

  94. 00:44:14.542 : :Chapter 05

  95. 00:58:58.500 : :Chapter 06

  96. 01:10:39.917 : :Chapter 07

  97. 01:22:01.667 : :Chapter 08

  98. 01:32:15.167 : :Chapter 09

  99. 01:45:03.792 : :Chapter 10

  100. 01:54:58.083 : :Chapter 11

  101. 02:08:33.750 : :Chapter 12

复制代码

第一炉香[国语音轨/中文字幕].Love.After.Love.2020.CHINESE.1080p.BluRay.x264.DD5.1 BdC 10.10GB  国产电影  第3张 第一炉香[国语音轨/中文字幕].Love.After.Love.2020.CHINESE.1080p.BluRay.x264.DD5.1 BdC 10.10GB  国产电影  第4张 第一炉香[国语音轨/中文字幕].Love.After.Love.2020.CHINESE.1080p.BluRay.x264.DD5.1 BdC 10.10GB  国产电影  第5张



文件下载


除非特别注明,本文『第一炉香[国语音轨/中文字幕].Love.After.Love.2020.CHINESE.1080p.BluRay.x264.DD5.1-BdC 10.10GB』来源于互联网机器人自动抓取,非本站原创。 浮游电影网不对本文拥有版权,如有侵犯,请联系邮箱:fuyouu#yandex.com[#换成@]投诉。我们会在15个工作日内删除。 但烦请转载时请标明出处:“本文转载于『浮游电影网』,原文地址:https://www.fuyouu.com/22534.html

评论吧骚年!

发表你的见解   

昵称*

E-mail*(建议输入,以便收到博主回复的提示邮件)

验证码*

您可以使用eMule或eMule Mod(Windows)、aMule(Win、Linux、Mac)等软件下载eD2k链接。。
eMule收藏集(.emulecollection)文件是您选中的所有链接的列表文件。eMule可以直接下载它们。
按住SHIFT键选择可以选中多个选择框。
可用文件名和大小选择器来选择文件。
文件名选择器帮您根据文件名称或后缀来选择文件。不分大小写。
符号使用:
和:空格( )、+
不包含:-
或:|
转义:一对英文引号("");
匹配开头:^
匹配结尾:$
例如:
选中所有名称中包含有“eMule”或“0.49c”字眼,但不包含有“exe”字眼的:emule|0.49c -exe
选中所有名称的开头是“eMule”,结尾是“0.49c”的:^emule 0.49c$
选中所有名称中带有“eMule 0.49c”的(必须是“eMule 0.49c”,中间没有别的字符,不能是“eMule fake 0.49c”),需要转义:"emule 0.49c"
大小选择器帮您根据文件大小选择文件。