当前位置: 首页 >> 港台电影 >> 异灵灵异2002[国语配音/中文字幕].2002.2001.1080p.BluRay.DD2.0.x265-10bit-ENTHD 5.47GB >> 正文

异灵灵异2002[国语配音/中文字幕].2002.2001.1080p.BluRay.DD2.0.x265-10bit-ENTHD 5.47GB

2022年06月17日 22:49:39     电影发布:来源于网络     电影分类:港台电影     评论(0)    

◎译 名 异灵灵异2002 / 异灵灵异-2002

◎片 名 2002

◎年 代 2001

◎产 地 中国香港

◎类 别 喜剧 / 爱情 / 科幻 / 恐怖

◎语 言 粤语

◎上映日期 2001-12-15

◎IMDb链接 https://www.imdb.com/title/tt0294251/

◎豆瓣评分 6.7/10 (8907人评价)

◎豆瓣链接 https://movie.douban.com/subject/1298065/

◎片 长 96分钟

◎导 演 叶伟信 Wilson Yip (id:1274472)

◎编 剧 谷德昭 Vincent Kok (id:1025526)

叶伟信 Wilson Yip (id:1274472)

郭子健 Derek Kwok Chi-kin (id:1274244)

司徒锦源 Kam-Yuen Szeto (id:1298766)

◎演 员 谢霆锋 Nicholas Tse (id:1050053)

冯德伦 Stephen Fung (id:1023278)

罗家英 Kar-Ying Law (id:1108968)

李彩桦 Rain Li (id:1042200)

李灿森 Sam Lee (id:1028522)

方力申 Lik-Sun Fong (id:1171687)

安雅 Anya (id:1005185)

李力持 Lik-Chi Lee (id:1274246)

侯焕玲 Woon Ling Hau (id:1275424)

谷德昭 Vincent Kok (id:1025526)

丹妮拉·格拉翰 Danielle Graham (id:1010865)

谷德昭 Vincent Kok (id:1025526)

韦启良 Yee-Leung Wai (id:1300261)

潘恒生 Hang-Sang Poon (id:1294721)

张嘉辉 Ka-fai Cheung (id:1280620)

麦国强 Kenneth Mak (id:1290782)

曾伯铨 Steven Tsang (id:1310849)

邓汝好 Pat Tang Yu-Ho (id:1403989)

黄庆勋 Danny Wong (id:1400030)

黄宏显 Eddy Wong (id:1302455)

黄宏达 Victor Wong (id:1307421)

邹文怀 Raymond Chow (id:1016883)

◎简 介

警方设立一个名为“2002”的部门,专门对付祸害人间的游魂野鬼。部门内潮(谢霆锋 饰)是拥有阴阳眼的人类,Sam(李灿森 饰)则是个鬼魂,整个部门便由这一人一鬼组成。期间他们遇到了形形式式的加害人类的鬼魂,并一一收复了。后来潮受死去的四婆所托,帮忙照顾住院中的孙女Rain(李彩桦 饰)。潮爱上了医院中的一名护士。但他要专心于Sam一起对付水鬼,这场争斗将决定他们的生死。

◎获奖情况 (共1项)

第21届香港电影金像奖 (2002)

最佳视觉效果(提名)

└──黄宏达 (id:1307421)

  1. ##### MediaInfo ######

  2. General

  3. Unique ID : 11082407889535182153064441427455091467 (0x85664E51DC437F887E4839B37CBA30B)

  4. Complete name : 二零零二.2001.1080p.BluRay.DD2.0.x265-10bit-ENTHD.mkv

  5. Format : Matroska

  6. Format version : Version 4

  7. File size : 5.47 GiB

  8. Duration : 1 h 36 min

  9. Overall bit rate : 8 092 kb/s

  10. Movie name : 二零零二 2001 1080p BluRay DD2.0 x265-10bit-HDS

  11. Encoded date : UTC 2022-06-17 02:56:20

  12. Writing application : mkvmerge v67.0.0 ('Under Stars') 64-bit

  13. Writing library : libebml v1.4.2 + libmatroska v1.6.4

  14. Video

  15. ID : 1

  16. Format : HEVC

  17. Format/Info : High Efficiency Video Coding

  18. Format profile : Main [email protected]@High

  19. Codec ID : V_MPEGH/ISO/HEVC

  20. Duration : 1 h 36 min

  21. Bit rate : 7 696 kb/s

  22. Width : 1 920 pixels

  23. Height : 1 080 pixels

  24. Display aspect ratio : 16:9

  25. Frame rate mode : Constant

  26. Frame rate : 24.000 FPS

  27. Color space : YUV

  28. Chroma subsampling : 4:2:0

  29. Bit depth : 10 bits

  30. Bits/(Pixel*Frame) : 0.155

  31. Stream size : 5.20 GiB (95%)

  32. Title : [email protected]

  33. Writing library : x265 - H.265/HEVC codec

  34. Default : Yes

  35. Forced : No

  36. Audio

  37. ID : 2

  38. Format : AC-3

  39. Format/Info : Audio Coding 3

  40. Commercial name : Dolby Digital

  41. Codec ID : A_AC3

  42. Duration : 1 h 36 min

  43. Bit rate mode : Constant

  44. Bit rate : 384 kb/s

  45. Channel(s) : 2 channels

  46. Channel layout : L R

  47. Sampling rate : 48.0 kHz

  48. Frame rate : 31.250 FPS (1536 SPF)

  49. Compression mode : Lossy

  50. Stream size : 266 MiB (5%)

  51. Title : Mandarin

  52. Language : Chinese

  53. Service kind : Complete Main

  54. Default : Yes

  55. Forced : No

  56. Text

  57. ID : 3

  58. Format : PGS

  59. Muxing mode : zlib

  60. Codec ID : S_HDMV/PGS

  61. Codec ID/Info : Picture based subtitle format used on BDs/HD-DVDs

  62. Duration : 1 h 32 min

  63. Bit rate : 27.9 kb/s

  64. Count of elements : 1596

  65. Stream size : 18.5 MiB (0%)

  66. Title : CHS

  67. Language : Chinese

  68. Default : Yes

  69. Forced : No

  70. Menu

  71. 00:00:00.000 : en:第 01 章

  72. 00:06:58.458 : en:第 02 章

  73. 00:14:08.542 : en:第 03 章

  74. 00:23:42.583 : en:第 04 章

  75. 00:32:22.083 : en:第 05 章

  76. 00:40:03.250 : en:第 06 章

  77. 00:49:33.083 : en:第 07 章

  78. 00:55:44.833 : en:第 08 章

  79. 01:03:31.583 : en:第 09 章

  80. 01:11:48.250 : en:第 10 章

  81. 01:19:46.250 : en:第 11 章

  82. 01:33:47.250 : en:第 12 章


复制代码


文件下载


除非特别注明,本文『异灵灵异2002[国语配音/中文字幕].2002.2001.1080p.BluRay.DD2.0.x265-10bit-ENTHD 5.47GB』来源于互联网机器人自动抓取,非本站原创。 浮游电影网不对本文拥有版权,如有侵犯,请联系邮箱:fuyouu#yandex.com[#换成@]投诉。我们会在15个工作日内删除。 但烦请转载时请标明出处:“本文转载于『浮游电影网』,原文地址:https://www.fuyouu.com/22532.html

评论吧骚年!

发表你的见解   

昵称*

E-mail*(建议输入,以便收到博主回复的提示邮件)

验证码*

您可以使用eMule或eMule Mod(Windows)、aMule(Win、Linux、Mac)等软件下载eD2k链接。。
eMule收藏集(.emulecollection)文件是您选中的所有链接的列表文件。eMule可以直接下载它们。
按住SHIFT键选择可以选中多个选择框。
可用文件名和大小选择器来选择文件。
文件名选择器帮您根据文件名称或后缀来选择文件。不分大小写。
符号使用:
和:空格( )、+
不包含:-
或:|
转义:一对英文引号("");
匹配开头:^
匹配结尾:$
例如:
选中所有名称中包含有“eMule”或“0.49c”字眼,但不包含有“exe”字眼的:emule|0.49c -exe
选中所有名称的开头是“eMule”,结尾是“0.49c”的:^emule 0.49c$
选中所有名称中带有“eMule 0.49c”的(必须是“eMule 0.49c”,中间没有别的字符,不能是“eMule fake 0.49c”),需要转义:"emule 0.49c"
大小选择器帮您根据文件大小选择文件。