当前位置: 首页 >> 港台电影 >> 鹿鼎记[国语音轨/中英字幕].Royal.Tramp.1992.BluRay.1080p.x265.10bit.2Audio-MiniHD 6.31GB >> 正文

鹿鼎记[国语音轨/中英字幕].Royal.Tramp.1992.BluRay.1080p.x265.10bit.2Audio-MiniHD 6.31GB

2022年06月17日 00:45:03     电影发布:来源于网络     电影分类:港台电影     评论(0)    

◎译 名 鹿鼎记 / 新鹿鼎记(台) / Royal Tramp

◎片 名 鹿鼎記

◎年 代 1992

◎产 地 中国香港

◎类 别 喜剧 / 动作 / 武侠 / 古装

◎语 言 粤语

◎上映日期 1992-07-30(中国香港)

◎IMDb链接 https://www.imdb.com/title/tt0104770/

◎豆瓣评分 8.3/10 (305022人评价)

◎豆瓣链接 https://movie.douban.com/subject/1297223/

◎片 长 110分钟

◎导 演 王晶 Jing Wong (id:1274331)

程小东 Siu-Tung Ching (id:1280664)

◎编 剧 王晶 Jing Wong (id:1274331)

金庸 Louis Cha (id:1019677)

◎演 员 周星驰 Stephen Chow (id:1048026)

吴孟达 Man Tat Ng (id:1016771)

张敏 Sharla Cheung (id:1005297)

吴君如 Sandra Ng (id:1127819)

邱淑贞 Chingmy Yau (id:1048296)

刘松仁 Damian Lau (id:1028689)

陈百祥 Pak-cheung Chan (id:1070608)

袁洁莹 Fennie Yuen (id:1051082)

温兆伦 Siu-Lun Wan (id:1042785)

徐锦江 Elvis Tsui (id:1028828)

陈德容 Vivian Chan (id:1019966)

林青霞 Brigitte Lin (id:1044746)

钱似莺 Tsi-Ang Chin (id:1211064)

郑家生 Ka Sang Cheung (id:1280593)

胡立成 Licheng Hu (id:1331134)

林芳雪 Fangxue Lin (id:1322548)

刘江 Kong Lau (id:1274572)

雷达 Tat Lui (id:1361262)

王晶 Jing Wong (id:1274331)

向华强 Charles Heung (id:1037691)

萧若元 Stephen Siu (id:1297721)

向华胜 Jimmy Heung (id:1327878)

胡伟立 Wai Lap Wu (id:1275249)

商易 Yi Shang (id:1414560)

陈俊杰 Henry Chan (id:1280422)

周伟权 Wai-kuen Chow (id:1439948)

奚仲文 Chung-Man Hai (id:1275027)

程小东 Siu-Tung Ching (id:1280664)

元彬 Bun Yuen (id:1278657)

◎简 介

清朝初期,康熙皇帝尚且年少,奸臣从中控制政权,民不聊生。“天地会”是一个推翻清朝的民间组织。“天地会”首领陈近南(刘松仁 饰)在一次行动中幸得韦小宝(周星驰 饰)相救,小宝就此加入天地会,被派到王宫当卧底,偷取藏有清朝秘密的四十二章经。聪明机灵的小宝很快便成为了皇上的心腹,做了大官。小宝陷入了两难的状态,他既要执行任务却又跟皇帝成为了好朋友。就在小宝想要逃走之际,师父陈近南也找到了他,并派人监视他回到王宫。不久,小宝便受到了鳌拜同盟以及假太后的追杀,与天地会的人大战起来。

  1. ##### MediaInfo ######

  2. General

  3. Unique ID : 246745254395492412491500602054603590501 (0xB9A1684BDCD80EE19B0D227FD0C64B65)

  4. Complete name : Royal.Tramp.1992.BluRay.1080p.x265.10bit.2Audio-MiniHD.mkv

  5. Format : Matroska

  6. Format version : Version 4

  7. File size : 6.31 GiB

  8. Duration : 1 h 50 min

  9. Overall bit rate : 8 207 kb/s

  10. Encoded date : UTC 2017-06-15 07:55:36

  11. Writing application : mkvmerge v11.0.0 ('Alive') 64bit

  12. Writing library : libebml v1.3.4 + libmatroska v1.4.5

  13. Video

  14. ID : 1

  15. Format : HEVC

  16. Format/Info : High Efficiency Video Coding

  17. Codec ID : V_MPEGH/ISO/HEVC

  18. Duration : 1 h 50 min

  19. Bit rate : 6 763 kb/s

  20. Width : 1 920 pixels

  21. Height : 1 022 pixels

  22. Display aspect ratio : 1.85:1

  23. Frame rate mode : Constant

  24. Frame rate : 23.976 (24000/1001/53354) FPS

  25. Bits/(Pixel*Frame) : 0.144

  26. Stream size : 5.20 GiB (82%)

  27. Default : Yes

  28. Forced : No

  29. Audio #1

  30. ID : 2

  31. Format : AC-3

  32. Format/Info : Audio Coding 3

  33. Commercial name : Dolby Digital

  34. Codec ID : A_AC3

  35. Duration : 1 h 50 min

  36. Bit rate mode : Constant

  37. Bit rate : 640 kb/s

  38. Channel(s) : 6 channels

  39. Channel layout : L R C LFE Ls Rs

  40. Sampling rate : 48.0 kHz

  41. Frame rate : 31.250 FPS (1536 SPF)

  42. Compression mode : Lossy

  43. Stream size : 504 MiB (8%)

  44. Language : Chinese

  45. Service kind : Complete Main

  46. Default : Yes

  47. Forced : No

  48. Audio #2

  49. ID : 3

  50. Format : AC-3

  51. Format/Info : Audio Coding 3

  52. Commercial name : Dolby Digital

  53. Codec ID : A_AC3

  54. Duration : 1 h 50 min

  55. Bit rate mode : Constant

  56. Bit rate : 640 kb/s

  57. Channel(s) : 6 channels

  58. Channel layout : L R C LFE Ls Rs

  59. Sampling rate : 48.0 kHz

  60. Frame rate : 31.250 FPS (1536 SPF)

  61. Compression mode : Lossy

  62. Stream size : 504 MiB (8%)

  63. Language : Chinese

  64. Service kind : Complete Main

  65. Default : No

  66. Forced : No

  67. Text #1

  68. ID : 4

  69. Format : PGS

  70. Muxing mode : zlib

  71. Codec ID : S_HDMV/PGS

  72. Codec ID/Info : Picture based subtitle format used on BDs/HD-DVDs

  73. Language : Chinese

  74. Default : Yes

  75. Forced : No

  76. Text #2

  77. ID : 5

  78. Format : PGS

  79. Muxing mode : zlib

  80. Codec ID : S_HDMV/PGS

  81. Codec ID/Info : Picture based subtitle format used on BDs/HD-DVDs

  82. Language : English

  83. Default : No

  84. Forced : No

  85. Menu

  86. 00:00:00.000 : en:Chapter 01

  87. 00:06:36.437 : en:Chapter 02

  88. 00:12:28.038 : en:Chapter 03

  89. 00:14:34.665 : en:Chapter 04

  90. 00:19:30.127 : en:Chapter 05

  91. 00:25:10.258 : en:Chapter 06

  92. 00:28:49.769 : en:Chapter 07

  93. 00:31:36.769 : en:Chapter 08

  94. 00:37:13.648 : en:Chapter 09

  95. 00:41:48.839 : en:Chapter 10

  96. 00:50:43.707 : en:Chapter 11

  97. 00:54:34.896 : en:Chapter 12

  98. 01:02:09.350 : en:Chapter 13

  99. 01:08:01.952 : en:Chapter 14

  100. 01:12:14.371 : en:Chapter 15

  101. 01:18:27.327 : en:Chapter 16

  102. 01:24:29.189 : en:Chapter 17

  103. 01:33:04.745 : en:Chapter 18

  104. 01:39:00.351 : en:Chapter 19

  105. 01:45:05.549 : en:Chapter 20

  106. 01:50:12.856 : en:Chapter 21


复制代码



文件下载


除非特别注明,本文『鹿鼎记[国语音轨/中英字幕].Royal.Tramp.1992.BluRay.1080p.x265.10bit.2Audio-MiniHD 6.31GB』来源于互联网机器人自动抓取,非本站原创。 浮游电影网不对本文拥有版权,如有侵犯,请联系邮箱:fuyouu#yandex.com[#换成@]投诉。我们会在15个工作日内删除。 但烦请转载时请标明出处:“本文转载于『浮游电影网』,原文地址:https://www.fuyouu.com/22525.html

评论吧骚年!

发表你的见解   

昵称*

E-mail*(建议输入,以便收到博主回复的提示邮件)

验证码*

您可以使用eMule或eMule Mod(Windows)、aMule(Win、Linux、Mac)等软件下载eD2k链接。。
eMule收藏集(.emulecollection)文件是您选中的所有链接的列表文件。eMule可以直接下载它们。
按住SHIFT键选择可以选中多个选择框。
可用文件名和大小选择器来选择文件。
文件名选择器帮您根据文件名称或后缀来选择文件。不分大小写。
符号使用:
和:空格( )、+
不包含:-
或:|
转义:一对英文引号("");
匹配开头:^
匹配结尾:$
例如:
选中所有名称中包含有“eMule”或“0.49c”字眼,但不包含有“exe”字眼的:emule|0.49c -exe
选中所有名称的开头是“eMule”,结尾是“0.49c”的:^emule 0.49c$
选中所有名称中带有“eMule 0.49c”的(必须是“eMule 0.49c”,中间没有别的字符,不能是“eMule fake 0.49c”),需要转义:"emule 0.49c"
大小选择器帮您根据文件大小选择文件。