当前位置: 首页 >> 动画电影 >> 寻龙传说[国英日韩多音轨/简繁英字幕].Raya.and.the.Last.Dragon.2021.2160p.HDR.DSNP.WEB-DL.H.265.DDP5.1.Atmos-HDBWEB 29 >> 正文

寻龙传说[国英日韩多音轨/简繁英字幕].Raya.and.the.Last.Dragon.2021.2160p.HDR.DSNP.WEB-DL.H.265.DDP5.1.Atmos-HDBWEB 29

2022年06月17日 00:41:31     电影发布:来源于网络     电影分类:动画电影     评论(0)    

寻龙传说[国英日韩多音轨/简繁英字幕].Raya.and.the.Last.Dragon.2021.2160p.HDR.DSNP.WEB-DL.H.265.DDP5.1.Atmos-HDBWEB 29.13GB

◎译 名 寻龙传说 / 魔龙王国(港) / 寻龙使者:拉雅(台) / 瑞亚和最后一条龙 / 拉雅和最后的龙

◎片 名 Raya and The Last Dragon

◎年 代 2021

◎产 地 美国

◎类 别 动画 / 奇幻 / 冒险

◎语 言 英语

◎上映日期 2021-03-05(中国大陆/美国)

◎IMDb链接 https://www.imdb.com/title/tt5109280/

◎豆瓣评分 7.0/10 (110147人评价)

◎豆瓣链接 https://movie.douban.com/subject/34804147/

◎片 长 108分钟

◎导 演 唐·霍尔 Don Hall (id:1310636)

卡洛斯·洛佩斯·埃斯特拉达 Carlos López Estrada (id:1404269)

保罗·布里格斯 Paul Briggs (id:1344524)

约翰·瑞帕 John Ripa (id:1452379)

◎编 剧 阮基 Qui Nguyen (id:1452380)

阿黛勒·林 Adele Lim (id:1392344)

保罗·布里格斯 Paul Briggs (id:1344524)

唐·霍尔 Don Hall (id:1310636)

卡洛斯·洛佩斯·埃斯特拉达 Carlos López Estrada (id:1404269)

基尔·默里 Kiel Murray (id:1339655)

约翰·瑞帕 John Ripa (id:1452379)

迪恩·威林斯 Dean Wellins (id:1300679)

◎演 员 凯莉·玛丽·陈 Kelly Marie Tran (id:1354530)

奥卡菲娜 Awkwafina (id:1360857)

嘉玛·陈 Gemma Chan (id:1036516)

金大贤 Daniel Dae Kim (id:1022618)

吴珊卓 Sandra Oh (id:1010565)

本尼迪克特·王 Benedict Wong (id:1301179)

伊扎克·王 Izaac Wang (id:1432647)

塔莉娅·陈 Thalia Tran (id:1450626)

艾伦·图代克 Alan Tudyk (id:1031855)

迪辰·拉克曼 Dichen Lachman (id:1032055)

帕蒂·哈里森 Patti Harrison (id:1450627)

姜成镐 Sung Kang (id:1000166)

罗斯·巴特勒 Ross Butler (id:1372592)

乔娜·肖 Jona Xiao (id:1241858)

宋静秀 Lucille Soong (id:1149423)

弗朗克西斯·周 Fran?ois Chau (id:1069449)

保罗·扬 Paul Yen (id:1434551)

丽莎·德尔·门多 Liza Del Mundo (id:1055301)

塔妮亚·古纳迪 Tania Gunadi (id:1022943)

珍妮·关 Jennie Kwan (id:1109172)

卢锡安·佩雷兹 Lucian Perez (id:1449334)

文森特·罗德里格兹三世 Vincent Rodriguez III (id:1408660)

JB Tadena (id:1237096)

赵丽颖 Liying Zhao (id:1275620)

詹姆斯·纽顿·霍华德 James Newton Howard (id:1019135)

Fabienne Rawley Fabienne Rawley (id:1452871)

Shannon Stein Shannon Stein (id:1452872)

洁米·斯贝勒·罗伯茨 Jamie Sparer Roberts (id:1382983)

保罗·A·费利克斯 Paul A. Felix (id:1283549)

布莱恩·亚当斯 Brian Adams (id:1452873)

◎简 介

很久以前,在充满奇幻色彩的龙佑之邦,人类和龙和谐地生活在一起。但当一股邪恶的力量袭来,龙牺牲了自己来拯救人类。500年后,同样的邪恶力量卷土重来,只有一个孤独的战士拉雅(凯莉·玛丽·陈 配音)承担重任,追踪传说中的最后一条龙,以修复这块破碎的土地,团结分裂的人民。在她的旅程中,她也会逐渐了解到拯救世界不仅仅需要一条龙,还需要信任和团队合作。

◎获奖情况 (共13项)

第94届奥斯卡金像奖 (2022)

最佳动画长片(提名)

第79届金球奖 (2022)

电影类 最佳动画长片(提名)

第49届动画安妮奖 (2022)

最佳动画长片(提名)

最佳编剧(提名)

最佳配音(提名)

└──凯莉·玛丽·陈 (id:1354530)

最佳配乐(提名)

最佳制作(提名)

最佳剪辑(提名)

最佳分镜(提名)

最佳动画角色(提名)

最佳角色设计(提名)

最佳动画效果(提名)

第27届美国评论家选择电影奖 (2022)

最佳动画片(提名)

  1. ##### MediaInfo ######

  2. General

  3. Unique ID : 293569063787701814715233041733682608359 (0xDCDB585678A20ABBF2791646140A38E7)

  4. Complete name : Raya.and.the.Last.Dragon.2021.2160p.HDR.DSNP.WEB-DL.H.265.DDP5.1.Atmos-HDBWEB.mkv

  5. Format : Matroska

  6. Format version : Version 4

  7. File size : 29.1 GiB

  8. Duration : 1 h 47 min

  9. Overall bit rate : 38.8 Mb/s

  10. Encoded date : UTC 2022-06-13 13:44:31

  11. Writing application : mkvmerge v68.0.0 ('The Curtain') 64-bit

  12. Writing library : libebml v1.4.2 + libmatroska v1.6.4

  13. Video

  14. ID : 1

  15. Format : HEVC

  16. Format/Info : High Efficiency Video Coding

  17. Format profile : Main [email protected]@High

  18. HDR format : SMPTE ST 2086, HDR10 compatible

  19. Codec ID : V_MPEGH/ISO/HEVC

  20. Duration : 1 h 47 min

  21. Bit rate : 16.5 Mb/s

  22. Width : 3 840 pixels

  23. Height : 2 160 pixels

  24. Display aspect ratio : 16:9

  25. Frame rate mode : Constant

  26. Frame rate : 23.976 (24000/1001/53354) FPS

  27. Color space : YUV

  28. Chroma subsampling : 4:2:0

  29. Bit depth : 10 bits

  30. Bits/(Pixel*Frame) : 0.083

  31. Stream size : 12.4 GiB (43%)

  32. Language : English

  33. Default : Yes

  34. Forced : No

  35. Color range : Limited

  36. Color primaries : BT.2020

  37. Transfer characteristics : PQ

  38. Matrix coefficients : BT.2020 non-constant

  39. Mastering display color primaries : Display P3

  40. Mastering display luminance : min: 0.0000 cd/m2, max: 1000 cd/m2

  41. Audio #1

  42. ID : 2

  43. Format : E-AC-3 JOC

  44. Format/Info : Enhanced AC-3 with Joint Object Coding

  45. Commercial name : Dolby Digital Plus with Dolby Atmos

  46. Codec ID : A_EAC3

  47. Duration : 1 h 47 min

  48. Bit rate mode : Constant

  49. Bit rate : 768 kb/s

  50. Channel(s) : 6 channels

  51. Channel layout : L R C LFE Ls Rs

  52. Sampling rate : 48.0 kHz

  53. Frame rate : 31.250 FPS (1536 SPF)

  54. Compression mode : Lossy

  55. Stream size : 590 MiB (2%)

  56. Language : English

  57. Service kind : Complete Main

  58. Default : Yes

  59. Forced : No

  60. Complexity index : 16

  61. Number of dynamic objects : 15

  62. Bed channel count : 1 channel

  63. Bed channel configuration : LFE

  64. Audio #2

  65. ID : 3

  66. Format : E-AC-3

  67. Format/Info : Enhanced AC-3

  68. Commercial name : Dolby Digital Plus

  69. Codec ID : A_EAC3

  70. Duration : 1 h 47 min

  71. Bit rate mode : Constant

  72. Bit rate : 256 kb/s

  73. Channel(s) : 6 channels

  74. Channel layout : L R C LFE Ls Rs

  75. Sampling rate : 48.0 kHz

  76. Frame rate : 31.250 FPS (1536 SPF)

  77. Compression mode : Lossy

  78. Stream size : 197 MiB (1%)

  79. Language : English

  80. Service kind : Complete Main

  81. Default : No

  82. Forced : No

  83. Audio #3

  84. ID : 4

  85. Format : AAC LC

  86. Format/Info : Advanced Audio Codec Low Complexity

  87. Codec ID : A_AAC-2

  88. Duration : 1 h 47 min

  89. Bit rate : 125 kb/s

  90. Channel(s) : 2 channels

  91. Channel layout : L R

  92. Sampling rate : 48.0 kHz

  93. Frame rate : 46.875 FPS (1024 SPF)

  94. Compression mode : Lossy

  95. Stream size : 96.4 MiB (0%)

  96. Language : English

  97. Default : No

  98. Forced : No

  99. Audio #4

  100. ID : 5

  101. Format : AAC LC

  102. Format/Info : Advanced Audio Codec Low Complexity

  103. Codec ID : A_AAC-2

  104. Duration : 1 h 47 min

  105. Bit rate : 61.4 kb/s

  106. Channel(s) : 2 channels

  107. Channel layout : L R

  108. Sampling rate : 48.0 kHz

  109. Frame rate : 46.875 FPS (1024 SPF)

  110. Compression mode : Lossy

  111. Stream size : 47.2 MiB (0%)

  112. Language : English

  113. Default : No

  114. Forced : No

  115. Audio #5

  116. ID : 6

  117. Format : E-AC-3

  118. Format/Info : Enhanced AC-3

  119. Commercial name : Dolby Digital Plus

  120. Codec ID : A_EAC3

  121. Duration : 1 h 47 min

  122. Bit rate mode : Constant

  123. Bit rate : 256 kb/s

  124. Channel(s) : 6 channels

  125. Channel layout : L R C LFE Ls Rs

  126. Sampling rate : 48.0 kHz

  127. Frame rate : 31.250 FPS (1536 SPF)

  128. Compression mode : Lossy

  129. Stream size : 197 MiB (1%)

  130. Language : Catalan

  131. Service kind : Complete Main

  132. Default : No

  133. Forced : No

  134. Audio #6

  135. ID : 7

  136. Format : E-AC-3

  137. Format/Info : Enhanced AC-3

  138. Commercial name : Dolby Digital Plus

  139. Codec ID : A_EAC3

  140. Duration : 1 h 47 min

  141. Bit rate mode : Constant

  142. Bit rate : 256 kb/s

  143. Channel(s) : 6 channels

  144. Channel layout : L R C LFE Ls Rs

  145. Sampling rate : 48.0 kHz

  146. Frame rate : 31.250 FPS (1536 SPF)

  147. Compression mode : Lossy

  148. Stream size : 197 MiB (1%)

  149. Language : Catalan

  150. Service kind : Complete Main

  151. Default : No

  152. Forced : No

  153. Audio #7

  154. ID : 8

  155. Format : AAC LC

  156. Format/Info : Advanced Audio Codec Low Complexity

  157. Codec ID : A_AAC-2

  158. Duration : 1 h 47 min

  159. Bit rate : 125 kb/s

  160. Channel(s) : 2 channels

  161. Channel layout : L R

  162. Sampling rate : 48.0 kHz

  163. Frame rate : 46.875 FPS (1024 SPF)

  164. Compression mode : Lossy

  165. Stream size : 96.4 MiB (0%)

  166. Language : Catalan

  167. Default : No

  168. Forced : No

  169. Audio #8

  170. ID : 9

  171. Format : AAC LC

  172. Format/Info : Advanced Audio Codec Low Complexity

  173. Codec ID : A_AAC-2

  174. Duration : 1 h 47 min

  175. Bit rate : 61.4 kb/s

  176. Channel(s) : 2 channels

  177. Channel layout : L R

  178. Sampling rate : 48.0 kHz

  179. Frame rate : 46.875 FPS (1024 SPF)

  180. Compression mode : Lossy

  181. Stream size : 47.2 MiB (0%)

  182. Language : Catalan

  183. Default : No

  184. Forced : No

  185. Audio #9

  186. ID : 10

  187. Format : E-AC-3

  188. Format/Info : Enhanced AC-3

  189. Commercial name : Dolby Digital Plus

  190. Codec ID : A_EAC3

  191. Duration : 1 h 47 min

  192. Bit rate mode : Constant

  193. Bit rate : 256 kb/s

  194. Channel(s) : 6 channels

  195. Channel layout : L R C LFE Ls Rs

  196. Sampling rate : 48.0 kHz

  197. Frame rate : 31.250 FPS (1536 SPF)

  198. Compression mode : Lossy

  199. Stream size : 197 MiB (1%)

  200. Language : Czech

  201. Service kind : Complete Main

  202. Default : No

  203. Forced : No

  204. Audio #10

  205. ID : 11

  206. Format : E-AC-3

  207. Format/Info : Enhanced AC-3

  208. Commercial name : Dolby Digital Plus

  209. Codec ID : A_EAC3

  210. Duration : 1 h 47 min

  211. Bit rate mode : Constant

  212. Bit rate : 256 kb/s

  213. Channel(s) : 6 channels

  214. Channel layout : L R C LFE Ls Rs

  215. Sampling rate : 48.0 kHz

  216. Frame rate : 31.250 FPS (1536 SPF)

  217. Compression mode : Lossy

  218. Stream size : 197 MiB (1%)

  219. Language : Czech

  220. Service kind : Complete Main

  221. Default : No

  222. Forced : No

  223. Audio #11

  224. ID : 12

  225. Format : AAC LC

  226. Format/Info : Advanced Audio Codec Low Complexity

  227. Codec ID : A_AAC-2

  228. Duration : 1 h 47 min

  229. Bit rate : 125 kb/s

  230. Channel(s) : 2 channels

  231. Channel layout : L R

  232. Sampling rate : 48.0 kHz

  233. Frame rate : 46.875 FPS (1024 SPF)

  234. Compression mode : Lossy

  235. Stream size : 96.4 MiB (0%)

  236. Language : Czech

  237. Default : No

  238. Forced : No

  239. Audio #12

  240. ID : 13

  241. Format : AAC LC

  242. Format/Info : Advanced Audio Codec Low Complexity

  243. Codec ID : A_AAC-2

  244. Duration : 1 h 47 min

  245. Bit rate : 61.4 kb/s

  246. Channel(s) : 2 channels

  247. Channel layout : L R

  248. Sampling rate : 48.0 kHz

  249. Frame rate : 46.875 FPS (1024 SPF)

  250. Compression mode : Lossy

  251. Stream size : 47.2 MiB (0%)

  252. Language : Czech

  253. Default : No

  254. Forced : No

  255. Audio #13

  256. ID : 14

  257. Format : E-AC-3

  258. Format/Info : Enhanced AC-3

  259. Commercial name : Dolby Digital Plus

  260. Codec ID : A_EAC3

  261. Duration : 1 h 47 min

  262. Bit rate mode : Constant

  263. Bit rate : 256 kb/s

  264. Channel(s) : 6 channels

  265. Channel layout : L R C LFE Ls Rs

  266. Sampling rate : 48.0 kHz

  267. Frame rate : 31.250 FPS (1536 SPF)

  268. Compression mode : Lossy

  269. Stream size : 197 MiB (1%)

  270. Language : Danish

  271. Service kind : Complete Main

  272. Default : No

  273. Forced : No

  274. Audio #14

  275. ID : 15

  276. Format : E-AC-3

  277. Format/Info : Enhanced AC-3

  278. Commercial name : Dolby Digital Plus

  279. Codec ID : A_EAC3

  280. Duration : 1 h 47 min

  281. Bit rate mode : Constant

  282. Bit rate : 256 kb/s

  283. Channel(s) : 6 channels

  284. Channel layout : L R C LFE Ls Rs

  285. Sampling rate : 48.0 kHz

  286. Frame rate : 31.250 FPS (1536 SPF)

  287. Compression mode : Lossy

  288. Stream size : 197 MiB (1%)

  289. Language : Danish

  290. Service kind : Complete Main

  291. Default : No

  292. Forced : No

  293. Audio #15

  294. ID : 16

  295. Format : AAC LC

  296. Format/Info : Advanced Audio Codec Low Complexity

  297. Codec ID : A_AAC-2

  298. Duration : 1 h 47 min

  299. Bit rate : 125 kb/s

  300. Channel(s) : 2 channels

  301. Channel layout : L R

  302. Sampling rate : 48.0 kHz

  303. Frame rate : 46.875 FPS (1024 SPF)

  304. Compression mode : Lossy

  305. Stream size : 96.4 MiB (0%)

  306. Language : Danish

  307. Default : No

  308. Forced : No

  309. Audio #16

  310. ID : 17

  311. Format : AAC LC

  312. Format/Info : Advanced Audio Codec Low Complexity

  313. Codec ID : A_AAC-2

  314. Duration : 1 h 47 min

  315. Bit rate : 61.4 kb/s

  316. Channel(s) : 2 channels

  317. Channel layout : L R

  318. Sampling rate : 48.0 kHz

  319. Frame rate : 46.875 FPS (1024 SPF)

  320. Compression mode : Lossy

  321. Stream size : 47.2 MiB (0%)

  322. Language : Danish

  323. Default : No

  324. Forced : No

  325. Audio #17

  326. ID : 18

  327. Format : E-AC-3

  328. Format/Info : Enhanced AC-3

  329. Commercial name : Dolby Digital Plus

  330. Codec ID : A_EAC3

  331. Duration : 1 h 47 min

  332. Bit rate mode : Constant

  333. Bit rate : 256 kb/s

  334. Channel(s) : 6 channels

  335. Channel layout : L R C LFE Ls Rs

  336. Sampling rate : 48.0 kHz

  337. Frame rate : 31.250 FPS (1536 SPF)

  338. Compression mode : Lossy

  339. Stream size : 197 MiB (1%)

  340. Language : German

  341. Service kind : Complete Main

  342. Default : No

  343. Forced : No

  344. Audio #18

  345. ID : 19

  346. Format : E-AC-3

  347. Format/Info : Enhanced AC-3

  348. Commercial name : Dolby Digital Plus

  349. Codec ID : A_EAC3

  350. Duration : 1 h 47 min

  351. Bit rate mode : Constant

  352. Bit rate : 256 kb/s

  353. Channel(s) : 6 channels

  354. Channel layout : L R C LFE Ls Rs

  355. Sampling rate : 48.0 kHz

  356. Frame rate : 31.250 FPS (1536 SPF)

  357. Compression mode : Lossy

  358. Stream size : 197 MiB (1%)

  359. Language : German

  360. Service kind : Complete Main

  361. Default : No

  362. Forced : No

  363. Audio #19

  364. ID : 20

  365. Format : AAC LC

  366. Format/Info : Advanced Audio Codec Low Complexity

  367. Codec ID : A_AAC-2

  368. Duration : 1 h 47 min

  369. Bit rate : 125 kb/s

  370. Channel(s) : 2 channels

  371. Channel layout : L R

  372. Sampling rate : 48.0 kHz

  373. Frame rate : 46.875 FPS (1024 SPF)

  374. Compression mode : Lossy

  375. Stream size : 96.4 MiB (0%)

  376. Language : German

  377. Default : No

  378. Forced : No

  379. Audio #20

  380. ID : 21

  381. Format : AAC LC

  382. Format/Info : Advanced Audio Codec Low Complexity

  383. Codec ID : A_AAC-2

  384. Duration : 1 h 47 min

  385. Bit rate : 61.4 kb/s

  386. Channel(s) : 2 channels

  387. Channel layout : L R

  388. Sampling rate : 48.0 kHz

  389. Frame rate : 46.875 FPS (1024 SPF)

  390. Compression mode : Lossy

  391. Stream size : 47.2 MiB (0%)

  392. Language : German

  393. Default : No

  394. Forced : No

  395. Audio #21

  396. ID : 22

  397. Format : E-AC-3

  398. Format/Info : Enhanced AC-3

  399. Commercial name : Dolby Digital Plus

  400. Codec ID : A_EAC3

  401. Duration : 1 h 47 min

  402. Bit rate mode : Constant

  403. Bit rate : 256 kb/s

  404. Channel(s) : 6 channels

  405. Channel layout : L R C LFE Ls Rs

  406. Sampling rate : 48.0 kHz

  407. Frame rate : 31.250 FPS (1536 SPF)

  408. Compression mode : Lossy

  409. Stream size : 197 MiB (1%)

  410. Language : Greek

  411. Service kind : Complete Main

  412. Default : No

  413. Forced : No

  414. Audio #22

  415. ID : 23

  416. Format : E-AC-3

  417. Format/Info : Enhanced AC-3

  418. Commercial name : Dolby Digital Plus

  419. Codec ID : A_EAC3

  420. Duration : 1 h 47 min

  421. Bit rate mode : Constant

  422. Bit rate : 256 kb/s

  423. Channel(s) : 6 channels

  424. Channel layout : L R C LFE Ls Rs

  425. Sampling rate : 48.0 kHz

  426. Frame rate : 31.250 FPS (1536 SPF)

  427. Compression mode : Lossy

  428. Stream size : 197 MiB (1%)

  429. Language : Greek

  430. Service kind : Complete Main

  431. Default : No

  432. Forced : No

  433. Audio #23

  434. ID : 24

  435. Format : AAC LC

  436. Format/Info : Advanced Audio Codec Low Complexity

  437. Codec ID : A_AAC-2

  438. Duration : 1 h 47 min

  439. Bit rate : 125 kb/s

  440. Channel(s) : 2 channels

  441. Channel layout : L R

  442. Sampling rate : 48.0 kHz

  443. Frame rate : 46.875 FPS (1024 SPF)

  444. Compression mode : Lossy

  445. Stream size : 96.4 MiB (0%)

  446. Language : Greek

  447. Default : No

  448. Forced : No

  449. Audio #24

  450. ID : 25

  451. Format : AAC LC

  452. Format/Info : Advanced Audio Codec Low Complexity

  453. Codec ID : A_AAC-2

  454. Duration : 1 h 47 min

  455. Bit rate : 61.4 kb/s

  456. Channel(s) : 2 channels

  457. Channel layout : L R

  458. Sampling rate : 48.0 kHz

  459. Frame rate : 46.875 FPS (1024 SPF)

  460. Compression mode : Lossy

  461. Stream size : 47.2 MiB (0%)

  462. Language : Greek

  463. Default : No

  464. Forced : No

  465. Audio #25

  466. ID : 26

  467. Format : E-AC-3

  468. Format/Info : Enhanced AC-3

  469. Commercial name : Dolby Digital Plus

  470. Codec ID : A_EAC3

  471. Duration : 1 h 47 min

  472. Bit rate mode : Constant

  473. Bit rate : 256 kb/s

  474. Channel(s) : 6 channels

  475. Channel layout : L R C LFE Ls Rs

  476. Sampling rate : 48.0 kHz

  477. Frame rate : 31.250 FPS (1536 SPF)

  478. Compression mode : Lossy

  479. Stream size : 197 MiB (1%)

  480. Title : Latin America

  481. Language : Spanish

  482. Service kind : Complete Main

  483. Default : No

  484. Forced : No

  485. Audio #26

  486. ID : 27

  487. Format : E-AC-3

  488. Format/Info : Enhanced AC-3

  489. Commercial name : Dolby Digital Plus

  490. Codec ID : A_EAC3

  491. Duration : 1 h 47 min

  492. Bit rate mode : Constant

  493. Bit rate : 256 kb/s

  494. Channel(s) : 6 channels

  495. Channel layout : L R C LFE Ls Rs

  496. Sampling rate : 48.0 kHz

  497. Frame rate : 31.250 FPS (1536 SPF)

  498. Compression mode : Lossy

  499. Stream size : 197 MiB (1%)

  500. Title : Latin America

  501. Language : Spanish

  502. Service kind : Complete Main

  503. Default : No

  504. Forced : No

  505. Audio #27

  506. ID : 28

  507. Format : AAC LC

  508. Format/Info : Advanced Audio Codec Low Complexity

  509. Codec ID : A_AAC-2

  510. Duration : 1 h 47 min

  511. Bit rate : 125 kb/s

  512. Channel(s) : 2 channels

  513. Channel layout : L R

  514. Sampling rate : 48.0 kHz

  515. Frame rate : 46.875 FPS (1024 SPF)

  516. Compression mode : Lossy

  517. Stream size : 96.4 MiB (0%)

  518. Title : Latin America

  519. Language : Spanish

  520. Default : No

  521. Forced : No

  522. Audio #28

  523. ID : 29

  524. Format : AAC LC

  525. Format/Info : Advanced Audio Codec Low Complexity

  526. Codec ID : A_AAC-2

  527. Duration : 1 h 47 min

  528. Bit rate : 61.4 kb/s

  529. Channel(s) : 2 channels

  530. Channel layout : L R

  531. Sampling rate : 48.0 kHz

  532. Frame rate : 46.875 FPS (1024 SPF)

  533. Compression mode : Lossy

  534. Stream size : 47.2 MiB (0%)

  535. Title : Latin America

  536. Language : Spanish

  537. Default : No

  538. Forced : No

  539. Audio #29

  540. ID : 30

  541. Format : E-AC-3

  542. Format/Info : Enhanced AC-3

  543. Commercial name : Dolby Digital Plus

  544. Codec ID : A_EAC3

  545. Duration : 1 h 47 min

  546. Bit rate mode : Constant

  547. Bit rate : 256 kb/s

  548. Channel(s) : 6 channels

  549. Channel layout : L R C LFE Ls Rs

  550. Sampling rate : 48.0 kHz

  551. Frame rate : 31.250 FPS (1536 SPF)

  552. Compression mode : Lossy

  553. Stream size : 197 MiB (1%)

  554. Language : Spanish

  555. Service kind : Complete Main

  556. Default : No

  557. Forced : No

  558. Audio #30

  559. ID : 31

  560. Format : E-AC-3

  561. Format/Info : Enhanced AC-3

  562. Commercial name : Dolby Digital Plus

  563. Codec ID : A_EAC3

  564. Duration : 1 h 47 min

  565. Bit rate mode : Constant

  566. Bit rate : 256 kb/s

  567. Channel(s) : 6 channels

  568. Channel layout : L R C LFE Ls Rs

  569. Sampling rate : 48.0 kHz

  570. Frame rate : 31.250 FPS (1536 SPF)

  571. Compression mode : Lossy

  572. Stream size : 197 MiB (1%)

  573. Language : Spanish

  574. Service kind : Complete Main

  575. Default : No

  576. Forced : No

  577. Audio #31

  578. ID : 32

  579. Format : AAC LC

  580. Format/Info : Advanced Audio Codec Low Complexity

  581. Codec ID : A_AAC-2

  582. Duration : 1 h 47 min

  583. Bit rate : 125 kb/s

  584. Channel(s) : 2 channels

  585. Channel layout : L R

  586. Sampling rate : 48.0 kHz

  587. Frame rate : 46.875 FPS (1024 SPF)

  588. Compression mode : Lossy

  589. Stream size : 96.4 MiB (0%)

  590. Language : Spanish

  591. Default : No

  592. Forced : No

  593. Audio #32

  594. ID : 33

  595. Format : AAC LC

  596. Format/Info : Advanced Audio Codec Low Complexity

  597. Codec ID : A_AAC-2

  598. Duration : 1 h 47 min

  599. Bit rate : 61.4 kb/s

  600. Channel(s) : 2 channels

  601. Channel layout : L R

  602. Sampling rate : 48.0 kHz

  603. Frame rate : 46.875 FPS (1024 SPF)

  604. Compression mode : Lossy

  605. Stream size : 47.2 MiB (0%)

  606. Language : Spanish

  607. Default : No

  608. Forced : No

  609. Audio #33

  610. ID : 34

  611. Format : E-AC-3

  612. Format/Info : Enhanced AC-3

  613. Commercial name : Dolby Digital Plus

  614. Codec ID : A_EAC3

  615. Duration : 1 h 47 min

  616. Bit rate mode : Constant

  617. Bit rate : 256 kb/s

  618. Channel(s) : 6 channels

  619. Channel layout : L R C LFE Ls Rs

  620. Sampling rate : 48.0 kHz

  621. Frame rate : 31.250 FPS (1536 SPF)

  622. Compression mode : Lossy

  623. Stream size : 197 MiB (1%)

  624. Language : Finnish

  625. Service kind : Complete Main

  626. Default : No

  627. Forced : No

  628. Audio #34

  629. ID : 35

  630. Format : E-AC-3

  631. Format/Info : Enhanced AC-3

  632. Commercial name : Dolby Digital Plus

  633. Codec ID : A_EAC3

  634. Duration : 1 h 47 min

  635. Bit rate mode : Constant

  636. Bit rate : 256 kb/s

  637. Channel(s) : 6 channels

  638. Channel layout : L R C LFE Ls Rs

  639. Sampling rate : 48.0 kHz

  640. Frame rate : 31.250 FPS (1536 SPF)

  641. Compression mode : Lossy

  642. Stream size : 197 MiB (1%)

  643. Language : Finnish

  644. Service kind : Complete Main

  645. Default : No

  646. Forced : No

  647. Audio #35

  648. ID : 36

  649. Format : AAC LC

  650. Format/Info : Advanced Audio Codec Low Complexity

  651. Codec ID : A_AAC-2

  652. Duration : 1 h 47 min

  653. Bit rate : 125 kb/s

  654. Channel(s) : 2 channels

  655. Channel layout : L R

  656. Sampling rate : 48.0 kHz

  657. Frame rate : 46.875 FPS (1024 SPF)

  658. Compression mode : Lossy

  659. Stream size : 96.4 MiB (0%)

  660. Language : Finnish

  661. Default : No

  662. Forced : No

  663. Audio #36

  664. ID : 37

  665. Format : AAC LC

  666. Format/Info : Advanced Audio Codec Low Complexity

  667. Codec ID : A_AAC-2

  668. Duration : 1 h 47 min

  669. Bit rate : 61.4 kb/s

  670. Channel(s) : 2 channels

  671. Channel layout : L R

  672. Sampling rate : 48.0 kHz

  673. Frame rate : 46.875 FPS (1024 SPF)

  674. Compression mode : Lossy

  675. Stream size : 47.2 MiB (0%)

  676. Language : Finnish

  677. Default : No

  678. Forced : No

  679. Audio #37

  680. ID : 38

  681. Format : E-AC-3

  682. Format/Info : Enhanced AC-3

  683. Commercial name : Dolby Digital Plus

  684. Codec ID : A_EAC3

  685. Duration : 1 h 47 min

  686. Bit rate mode : Constant

  687. Bit rate : 256 kb/s

  688. Channel(s) : 6 channels

  689. Channel layout : L R C LFE Ls Rs

  690. Sampling rate : 48.0 kHz

  691. Frame rate : 31.250 FPS (1536 SPF)

  692. Compression mode : Lossy

  693. Stream size : 197 MiB (1%)

  694. Title : Canada

  695. Language : French

  696. Service kind : Complete Main

  697. Default : No

  698. Forced : No

  699. Audio #38

  700. ID : 39

  701. Format : E-AC-3

  702. Format/Info : Enhanced AC-3

  703. Commercial name : Dolby Digital Plus

  704. Codec ID : A_EAC3

  705. Duration : 1 h 47 min

  706. Bit rate mode : Constant

  707. Bit rate : 256 kb/s

  708. Channel(s) : 6 channels

  709. Channel layout : L R C LFE Ls Rs

  710. Sampling rate : 48.0 kHz

  711. Frame rate : 31.250 FPS (1536 SPF)

  712. Compression mode : Lossy

  713. Stream size : 197 MiB (1%)

  714. Title : Canada

  715. Language : French

  716. Service kind : Complete Main

  717. Default : No

  718. Forced : No

  719. Audio #39

  720. ID : 40

  721. Format : AAC LC

  722. Format/Info : Advanced Audio Codec Low Complexity

  723. Codec ID : A_AAC-2

  724. Duration : 1 h 47 min

  725. Bit rate : 125 kb/s

  726. Channel(s) : 2 channels

  727. Channel layout : L R

  728. Sampling rate : 48.0 kHz

  729. Frame rate : 46.875 FPS (1024 SPF)

  730. Compression mode : Lossy

  731. Stream size : 96.4 MiB (0%)

  732. Title : Canada

  733. Language : French

  734. Default : No

  735. Forced : No

  736. Audio #40

  737. ID : 41

  738. Format : AAC LC

  739. Format/Info : Advanced Audio Codec Low Complexity

  740. Codec ID : A_AAC-2

  741. Duration : 1 h 47 min

  742. Bit rate : 61.4 kb/s

  743. Channel(s) : 2 channels

  744. Channel layout : L R

  745. Sampling rate : 48.0 kHz

  746. Frame rate : 46.875 FPS (1024 SPF)

  747. Compression mode : Lossy

  748. Stream size : 47.2 MiB (0%)

  749. Title : Canada

  750. Language : French

  751. Default : No

  752. Forced : No

  753. Audio #41

  754. ID : 42

  755. Format : E-AC-3

  756. Format/Info : Enhanced AC-3

  757. Commercial name : Dolby Digital Plus

  758. Codec ID : A_EAC3

  759. Duration : 1 h 47 min

  760. Bit rate mode : Constant

  761. Bit rate : 256 kb/s

  762. Channel(s) : 6 channels

  763. Channel layout : L R C LFE Ls Rs

  764. Sampling rate : 48.0 kHz

  765. Frame rate : 31.250 FPS (1536 SPF)

  766. Compression mode : Lossy

  767. Stream size : 197 MiB (1%)

  768. Language : French

  769. Service kind : Complete Main

  770. Default : No

  771. Forced : No

  772. Audio #42

  773. ID : 43

  774. Format : E-AC-3

  775. Format/Info : Enhanced AC-3

  776. Commercial name : Dolby Digital Plus

  777. Codec ID : A_EAC3

  778. Duration : 1 h 47 min

  779. Bit rate mode : Constant

  780. Bit rate : 256 kb/s

  781. Channel(s) : 6 channels

  782. Channel layout : L R C LFE Ls Rs

  783. Sampling rate : 48.0 kHz

  784. Frame rate : 31.250 FPS (1536 SPF)

  785. Compression mode : Lossy

  786. Stream size : 197 MiB (1%)

  787. Language : French

  788. Service kind : Complete Main

  789. Default : No

  790. Forced : No

  791. Audio #43

  792. ID : 44

  793. Format : AAC LC

  794. Format/Info : Advanced Audio Codec Low Complexity

  795. Codec ID : A_AAC-2

  796. Duration : 1 h 47 min

  797. Bit rate : 125 kb/s

  798. Channel(s) : 2 channels

  799. Channel layout : L R

  800. Sampling rate : 48.0 kHz

  801. Frame rate : 46.875 FPS (1024 SPF)

  802. Compression mode : Lossy

  803. Stream size : 96.4 MiB (0%)

  804. Language : French

  805. Default : No

  806. Forced : No

  807. Audio #44

  808. ID : 45

  809. Format : AAC LC

  810. Format/Info : Advanced Audio Codec Low Complexity

  811. Codec ID : A_AAC-2

  812. Duration : 1 h 47 min

  813. Bit rate : 61.4 kb/s

  814. Channel(s) : 2 channels

  815. Channel layout : L R

  816. Sampling rate : 48.0 kHz

  817. Frame rate : 46.875 FPS (1024 SPF)

  818. Compression mode : Lossy

  819. Stream size : 47.2 MiB (0%)

  820. Language : French

  821. Default : No

  822. Forced : No

  823. Audio #45

  824. ID : 46

  825. Format : E-AC-3

  826. Format/Info : Enhanced AC-3

  827. Commercial name : Dolby Digital Plus

  828. Codec ID : A_EAC3

  829. Duration : 1 h 47 min

  830. Bit rate mode : Constant

  831. Bit rate : 256 kb/s

  832. Channel(s) : 6 channels

  833. Channel layout : L R C LFE Ls Rs

  834. Sampling rate : 48.0 kHz

  835. Frame rate : 31.250 FPS (1536 SPF)

  836. Compression mode : Lossy

  837. Stream size : 197 MiB (1%)

  838. Language : Hungarian

  839. Service kind : Complete Main

  840. Default : No

  841. Forced : No

  842. Audio #46

  843. ID : 47

  844. Format : E-AC-3

  845. Format/Info : Enhanced AC-3

  846. Commercial name : Dolby Digital Plus

  847. Codec ID : A_EAC3

  848. Duration : 1 h 47 min

  849. Bit rate mode : Constant

  850. Bit rate : 256 kb/s

  851. Channel(s) : 6 channels

  852. Channel layout : L R C LFE Ls Rs

  853. Sampling rate : 48.0 kHz

  854. Frame rate : 31.250 FPS (1536 SPF)

  855. Compression mode : Lossy

  856. Stream size : 197 MiB (1%)

  857. Language : Hungarian

  858. Service kind : Complete Main

  859. Default : No

  860. Forced : No

  861. Audio #47

  862. ID : 48

  863. Format : AAC LC

  864. Format/Info : Advanced Audio Codec Low Complexity

  865. Codec ID : A_AAC-2

  866. Duration : 1 h 47 min

  867. Bit rate : 125 kb/s

  868. Channel(s) : 2 channels

  869. Channel layout : L R

  870. Sampling rate : 48.0 kHz

  871. Frame rate : 46.875 FPS (1024 SPF)

  872. Compression mode : Lossy

  873. Stream size : 96.4 MiB (0%)

  874. Language : Hungarian

  875. Default : No

  876. Forced : No

  877. Audio #48

  878. ID : 49

  879. Format : AAC LC

  880. Format/Info : Advanced Audio Codec Low Complexity

  881. Codec ID : A_AAC-2

  882. Duration : 1 h 47 min

  883. Bit rate : 61.4 kb/s

  884. Channel(s) : 2 channels

  885. Channel layout : L R

  886. Sampling rate : 48.0 kHz

  887. Frame rate : 46.875 FPS (1024 SPF)

  888. Compression mode : Lossy

  889. Stream size : 47.2 MiB (0%)

  890. Language : Hungarian

  891. Default : No

  892. Forced : No

  893. Audio #49

  894. ID : 50

  895. Format : E-AC-3

  896. Format/Info : Enhanced AC-3

  897. Commercial name : Dolby Digital Plus

  898. Codec ID : A_EAC3

  899. Duration : 1 h 47 min

  900. Bit rate mode : Constant

  901. Bit rate : 256 kb/s

  902. Channel(s) : 6 channels

  903. Channel layout : L R C LFE Ls Rs

  904. Sampling rate : 48.0 kHz

  905. Frame rate : 31.250 FPS (1536 SPF)

  906. Compression mode : Lossy

  907. Stream size : 197 MiB (1%)

  908. Language : Indonesian

  909. Service kind : Complete Main

  910. Default : No

  911. Forced : No

  912. Audio #50

  913. ID : 51

  914. Format : E-AC-3

  915. Format/Info : Enhanced AC-3

  916. Commercial name : Dolby Digital Plus

  917. Codec ID : A_EAC3

  918. Duration : 1 h 47 min

  919. Bit rate mode : Constant

  920. Bit rate : 256 kb/s

  921. Channel(s) : 6 channels

  922. Channel layout : L R C LFE Ls Rs

  923. Sampling rate : 48.0 kHz

  924. Frame rate : 31.250 FPS (1536 SPF)

  925. Compression mode : Lossy

  926. Stream size : 197 MiB (1%)

  927. Language : Indonesian

  928. Service kind : Complete Main

  929. Default : No

  930. Forced : No

  931. Audio #51

  932. ID : 52

  933. Format : AAC LC

  934. Format/Info : Advanced Audio Codec Low Complexity

  935. Codec ID : A_AAC-2

  936. Duration : 1 h 47 min

  937. Bit rate : 125 kb/s

  938. Channel(s) : 2 channels

  939. Channel layout : L R

  940. Sampling rate : 48.0 kHz

  941. Frame rate : 46.875 FPS (1024 SPF)

  942. Compression mode : Lossy

  943. Stream size : 96.4 MiB (0%)

  944. Language : Indonesian

  945. Default : No

  946. Forced : No

  947. Audio #52

  948. ID : 53

  949. Format : AAC LC

  950. Format/Info : Advanced Audio Codec Low Complexity

  951. Codec ID : A_AAC-2

  952. Duration : 1 h 47 min

  953. Bit rate : 61.4 kb/s

  954. Channel(s) : 2 channels

  955. Channel layout : L R

  956. Sampling rate : 48.0 kHz

  957. Frame rate : 46.875 FPS (1024 SPF)

  958. Compression mode : Lossy

  959. Stream size : 47.2 MiB (0%)

  960. Language : Indonesian

  961. Default : No

  962. Forced : No

  963. Audio #53

  964. ID : 54

  965. Format : E-AC-3

  966. Format/Info : Enhanced AC-3

  967. Commercial name : Dolby Digital Plus

  968. Codec ID : A_EAC3

  969. Duration : 1 h 47 min

  970. Bit rate mode : Constant

  971. Bit rate : 256 kb/s

  972. Channel(s) : 6 channels

  973. Channel layout : L R C LFE Ls Rs

  974. Sampling rate : 48.0 kHz

  975. Frame rate : 31.250 FPS (1536 SPF)

  976. Compression mode : Lossy

  977. Stream size : 197 MiB (1%)

  978. Language : Icelandic

  979. Service kind : Complete Main

  980. Default : No

  981. Forced : No

  982. Audio #54

  983. ID : 55

  984. Format : E-AC-3

  985. Format/Info : Enhanced AC-3

  986. Commercial name : Dolby Digital Plus

  987. Codec ID : A_EAC3

  988. Duration : 1 h 47 min

  989. Bit rate mode : Constant

  990. Bit rate : 256 kb/s

  991. Channel(s) : 6 channels

  992. Channel layout : L R C LFE Ls Rs

  993. Sampling rate : 48.0 kHz

  994. Frame rate : 31.250 FPS (1536 SPF)

  995. Compression mode : Lossy

  996. Stream size : 197 MiB (1%)

  997. Language : Icelandic

  998. Service kind : Complete Main

  999. Default : No

  1000. Forced : No

  1001. Audio #55

  1002. ID : 56

  1003. Format : AAC LC

  1004. Format/Info : Advanced Audio Codec Low Complexity

  1005. Codec ID : A_AAC-2

  1006. Duration : 1 h 47 min

  1007. Bit rate : 125 kb/s

  1008. Channel(s) : 2 channels

  1009. Channel layout : L R

  1010. Sampling rate : 48.0 kHz

  1011. Frame rate : 46.875 FPS (1024 SPF)

  1012. Compression mode : Lossy

  1013. Stream size : 96.4 MiB (0%)

  1014. Language : Icelandic

  1015. Default : No

  1016. Forced : No

  1017. Audio #56

  1018. ID : 57

  1019. Format : AAC LC

  1020. Format/Info : Advanced Audio Codec Low Complexity

  1021. Codec ID : A_AAC-2

  1022. Duration : 1 h 47 min

  1023. Bit rate : 61.4 kb/s

  1024. Channel(s) : 2 channels

  1025. Channel layout : L R

  1026. Sampling rate : 48.0 kHz

  1027. Frame rate : 46.875 FPS (1024 SPF)

  1028. Compression mode : Lossy

  1029. Stream size : 47.2 MiB (0%)

  1030. Language : Icelandic

  1031. Default : No

  1032. Forced : No

  1033. Audio #57

  1034. ID : 58

  1035. Format : E-AC-3

  1036. Format/Info : Enhanced AC-3

  1037. Commercial name : Dolby Digital Plus

  1038. Codec ID : A_EAC3

  1039. Duration : 1 h 47 min

  1040. Bit rate mode : Constant

  1041. Bit rate : 256 kb/s

  1042. Channel(s) : 6 channels

  1043. Channel layout : L R C LFE Ls Rs

  1044. Sampling rate : 48.0 kHz

  1045. Frame rate : 31.250 FPS (1536 SPF)

  1046. Compression mode : Lossy

  1047. Stream size : 197 MiB (1%)

  1048. Language : Italian

  1049. Service kind : Complete Main

  1050. Default : No

  1051. Forced : No

  1052. Audio #58

  1053. ID : 59

  1054. Format : E-AC-3

  1055. Format/Info : Enhanced AC-3

  1056. Commercial name : Dolby Digital Plus

  1057. Codec ID : A_EAC3

  1058. Duration : 1 h 47 min

  1059. Bit rate mode : Constant

  1060. Bit rate : 256 kb/s

  1061. Channel(s) : 6 channels

  1062. Channel layout : L R C LFE Ls Rs

  1063. Sampling rate : 48.0 kHz

  1064. Frame rate : 31.250 FPS (1536 SPF)

  1065. Compression mode : Lossy

  1066. Stream size : 197 MiB (1%)

  1067. Language : Italian

  1068. Service kind : Complete Main

  1069. Default : No

  1070. Forced : No

  1071. Audio #59

  1072. ID : 60

  1073. Format : AAC LC

  1074. Format/Info : Advanced Audio Codec Low Complexity

  1075. Codec ID : A_AAC-2

  1076. Duration : 1 h 47 min

  1077. Bit rate : 125 kb/s

  1078. Channel(s) : 2 channels

  1079. Channel layout : L R

  1080. Sampling rate : 48.0 kHz

  1081. Frame rate : 46.875 FPS (1024 SPF)

  1082. Compression mode : Lossy

  1083. Stream size : 96.4 MiB (0%)

  1084. Language : Italian

  1085. Default : No

  1086. Forced : No

  1087. Audio #60

  1088. ID : 61

  1089. Format : AAC LC

  1090. Format/Info : Advanced Audio Codec Low Complexity

  1091. Codec ID : A_AAC-2

  1092. Duration : 1 h 47 min

  1093. Bit rate : 61.4 kb/s

  1094. Channel(s) : 2 channels

  1095. Channel layout : L R

  1096. Sampling rate : 48.0 kHz

  1097. Frame rate : 46.875 FPS (1024 SPF)

  1098. Compression mode : Lossy

  1099. Stream size : 47.2 MiB (0%)

  1100. Language : Italian

  1101. Default : No

  1102. Forced : No

  1103. Audio #61

  1104. ID : 62

  1105. Format : E-AC-3

  1106. Format/Info : Enhanced AC-3

  1107. Commercial name : Dolby Digital Plus

  1108. Codec ID : A_EAC3

  1109. Duration : 1 h 47 min

  1110. Bit rate mode : Constant

  1111. Bit rate : 256 kb/s

  1112. Channel(s) : 6 channels

  1113. Channel layout : L R C LFE Ls Rs

  1114. Sampling rate : 48.0 kHz

  1115. Frame rate : 31.250 FPS (1536 SPF)

  1116. Compression mode : Lossy

  1117. Stream size : 197 MiB (1%)

  1118. Language : Japanese

  1119. Service kind : Complete Main

  1120. Default : No

  1121. Forced : No

  1122. Audio #62

  1123. ID : 63

  1124. Format : E-AC-3

  1125. Format/Info : Enhanced AC-3

  1126. Commercial name : Dolby Digital Plus

  1127. Codec ID : A_EAC3

  1128. Duration : 1 h 47 min

  1129. Bit rate mode : Constant

  1130. Bit rate : 256 kb/s

  1131. Channel(s) : 6 channels

  1132. Channel layout : L R C LFE Ls Rs

  1133. Sampling rate : 48.0 kHz

  1134. Frame rate : 31.250 FPS (1536 SPF)

  1135. Compression mode : Lossy

  1136. Stream size : 197 MiB (1%)

  1137. Language : Japanese

  1138. Service kind : Complete Main

  1139. Default : No

  1140. Forced : No

  1141. Audio #63

  1142. ID : 64

  1143. Format : AAC LC

  1144. Format/Info : Advanced Audio Codec Low Complexity

  1145. Codec ID : A_AAC-2

  1146. Duration : 1 h 47 min

  1147. Bit rate : 125 kb/s

  1148. Channel(s) : 2 channels

  1149. Channel layout : L R

  1150. Sampling rate : 48.0 kHz

  1151. Frame rate : 46.875 FPS (1024 SPF)

  1152. Compression mode : Lossy

  1153. Stream size : 96.4 MiB (0%)

  1154. Language : Japanese

  1155. Default : No

  1156. Forced : No

  1157. Audio #64

  1158. ID : 65

  1159. Format : AAC LC

  1160. Format/Info : Advanced Audio Codec Low Complexity

  1161. Codec ID : A_AAC-2

  1162. Duration : 1 h 47 min

  1163. Bit rate : 61.4 kb/s

  1164. Channel(s) : 2 channels

  1165. Channel layout : L R

  1166. Sampling rate : 48.0 kHz

  1167. Frame rate : 46.875 FPS (1024 SPF)

  1168. Compression mode : Lossy

  1169. Stream size : 47.2 MiB (0%)

  1170. Language : Japanese

  1171. Default : No

  1172. Forced : No

  1173. Audio #65

  1174. ID : 66

  1175. Format : E-AC-3

  1176. Format/Info : Enhanced AC-3

  1177. Commercial name : Dolby Digital Plus

  1178. Codec ID : A_EAC3

  1179. Duration : 1 h 47 min

  1180. Bit rate mode : Constant

  1181. Bit rate : 256 kb/s

  1182. Channel(s) : 6 channels

  1183. Channel layout : L R C LFE Ls Rs

  1184. Sampling rate : 48.0 kHz

  1185. Frame rate : 31.250 FPS (1536 SPF)

  1186. Compression mode : Lossy

  1187. Stream size : 197 MiB (1%)

  1188. Language : Korean

  1189. Service kind : Complete Main

  1190. Default : No

  1191. Forced : No

  1192. Audio #66

  1193. ID : 67

  1194. Format : E-AC-3

  1195. Format/Info : Enhanced AC-3

  1196. Commercial name : Dolby Digital Plus

  1197. Codec ID : A_EAC3

  1198. Duration : 1 h 47 min

  1199. Bit rate mode : Constant

  1200. Bit rate : 256 kb/s

  1201. Channel(s) : 6 channels

  1202. Channel layout : L R C LFE Ls Rs

  1203. Sampling rate : 48.0 kHz

  1204. Frame rate : 31.250 FPS (1536 SPF)

  1205. Compression mode : Lossy

  1206. Stream size : 197 MiB (1%)

  1207. Language : Korean

  1208. Service kind : Complete Main

  1209. Default : No

  1210. Forced : No

  1211. Audio #67

  1212. ID : 68

  1213. Format : AAC LC

  1214. Format/Info : Advanced Audio Codec Low Complexity

  1215. Codec ID : A_AAC-2

  1216. Duration : 1 h 47 min

  1217. Bit rate : 125 kb/s

  1218. Channel(s) : 2 channels

  1219. Channel layout : L R

  1220. Sampling rate : 48.0 kHz

  1221. Frame rate : 46.875 FPS (1024 SPF)

  1222. Compression mode : Lossy

  1223. Stream size : 96.4 MiB (0%)

  1224. Language : Korean

  1225. Default : No

  1226. Forced : No

  1227. Audio #68

  1228. ID : 69

  1229. Format : AAC LC

  1230. Format/Info : Advanced Audio Codec Low Complexity

  1231. Codec ID : A_AAC-2

  1232. Duration : 1 h 47 min

  1233. Bit rate : 61.4 kb/s

  1234. Channel(s) : 2 channels

  1235. Channel layout : L R

  1236. Sampling rate : 48.0 kHz

  1237. Frame rate : 46.875 FPS (1024 SPF)

  1238. Compression mode : Lossy

  1239. Stream size : 47.2 MiB (0%)

  1240. Language : Korean

  1241. Default : No

  1242. Forced : No

  1243. Audio #69

  1244. ID : 70

  1245. Format : E-AC-3

  1246. Format/Info : Enhanced AC-3

  1247. Commercial name : Dolby Digital Plus

  1248. Codec ID : A_EAC3

  1249. Duration : 1 h 47 min

  1250. Bit rate mode : Constant

  1251. Bit rate : 256 kb/s

  1252. Channel(s) : 6 channels

  1253. Channel layout : L R C LFE Ls Rs

  1254. Sampling rate : 48.0 kHz

  1255. Frame rate : 31.250 FPS (1536 SPF)

  1256. Compression mode : Lossy

  1257. Stream size : 197 MiB (1%)

  1258. Language : Malay

  1259. Service kind : Complete Main

  1260. Default : No

  1261. Forced : No

  1262. Audio #70

  1263. ID : 71

  1264. Format : E-AC-3

  1265. Format/Info : Enhanced AC-3

  1266. Commercial name : Dolby Digital Plus

  1267. Codec ID : A_EAC3

  1268. Duration : 1 h 47 min

  1269. Bit rate mode : Constant

  1270. Bit rate : 256 kb/s

  1271. Channel(s) : 6 channels

  1272. Channel layout : L R C LFE Ls Rs

  1273. Sampling rate : 48.0 kHz

  1274. Frame rate : 31.250 FPS (1536 SPF)

  1275. Compression mode : Lossy

  1276. Stream size : 197 MiB (1%)

  1277. Language : Malay

  1278. Service kind : Complete Main

  1279. Default : No

  1280. Forced : No

  1281. Audio #71

  1282. ID : 72

  1283. Format : AAC LC

  1284. Format/Info : Advanced Audio Codec Low Complexity

  1285. Codec ID : A_AAC-2

  1286. Duration : 1 h 47 min

  1287. Bit rate : 125 kb/s

  1288. Channel(s) : 2 channels

  1289. Channel layout : L R

  1290. Sampling rate : 48.0 kHz

  1291. Frame rate : 46.875 FPS (1024 SPF)

  1292. Compression mode : Lossy

  1293. Stream size : 96.4 MiB (0%)

  1294. Language : Malay

  1295. Default : No

  1296. Forced : No

  1297. Audio #72

  1298. ID : 73

  1299. Format : AAC LC

  1300. Format/Info : Advanced Audio Codec Low Complexity

  1301. Codec ID : A_AAC-2

  1302. Duration : 1 h 47 min

  1303. Bit rate : 61.4 kb/s

  1304. Channel(s) : 2 channels

  1305. Channel layout : L R

  1306. Sampling rate : 48.0 kHz

  1307. Frame rate : 46.875 FPS (1024 SPF)

  1308. Compression mode : Lossy

  1309. Stream size : 47.2 MiB (0%)

  1310. Language : Malay

  1311. Default : No

  1312. Forced : No

  1313. Audio #73

  1314. ID : 74

  1315. Format : E-AC-3

  1316. Format/Info : Enhanced AC-3

  1317. Commercial name : Dolby Digital Plus

  1318. Codec ID : A_EAC3

  1319. Duration : 1 h 47 min

  1320. Bit rate mode : Constant

  1321. Bit rate : 256 kb/s

  1322. Channel(s) : 6 channels

  1323. Channel layout : L R C LFE Ls Rs

  1324. Sampling rate : 48.0 kHz

  1325. Frame rate : 31.250 FPS (1536 SPF)

  1326. Compression mode : Lossy

  1327. Stream size : 197 MiB (1%)

  1328. Language : Norwegian Bokmal

  1329. Service kind : Complete Main

  1330. Default : No

  1331. Forced : No

  1332. Audio #74

  1333. ID : 75

  1334. Format : E-AC-3

  1335. Format/Info : Enhanced AC-3

  1336. Commercial name : Dolby Digital Plus

  1337. Codec ID : A_EAC3

  1338. Duration : 1 h 47 min

  1339. Bit rate mode : Constant

  1340. Bit rate : 256 kb/s

  1341. Channel(s) : 6 channels

  1342. Channel layout : L R C LFE Ls Rs

  1343. Sampling rate : 48.0 kHz

  1344. Frame rate : 31.250 FPS (1536 SPF)

  1345. Compression mode : Lossy

  1346. Stream size : 197 MiB (1%)

  1347. Language : Norwegian Bokmal

  1348. Service kind : Complete Main

  1349. Default : No

  1350. Forced : No

  1351. Audio #75

  1352. ID : 76

  1353. Format : AAC LC

  1354. Format/Info : Advanced Audio Codec Low Complexity

  1355. Codec ID : A_AAC-2

  1356. Duration : 1 h 47 min

  1357. Bit rate : 125 kb/s

  1358. Channel(s) : 2 channels

  1359. Channel layout : L R

  1360. Sampling rate : 48.0 kHz

  1361. Frame rate : 46.875 FPS (1024 SPF)

  1362. Compression mode : Lossy

  1363. Stream size : 96.4 MiB (0%)

  1364. Language : Norwegian Bokmal

  1365. Default : No

  1366. Forced : No

  1367. Audio #76

  1368. ID : 77

  1369. Format : AAC LC

  1370. Format/Info : Advanced Audio Codec Low Complexity

  1371. Codec ID : A_AAC-2

  1372. Duration : 1 h 47 min

  1373. Bit rate : 61.4 kb/s

  1374. Channel(s) : 2 channels

  1375. Channel layout : L R

  1376. Sampling rate : 48.0 kHz

  1377. Frame rate : 46.875 FPS (1024 SPF)

  1378. Compression mode : Lossy

  1379. Stream size : 47.2 MiB (0%)

  1380. Language : Norwegian Bokmal

  1381. Default : No

  1382. Forced : No

  1383. Audio #77

  1384. ID : 78

  1385. Format : E-AC-3

  1386. Format/Info : Enhanced AC-3

  1387. Commercial name : Dolby Digital Plus

  1388. Codec ID : A_EAC3

  1389. Duration : 1 h 47 min

  1390. Bit rate mode : Constant

  1391. Bit rate : 256 kb/s

  1392. Channel(s) : 6 channels

  1393. Channel layout : L R C LFE Ls Rs

  1394. Sampling rate : 48.0 kHz

  1395. Frame rate : 31.250 FPS (1536 SPF)

  1396. Compression mode : Lossy

  1397. Stream size : 197 MiB (1%)

  1398. Language : Dutch

  1399. Service kind : Complete Main

  1400. Default : No

  1401. Forced : No

  1402. Audio #78

  1403. ID : 79

  1404. Format : E-AC-3

  1405. Format/Info : Enhanced AC-3

  1406. Commercial name : Dolby Digital Plus

  1407. Codec ID : A_EAC3

  1408. Duration : 1 h 47 min

  1409. Bit rate mode : Constant

  1410. Bit rate : 256 kb/s

  1411. Channel(s) : 6 channels

  1412. Channel layout : L R C LFE Ls Rs

  1413. Sampling rate : 48.0 kHz

  1414. Frame rate : 31.250 FPS (1536 SPF)

  1415. Compression mode : Lossy

  1416. Stream size : 197 MiB (1%)

  1417. Language : Dutch

  1418. Service kind : Complete Main

  1419. Default : No

  1420. Forced : No

  1421. Audio #79

  1422. ID : 80

  1423. Format : AAC LC

  1424. Format/Info : Advanced Audio Codec Low Complexity

  1425. Codec ID : A_AAC-2

  1426. Duration : 1 h 47 min

  1427. Bit rate : 125 kb/s

  1428. Channel(s) : 2 channels

  1429. Channel layout : L R

  1430. Sampling rate : 48.0 kHz

  1431. Frame rate : 46.875 FPS (1024 SPF)

  1432. Compression mode : Lossy

  1433. Stream size : 96.4 MiB (0%)

  1434. Language : Dutch

  1435. Default : No

  1436. Forced : No

  1437. Audio #80

  1438. ID : 81

  1439. Format : AAC LC

  1440. Format/Info : Advanced Audio Codec Low Complexity

  1441. Codec ID : A_AAC-2

  1442. Duration : 1 h 47 min

  1443. Bit rate : 61.4 kb/s

  1444. Channel(s) : 2 channels

  1445. Channel layout : L R

  1446. Sampling rate : 48.0 kHz

  1447. Frame rate : 46.875 FPS (1024 SPF)

  1448. Compression mode : Lossy

  1449. Stream size : 47.2 MiB (0%)

  1450. Language : Dutch

  1451. Default : No

  1452. Forced : No

  1453. Audio #81

  1454. ID : 82

  1455. Format : E-AC-3

  1456. Format/Info : Enhanced AC-3

  1457. Commercial name : Dolby Digital Plus

  1458. Codec ID : A_EAC3

  1459. Duration : 1 h 47 min

  1460. Bit rate mode : Constant

  1461. Bit rate : 256 kb/s

  1462. Channel(s) : 6 channels

  1463. Channel layout : L R C LFE Ls Rs

  1464. Sampling rate : 48.0 kHz

  1465. Frame rate : 31.250 FPS (1536 SPF)

  1466. Compression mode : Lossy

  1467. Stream size : 197 MiB (1%)

  1468. Title : Belgium

  1469. Language : Dutch

  1470. Service kind : Complete Main

  1471. Default : No

  1472. Forced : No

  1473. Audio #82

  1474. ID : 83

  1475. Format : E-AC-3

  1476. Format/Info : Enhanced AC-3

  1477. Commercial name : Dolby Digital Plus

  1478. Codec ID : A_EAC3

  1479. Duration : 1 h 47 min

  1480. Bit rate mode : Constant

  1481. Bit rate : 256 kb/s

  1482. Channel(s) : 6 channels

  1483. Channel layout : L R C LFE Ls Rs

  1484. Sampling rate : 48.0 kHz

  1485. Frame rate : 31.250 FPS (1536 SPF)

  1486. Compression mode : Lossy

  1487. Stream size : 197 MiB (1%)

  1488. Title : Belgium

  1489. Language : Dutch

  1490. Service kind : Complete Main

  1491. Default : No

  1492. Forced : No

  1493. Audio #83

  1494. ID : 84

  1495. Format : AAC LC

  1496. Format/Info : Advanced Audio Codec Low Complexity

  1497. Codec ID : A_AAC-2

  1498. Duration : 1 h 47 min

  1499. Bit rate : 125 kb/s

  1500. Channel(s) : 2 channels

  1501. Channel layout : L R

  1502. Sampling rate : 48.0 kHz

  1503. Frame rate : 46.875 FPS (1024 SPF)

  1504. Compression mode : Lossy

  1505. Stream size : 96.4 MiB (0%)

  1506. Title : Belgium

  1507. Language : Dutch

  1508. Default : No

  1509. Forced : No

  1510. Audio #84

  1511. ID : 85

  1512. Format : AAC LC

  1513. Format/Info : Advanced Audio Codec Low Complexity

  1514. Codec ID : A_AAC-2

  1515. Duration : 1 h 47 min

  1516. Bit rate : 61.4 kb/s

  1517. Channel(s) : 2 channels

  1518. Channel layout : L R

  1519. Sampling rate : 48.0 kHz

  1520. Frame rate : 46.875 FPS (1024 SPF)

  1521. Compression mode : Lossy

  1522. Stream size : 47.2 MiB (0%)

  1523. Title : Belgium

  1524. Language : Dutch

  1525. Default : No

  1526. Forced : No

  1527. Audio #85

  1528. ID : 86

  1529. Format : E-AC-3

  1530. Format/Info : Enhanced AC-3

  1531. Commercial name : Dolby Digital Plus

  1532. Codec ID : A_EAC3

  1533. Duration : 1 h 47 min

  1534. Bit rate mode : Constant

  1535. Bit rate : 256 kb/s

  1536. Channel(s) : 6 channels

  1537. Channel layout : L R C LFE Ls Rs

  1538. Sampling rate : 48.0 kHz

  1539. Frame rate : 31.250 FPS (1536 SPF)

  1540. Compression mode : Lossy

  1541. Stream size : 197 MiB (1%)

  1542. Language : Polish

  1543. Service kind : Complete Main

  1544. Default : No

  1545. Forced : No

  1546. Audio #86

  1547. ID : 87

  1548. Format : E-AC-3

  1549. Format/Info : Enhanced AC-3

  1550. Commercial name : Dolby Digital Plus

  1551. Codec ID : A_EAC3

  1552. Duration : 1 h 47 min

  1553. Bit rate mode : Constant

  1554. Bit rate : 256 kb/s

  1555. Channel(s) : 6 channels

  1556. Channel layout : L R C LFE Ls Rs

  1557. Sampling rate : 48.0 kHz

  1558. Frame rate : 31.250 FPS (1536 SPF)

  1559. Compression mode : Lossy

  1560. Stream size : 197 MiB (1%)

  1561. Language : Polish

  1562. Service kind : Complete Main

  1563. Default : No

  1564. Forced : No

  1565. Audio #87

  1566. ID : 88

  1567. Format : AAC LC

  1568. Format/Info : Advanced Audio Codec Low Complexity

  1569. Codec ID : A_AAC-2

  1570. Duration : 1 h 47 min

  1571. Bit rate : 125 kb/s

  1572. Channel(s) : 2 channels

  1573. Channel layout : L R

  1574. Sampling rate : 48.0 kHz

  1575. Frame rate : 46.875 FPS (1024 SPF)

  1576. Compression mode : Lossy

  1577. Stream size : 96.4 MiB (0%)

  1578. Language : Polish

  1579. Default : No

  1580. Forced : No

  1581. Audio #88

  1582. ID : 89

  1583. Format : AAC LC

  1584. Format/Info : Advanced Audio Codec Low Complexity

  1585. Codec ID : A_AAC-2

  1586. Duration : 1 h 47 min

  1587. Bit rate : 61.4 kb/s

  1588. Channel(s) : 2 channels

  1589. Channel layout : L R

  1590. Sampling rate : 48.0 kHz

  1591. Frame rate : 46.875 FPS (1024 SPF)

  1592. Compression mode : Lossy

  1593. Stream size : 47.2 MiB (0%)

  1594. Language : Polish

  1595. Default : No

  1596. Forced : No

  1597. Audio #89

  1598. ID : 90

  1599. Format : E-AC-3

  1600. Format/Info : Enhanced AC-3

  1601. Commercial name : Dolby Digital Plus

  1602. Codec ID : A_EAC3

  1603. Duration : 1 h 47 min

  1604. Bit rate mode : Constant

  1605. Bit rate : 256 kb/s

  1606. Channel(s) : 6 channels

  1607. Channel layout : L R C LFE Ls Rs

  1608. Sampling rate : 48.0 kHz

  1609. Frame rate : 31.250 FPS (1536 SPF)

  1610. Compression mode : Lossy

  1611. Stream size : 197 MiB (1%)

  1612. Title : Brazil

  1613. Language : Portuguese

  1614. Service kind : Complete Main

  1615. Default : No

  1616. Forced : No

  1617. Audio #90

  1618. ID : 91

  1619. Format : E-AC-3

  1620. Format/Info : Enhanced AC-3

  1621. Commercial name : Dolby Digital Plus

  1622. Codec ID : A_EAC3

  1623. Duration : 1 h 47 min

  1624. Bit rate mode : Constant

  1625. Bit rate : 256 kb/s

  1626. Channel(s) : 6 channels

  1627. Channel layout : L R C LFE Ls Rs

  1628. Sampling rate : 48.0 kHz

  1629. Frame rate : 31.250 FPS (1536 SPF)

  1630. Compression mode : Lossy

  1631. Stream size : 197 MiB (1%)

  1632. Title : Brazil

  1633. Language : Portuguese

  1634. Service kind : Complete Main

  1635. Default : No

  1636. Forced : No

  1637. Audio #91

  1638. ID : 92

  1639. Format : AAC LC

  1640. Format/Info : Advanced Audio Codec Low Complexity

  1641. Codec ID : A_AAC-2

  1642. Duration : 1 h 47 min

  1643. Bit rate : 125 kb/s

  1644. Channel(s) : 2 channels

  1645. Channel layout : L R

  1646. Sampling rate : 48.0 kHz

  1647. Frame rate : 46.875 FPS (1024 SPF)

  1648. Compression mode : Lossy

  1649. Stream size : 96.4 MiB (0%)

  1650. Title : Brazil

  1651. Language : Portuguese

  1652. Default : No

  1653. Forced : No

  1654. Audio #92

  1655. ID : 93

  1656. Format : AAC LC

  1657. Format/Info : Advanced Audio Codec Low Complexity

  1658. Codec ID : A_AAC-2

  1659. Duration : 1 h 47 min

  1660. Bit rate : 61.4 kb/s

  1661. Channel(s) : 2 channels

  1662. Channel layout : L R

  1663. Sampling rate : 48.0 kHz

  1664. Frame rate : 46.875 FPS (1024 SPF)

  1665. Compression mode : Lossy

  1666. Stream size : 47.2 MiB (0%)

  1667. Title : Brazil

  1668. Language : Portuguese

  1669. Default : No

  1670. Forced : No

  1671. Audio #93

  1672. ID : 94

  1673. Format : E-AC-3

  1674. Format/Info : Enhanced AC-3

  1675. Commercial name : Dolby Digital Plus

  1676. Codec ID : A_EAC3

  1677. Duration : 1 h 47 min

  1678. Bit rate mode : Constant

  1679. Bit rate : 256 kb/s

  1680. Channel(s) : 6 channels

  1681. Channel layout : L R C LFE Ls Rs

  1682. Sampling rate : 48.0 kHz

  1683. Frame rate : 31.250 FPS (1536 SPF)

  1684. Compression mode : Lossy

  1685. Stream size : 197 MiB (1%)

  1686. Language : Portuguese

  1687. Service kind : Complete Main

  1688. Default : No

  1689. Forced : No

  1690. Audio #94

  1691. ID : 95

  1692. Format : E-AC-3

  1693. Format/Info : Enhanced AC-3

  1694. Commercial name : Dolby Digital Plus

  1695. Codec ID : A_EAC3

  1696. Duration : 1 h 47 min

  1697. Bit rate mode : Constant

  1698. Bit rate : 256 kb/s

  1699. Channel(s) : 6 channels

  1700. Channel layout : L R C LFE Ls Rs

  1701. Sampling rate : 48.0 kHz

  1702. Frame rate : 31.250 FPS (1536 SPF)

  1703. Compression mode : Lossy

  1704. Stream size : 197 MiB (1%)

  1705. Language : Portuguese

  1706. Service kind : Complete Main

  1707. Default : No

  1708. Forced : No

  1709. Audio #95

  1710. ID : 96

  1711. Format : AAC LC

  1712. Format/Info : Advanced Audio Codec Low Complexity

  1713. Codec ID : A_AAC-2

  1714. Duration : 1 h 47 min

  1715. Bit rate : 125 kb/s

  1716. Channel(s) : 2 channels

  1717. Channel layout : L R

  1718. Sampling rate : 48.0 kHz

  1719. Frame rate : 46.875 FPS (1024 SPF)

  1720. Compression mode : Lossy

  1721. Stream size : 96.4 MiB (0%)

  1722. Language : Portuguese

  1723. Default : No

  1724. Forced : No

  1725. Audio #96

  1726. ID : 97

  1727. Format : AAC LC

  1728. Format/Info : Advanced Audio Codec Low Complexity

  1729. Codec ID : A_AAC-2

  1730. Duration : 1 h 47 min

  1731. Bit rate : 61.4 kb/s

  1732. Channel(s) : 2 channels

  1733. Channel layout : L R

  1734. Sampling rate : 48.0 kHz

  1735. Frame rate : 46.875 FPS (1024 SPF)

  1736. Compression mode : Lossy

  1737. Stream size : 47.2 MiB (0%)

  1738. Language : Portuguese

  1739. Default : No

  1740. Forced : No

  1741. Audio #97

  1742. ID : 98

  1743. Format : E-AC-3

  1744. Format/Info : Enhanced AC-3

  1745. Commercial name : Dolby Digital Plus

  1746. Codec ID : A_EAC3

  1747. Duration : 1 h 47 min

  1748. Bit rate mode : Constant

  1749. Bit rate : 256 kb/s

  1750. Channel(s) : 6 channels

  1751. Channel layout : L R C LFE Ls Rs

  1752. Sampling rate : 48.0 kHz

  1753. Frame rate : 31.250 FPS (1536 SPF)

  1754. Compression mode : Lossy

  1755. Stream size : 197 MiB (1%)

  1756. Language : Romanian

  1757. Service kind : Complete Main

  1758. Default : No

  1759. Forced : No

  1760. Audio #98

  1761. ID : 99

  1762. Format : E-AC-3

  1763. Format/Info : Enhanced AC-3

  1764. Commercial name : Dolby Digital Plus

  1765. Codec ID : A_EAC3

  1766. Duration : 1 h 47 min

  1767. Bit rate mode : Constant

  1768. Bit rate : 256 kb/s

  1769. Channel(s) : 6 channels

  1770. Channel layout : L R C LFE Ls Rs

  1771. Sampling rate : 48.0 kHz

  1772. Frame rate : 31.250 FPS (1536 SPF)

  1773. Compression mode : Lossy

  1774. Stream size : 197 MiB (1%)

  1775. Language : Romanian

  1776. Service kind : Complete Main

  1777. Default : No

  1778. Forced : No

  1779. Audio #99

  1780. ID : 100

  1781. Format : AAC LC

  1782. Format/Info : Advanced Audio Codec Low Complexity

  1783. Codec ID : A_AAC-2

  1784. Duration : 1 h 47 min

  1785. Bit rate : 125 kb/s

  1786. Channel(s) : 2 channels

  1787. Channel layout : L R

  1788. Sampling rate : 48.0 kHz

  1789. Frame rate : 46.875 FPS (1024 SPF)

  1790. Compression mode : Lossy

  1791. Stream size : 96.4 MiB (0%)

  1792. Language : Romanian

  1793. Default : No

  1794. Forced : No

  1795. Audio #100

  1796. ID : 101

  1797. Format : AAC LC

  1798. Format/Info : Advanced Audio Codec Low Complexity

  1799. Codec ID : A_AAC-2

  1800. Duration : 1 h 47 min

  1801. Bit rate : 61.4 kb/s

  1802. Channel(s) : 2 channels

  1803. Channel layout : L R

  1804. Sampling rate : 48.0 kHz

  1805. Frame rate : 46.875 FPS (1024 SPF)

  1806. Compression mode : Lossy

  1807. Stream size : 47.2 MiB (0%)

  1808. Language : Romanian

  1809. Default : No

  1810. Forced : No

  1811. Audio #101

  1812. ID : 102

  1813. Format : E-AC-3

  1814. Format/Info : Enhanced AC-3

  1815. Commercial name : Dolby Digital Plus

  1816. Codec ID : A_EAC3

  1817. Duration : 1 h 47 min

  1818. Bit rate mode : Constant

  1819. Bit rate : 256 kb/s

  1820. Channel(s) : 6 channels

  1821. Channel layout : L R C LFE Ls Rs

  1822. Sampling rate : 48.0 kHz

  1823. Frame rate : 31.250 FPS (1536 SPF)

  1824. Compression mode : Lossy

  1825. Stream size : 197 MiB (1%)

  1826. Language : Slovak

  1827. Service kind : Complete Main

  1828. Default : No

  1829. Forced : No

  1830. Audio #102

  1831. ID : 103

  1832. Format : E-AC-3

  1833. Format/Info : Enhanced AC-3

  1834. Commercial name : Dolby Digital Plus

  1835. Codec ID : A_EAC3

  1836. Duration : 1 h 47 min

  1837. Bit rate mode : Constant

  1838. Bit rate : 256 kb/s

  1839. Channel(s) : 6 channels

  1840. Channel layout : L R C LFE Ls Rs

  1841. Sampling rate : 48.0 kHz

  1842. Frame rate : 31.250 FPS (1536 SPF)

  1843. Compression mode : Lossy

  1844. Stream size : 197 MiB (1%)

  1845. Language : Slovak

  1846. Service kind : Complete Main

  1847. Default : No

  1848. Forced : No

  1849. Audio #103

  1850. ID : 104

  1851. Format : AAC LC

  1852. Format/Info : Advanced Audio Codec Low Complexity

  1853. Codec ID : A_AAC-2

  1854. Duration : 1 h 47 min

  1855. Bit rate : 125 kb/s

  1856. Channel(s) : 2 channels

  1857. Channel layout : L R

  1858. Sampling rate : 48.0 kHz

  1859. Frame rate : 46.875 FPS (1024 SPF)

  1860. Compression mode : Lossy

  1861. Stream size : 96.4 MiB (0%)

  1862. Language : Slovak

  1863. Default : No

  1864. Forced : No

  1865. Audio #104

  1866. ID : 105

  1867. Format : AAC LC

  1868. Format/Info : Advanced Audio Codec Low Complexity

  1869. Codec ID : A_AAC-2

  1870. Duration : 1 h 47 min

  1871. Bit rate : 61.4 kb/s

  1872. Channel(s) : 2 channels

  1873. Channel layout : L R

  1874. Sampling rate : 48.0 kHz

  1875. Frame rate : 46.875 FPS (1024 SPF)

  1876. Compression mode : Lossy

  1877. Stream size : 47.2 MiB (0%)

  1878. Language : Slovak

  1879. Default : No

  1880. Forced : No

  1881. Audio #105

  1882. ID : 106

  1883. Format : E-AC-3

  1884. Format/Info : Enhanced AC-3

  1885. Commercial name : Dolby Digital Plus

  1886. Codec ID : A_EAC3

  1887. Duration : 1 h 47 min

  1888. Bit rate mode : Constant

  1889. Bit rate : 256 kb/s

  1890. Channel(s) : 6 channels

  1891. Channel layout : L R C LFE Ls Rs

  1892. Sampling rate : 48.0 kHz

  1893. Frame rate : 31.250 FPS (1536 SPF)

  1894. Compression mode : Lossy

  1895. Stream size : 197 MiB (1%)

  1896. Language : Swedish

  1897. Service kind : Complete Main

  1898. Default : No

  1899. Forced : No

  1900. Audio #106

  1901. ID : 107

  1902. Format : E-AC-3

  1903. Format/Info : Enhanced AC-3

  1904. Commercial name : Dolby Digital Plus

  1905. Codec ID : A_EAC3

  1906. Duration : 1 h 47 min

  1907. Bit rate mode : Constant

  1908. Bit rate : 256 kb/s

  1909. Channel(s) : 6 channels

  1910. Channel layout : L R C LFE Ls Rs

  1911. Sampling rate : 48.0 kHz

  1912. Frame rate : 31.250 FPS (1536 SPF)

  1913. Compression mode : Lossy

  1914. Stream size : 197 MiB (1%)

  1915. Language : Swedish

  1916. Service kind : Complete Main

  1917. Default : No

  1918. Forced : No

  1919. Audio #107

  1920. ID : 108

  1921. Format : AAC LC

  1922. Format/Info : Advanced Audio Codec Low Complexity

  1923. Codec ID : A_AAC-2

  1924. Duration : 1 h 47 min

  1925. Bit rate : 125 kb/s

  1926. Channel(s) : 2 channels

  1927. Channel layout : L R

  1928. Sampling rate : 48.0 kHz

  1929. Frame rate : 46.875 FPS (1024 SPF)

  1930. Compression mode : Lossy

  1931. Stream size : 96.4 MiB (0%)

  1932. Language : Swedish

  1933. Default : No

  1934. Forced : No

  1935. Audio #108

  1936. ID : 109

  1937. Format : AAC LC

  1938. Format/Info : Advanced Audio Codec Low Complexity

  1939. Codec ID : A_AAC-2

  1940. Duration : 1 h 47 min

  1941. Bit rate : 61.4 kb/s

  1942. Channel(s) : 2 channels

  1943. Channel layout : L R

  1944. Sampling rate : 48.0 kHz

  1945. Frame rate : 46.875 FPS (1024 SPF)

  1946. Compression mode : Lossy

  1947. Stream size : 47.2 MiB (0%)

  1948. Language : Swedish

  1949. Default : No

  1950. Forced : No

  1951. Audio #109

  1952. ID : 110

  1953. Format : E-AC-3

  1954. Format/Info : Enhanced AC-3

  1955. Commercial name : Dolby Digital Plus

  1956. Codec ID : A_EAC3

  1957. Duration : 1 h 47 min

  1958. Bit rate mode : Constant

  1959. Bit rate : 256 kb/s

  1960. Channel(s) : 6 channels

  1961. Channel layout : L R C LFE Ls Rs

  1962. Sampling rate : 48.0 kHz

  1963. Frame rate : 31.250 FPS (1536 SPF)

  1964. Compression mode : Lossy

  1965. Stream size : 197 MiB (1%)

  1966. Language : Thai

  1967. Service kind : Complete Main

  1968. Default : No

  1969. Forced : No

  1970. Audio #110

  1971. ID : 111

  1972. Format : E-AC-3

  1973. Format/Info : Enhanced AC-3

  1974. Commercial name : Dolby Digital Plus

  1975. Codec ID : A_EAC3

  1976. Duration : 1 h 47 min

  1977. Bit rate mode : Constant

  1978. Bit rate : 256 kb/s

  1979. Channel(s) : 6 channels

  1980. Channel layout : L R C LFE Ls Rs

  1981. Sampling rate : 48.0 kHz

  1982. Frame rate : 31.250 FPS (1536 SPF)

  1983. Compression mode : Lossy

  1984. Stream size : 197 MiB (1%)

  1985. Language : Thai

  1986. Service kind : Complete Main

  1987. Default : No

  1988. Forced : No

  1989. Audio #111

  1990. ID : 112

  1991. Format : AAC LC

  1992. Format/Info : Advanced Audio Codec Low Complexity

  1993. Codec ID : A_AAC-2

  1994. Duration : 1 h 47 min

  1995. Bit rate : 125 kb/s

  1996. Channel(s) : 2 channels

  1997. Channel layout : L R

  1998. Sampling rate : 48.0 kHz

  1999. Frame rate : 46.875 FPS (1024 SPF)

  2000. Compression mode : Lossy

  2001. Stream size : 96.4 MiB (0%)

  2002. Language : Thai

  2003. Default : No

  2004. Forced : No

  2005. Audio #112

  2006. ID : 113

  2007. Format : AAC LC

  2008. Format/Info : Advanced Audio Codec Low Complexity

  2009. Codec ID : A_AAC-2

  2010. Duration : 1 h 47 min

  2011. Bit rate : 61.4 kb/s

  2012. Channel(s) : 2 channels

  2013. Channel layout : L R

  2014. Sampling rate : 48.0 kHz

  2015. Frame rate : 46.875 FPS (1024 SPF)

  2016. Compression mode : Lossy

  2017. Stream size : 47.2 MiB (0%)

  2018. Language : Thai

  2019. Default : No

  2020. Forced : No

  2021. Audio #113

  2022. ID : 114

  2023. Format : E-AC-3

  2024. Format/Info : Enhanced AC-3

  2025. Commercial name : Dolby Digital Plus

  2026. Codec ID : A_EAC3

  2027. Duration : 1 h 47 min

  2028. Bit rate mode : Constant

  2029. Bit rate : 256 kb/s

  2030. Channel(s) : 6 channels

  2031. Channel layout : L R C LFE Ls Rs

  2032. Sampling rate : 48.0 kHz

  2033. Frame rate : 31.250 FPS (1536 SPF)

  2034. Compression mode : Lossy

  2035. Stream size : 197 MiB (1%)

  2036. Language : Turkish

  2037. Service kind : Complete Main

  2038. Default : No

  2039. Forced : No

  2040. Audio #114

  2041. ID : 115

  2042. Format : E-AC-3

  2043. Format/Info : Enhanced AC-3

  2044. Commercial name : Dolby Digital Plus

  2045. Codec ID : A_EAC3

  2046. Duration : 1 h 47 min

  2047. Bit rate mode : Constant

  2048. Bit rate : 256 kb/s

  2049. Channel(s) : 6 channels

  2050. Channel layout : L R C LFE Ls Rs

  2051. Sampling rate : 48.0 kHz

  2052. Frame rate : 31.250 FPS (1536 SPF)

  2053. Compression mode : Lossy

  2054. Stream size : 197 MiB (1%)

  2055. Language : Turkish

  2056. Service kind : Complete Main

  2057. Default : No

  2058. Forced : No

  2059. Audio #115

  2060. ID : 116

  2061. Format : AAC LC

  2062. Format/Info : Advanced Audio Codec Low Complexity

  2063. Codec ID : A_AAC-2

  2064. Duration : 1 h 47 min

  2065. Bit rate : 125 kb/s

  2066. Channel(s) : 2 channels

  2067. Channel layout : L R

  2068. Sampling rate : 48.0 kHz

  2069. Frame rate : 46.875 FPS (1024 SPF)

  2070. Compression mode : Lossy

  2071. Stream size : 96.4 MiB (0%)

  2072. Language : Turkish

  2073. Default : No

  2074. Forced : No

  2075. Audio #116

  2076. ID : 117

  2077. Format : AAC LC

  2078. Format/Info : Advanced Audio Codec Low Complexity

  2079. Codec ID : A_AAC-2

  2080. Duration : 1 h 47 min

  2081. Bit rate : 61.4 kb/s

  2082. Channel(s) : 2 channels

  2083. Channel layout : L R

  2084. Sampling rate : 48.0 kHz

  2085. Frame rate : 46.875 FPS (1024 SPF)

  2086. Compression mode : Lossy

  2087. Stream size : 47.2 MiB (0%)

  2088. Language : Turkish

  2089. Default : No

  2090. Forced : No

  2091. Audio #117

  2092. ID : 118

  2093. Format : E-AC-3

  2094. Format/Info : Enhanced AC-3

  2095. Commercial name : Dolby Digital Plus

  2096. Codec ID : A_EAC3

  2097. Duration : 1 h 47 min

  2098. Bit rate mode : Constant

  2099. Bit rate : 256 kb/s

  2100. Channel(s) : 6 channels

  2101. Channel layout : L R C LFE Ls Rs

  2102. Sampling rate : 48.0 kHz

  2103. Frame rate : 31.250 FPS (1536 SPF)

  2104. Compression mode : Lossy

  2105. Stream size : 197 MiB (1%)

  2106. Language : Vietnamese

  2107. Service kind : Complete Main

  2108. Default : No

  2109. Forced : No

  2110. Audio #118

  2111. ID : 119

  2112. Format : E-AC-3

  2113. Format/Info : Enhanced AC-3

  2114. Commercial name : Dolby Digital Plus

  2115. Codec ID : A_EAC3

  2116. Duration : 1 h 47 min

  2117. Bit rate mode : Constant

  2118. Bit rate : 256 kb/s

  2119. Channel(s) : 6 channels

  2120. Channel layout : L R C LFE Ls Rs

  2121. Sampling rate : 48.0 kHz

  2122. Frame rate : 31.250 FPS (1536 SPF)

  2123. Compression mode : Lossy

  2124. Stream size : 197 MiB (1%)

  2125. Language : Vietnamese

  2126. Service kind : Complete Main

  2127. Default : No

  2128. Forced : No

  2129. Audio #119

  2130. ID : 120

  2131. Format : AAC LC

  2132. Format/Info : Advanced Audio Codec Low Complexity

  2133. Codec ID : A_AAC-2

  2134. Duration : 1 h 47 min

  2135. Bit rate : 125 kb/s

  2136. Channel(s) : 2 channels

  2137. Channel layout : L R

  2138. Sampling rate : 48.0 kHz

  2139. Frame rate : 46.875 FPS (1024 SPF)

  2140. Compression mode : Lossy

  2141. Stream size : 96.4 MiB (0%)

  2142. Language : Vietnamese

  2143. Default : No

  2144. Forced : No

  2145. Audio #120

  2146. ID : 121

  2147. Format : AAC LC

  2148. Format/Info : Advanced Audio Codec Low Complexity

  2149. Codec ID : A_AAC-2

  2150. Duration : 1 h 47 min

  2151. Bit rate : 61.4 kb/s

  2152. Channel(s) : 2 channels

  2153. Channel layout : L R

  2154. Sampling rate : 48.0 kHz

  2155. Frame rate : 46.875 FPS (1024 SPF)

  2156. Compression mode : Lossy

  2157. Stream size : 47.2 MiB (0%)

  2158. Language : Vietnamese

  2159. Default : No

  2160. Forced : No

  2161. Audio #121

  2162. ID : 122

  2163. Format : E-AC-3

  2164. Format/Info : Enhanced AC-3

  2165. Commercial name : Dolby Digital Plus

  2166. Codec ID : A_EAC3

  2167. Duration : 1 h 47 min

  2168. Bit rate mode : Constant

  2169. Bit rate : 256 kb/s

  2170. Channel(s) : 6 channels

  2171. Channel layout : L R C LFE Ls Rs

  2172. Sampling rate : 48.0 kHz

  2173. Frame rate : 31.250 FPS (1536 SPF)

  2174. Compression mode : Lossy

  2175. Stream size : 197 MiB (1%)

  2176. Language : Chinese

  2177. Service kind : Complete Main

  2178. Default : No

  2179. Forced : No

  2180. Audio #122

  2181. ID : 123

  2182. Format : E-AC-3

  2183. Format/Info : Enhanced AC-3

  2184. Commercial name : Dolby Digital Plus

  2185. Codec ID : A_EAC3

  2186. Duration : 1 h 47 min

  2187. Bit rate mode : Constant

  2188. Bit rate : 256 kb/s

  2189. Channel(s) : 6 channels

  2190. Channel layout : L R C LFE Ls Rs

  2191. Sampling rate : 48.0 kHz

  2192. Frame rate : 31.250 FPS (1536 SPF)

  2193. Compression mode : Lossy

  2194. Stream size : 197 MiB (1%)

  2195. Language : Chinese

  2196. Service kind : Complete Main

  2197. Default : No

  2198. Forced : No

  2199. Audio #123

  2200. ID : 124

  2201. Format : AAC LC

  2202. Format/Info : Advanced Audio Codec Low Complexity

  2203. Codec ID : A_AAC-2

  2204. Duration : 1 h 47 min

  2205. Bit rate : 125 kb/s

  2206. Channel(s) : 2 channels

  2207. Channel layout : L R

  2208. Sampling rate : 48.0 kHz

  2209. Frame rate : 46.875 FPS (1024 SPF)

  2210. Compression mode : Lossy

  2211. Stream size : 96.4 MiB (0%)

  2212. Language : Chinese

  2213. Default : No

  2214. Forced : No

  2215. Audio #124

  2216. ID : 125

  2217. Format : AAC LC

  2218. Format/Info : Advanced Audio Codec Low Complexity

  2219. Codec ID : A_AAC-2

  2220. Duration : 1 h 47 min

  2221. Bit rate : 61.4 kb/s

  2222. Channel(s) : 2 channels

  2223. Channel layout : L R

  2224. Sampling rate : 48.0 kHz

  2225. Frame rate : 46.875 FPS (1024 SPF)

  2226. Compression mode : Lossy

  2227. Stream size : 47.2 MiB (0%)

  2228. Language : Chinese

  2229. Default : No

  2230. Forced : No

  2231. Text #1

  2232. ID : 126

  2233. Format : UTF-8

  2234. Codec ID : S_TEXT/UTF8

  2235. Codec ID/Info : UTF-8 Plain Text

  2236. Duration : 1 h 37 min

  2237. Bit rate : 68 b/s

  2238. Count of elements : 1919

  2239. Stream size : 48.8 KiB (0%)

  2240. Title : SDH

  2241. Language : English

  2242. Default : No

  2243. Forced : No

  2244. Text #2

  2245. ID : 127

  2246. Format : UTF-8

  2247. Codec ID : S_TEXT/UTF8

  2248. Codec ID/Info : UTF-8 Plain Text

  2249. Duration : 1 h 45 min

  2250. Bit rate : 42 b/s

  2251. Count of elements : 789

  2252. Stream size : 33.2 KiB (0%)

  2253. Language : Danish

  2254. Default : No

  2255. Forced : No

  2256. Text #3

  2257. ID : 128

  2258. Format : UTF-8

  2259. Codec ID : S_TEXT/UTF8

  2260. Codec ID/Info : UTF-8 Plain Text

  2261. Duration : 1 h 46 min

  2262. Bit rate : 53 b/s

  2263. Count of elements : 1116

  2264. Stream size : 41.6 KiB (0%)

  2265. Title : SDH

  2266. Language : German

  2267. Default : No

  2268. Forced : No

  2269. Text #4

  2270. ID : 129

  2271. Format : UTF-8

  2272. Codec ID : S_TEXT/UTF8

  2273. Codec ID/Info : UTF-8 Plain Text

  2274. Duration : 1 h 45 min

  2275. Bit rate : 42 b/s

  2276. Count of elements : 1179

  2277. Stream size : 32.8 KiB (0%)

  2278. Language : German

  2279. Default : No

  2280. Forced : No

  2281. Text #5

  2282. ID : 130

  2283. Format : UTF-8

  2284. Codec ID : S_TEXT/UTF8

  2285. Codec ID/Info : UTF-8 Plain Text

  2286. Duration : 1 h 37 min

  2287. Bit rate : 54 b/s

  2288. Count of elements : 1171

  2289. Stream size : 39.0 KiB (0%)

  2290. Title : Latin America (SDH)

  2291. Language : Spanish

  2292. Default : No

  2293. Forced : No

  2294. Text #6

  2295. ID : 131

  2296. Format : UTF-8

  2297. Codec ID : S_TEXT/UTF8

  2298. Codec ID/Info : UTF-8 Plain Text

  2299. Duration : 1 h 34 min

  2300. Bit rate : 50 b/s

  2301. Count of elements : 1159

  2302. Stream size : 34.8 KiB (0%)

  2303. Title : Latin America

  2304. Language : Spanish

  2305. Default : No

  2306. Forced : No

  2307. Text #7

  2308. ID : 132

  2309. Format : UTF-8

  2310. Codec ID : S_TEXT/UTF8

  2311. Codec ID/Info : UTF-8 Plain Text

  2312. Duration : 1 h 45 min

  2313. Bit rate : 41 b/s

  2314. Count of elements : 1157

  2315. Stream size : 32.4 KiB (0%)

  2316. Language : Spanish

  2317. Default : No

  2318. Forced : No

  2319. Text #8

  2320. ID : 133

  2321. Format : UTF-8

  2322. Codec ID : S_TEXT/UTF8

  2323. Codec ID/Info : UTF-8 Plain Text

  2324. Duration : 1 h 45 min

  2325. Bit rate : 39 b/s

  2326. Count of elements : 1155

  2327. Stream size : 30.7 KiB (0%)

  2328. Language : Finnish

  2329. Default : No

  2330. Forced : No

  2331. Text #9

  2332. ID : 134

  2333. Format : UTF-8

  2334. Codec ID : S_TEXT/UTF8

  2335. Codec ID/Info : UTF-8 Plain Text

  2336. Duration : 1 h 34 min

  2337. Bit rate : 78 b/s

  2338. Count of elements : 1965

  2339. Stream size : 54.6 KiB (0%)

  2340. Title : Canada (SDH)

  2341. Language : French

  2342. Default : No

  2343. Forced : No

  2344. Text #10

  2345. ID : 135

  2346. Format : UTF-8

  2347. Codec ID : S_TEXT/UTF8

  2348. Codec ID/Info : UTF-8 Plain Text

  2349. Duration : 1 h 33 min

  2350. Bit rate : 48 b/s

  2351. Count of elements : 1155

  2352. Stream size : 33.1 KiB (0%)

  2353. Title : Canada

  2354. Language : French

  2355. Default : No

  2356. Forced : No

  2357. Text #11

  2358. ID : 136

  2359. Format : UTF-8

  2360. Codec ID : S_TEXT/UTF8

  2361. Codec ID/Info : UTF-8 Plain Text

  2362. Duration : 1 h 47 min

  2363. Bit rate : 55 b/s

  2364. Count of elements : 1604

  2365. Stream size : 43.6 KiB (0%)

  2366. Title : SDH

  2367. Language : French

  2368. Default : No

  2369. Forced : No

  2370. Text #12

  2371. ID : 137

  2372. Format : UTF-8

  2373. Codec ID : S_TEXT/UTF8

  2374. Codec ID/Info : UTF-8 Plain Text

  2375. Duration : 1 h 45 min

  2376. Bit rate : 43 b/s

  2377. Count of elements : 1114

  2378. Stream size : 33.4 KiB (0%)

  2379. Language : French

  2380. Default : No

  2381. Forced : No

  2382. Text #13

  2383. ID : 138

  2384. Format : UTF-8

  2385. Codec ID : S_TEXT/UTF8

  2386. Codec ID/Info : UTF-8 Plain Text

  2387. Duration : 1 h 45 min

  2388. Bit rate : 44 b/s

  2389. Count of elements : 1155

  2390. Stream size : 34.1 KiB (0%)

  2391. Language : Icelandic

  2392. Default : No

  2393. Forced : No

  2394. Text #14

  2395. ID : 139

  2396. Format : UTF-8

  2397. Codec ID : S_TEXT/UTF8

  2398. Codec ID/Info : UTF-8 Plain Text

  2399. Duration : 1 h 45 min

  2400. Bit rate : 42 b/s

  2401. Count of elements : 1160

  2402. Stream size : 32.5 KiB (0%)

  2403. Language : Italian

  2404. Default : No

  2405. Forced : No

  2406. Text #15

  2407. ID : 140

  2408. Format : UTF-8

  2409. Codec ID : S_TEXT/UTF8

  2410. Codec ID/Info : UTF-8 Plain Text

  2411. Duration : 1 h 45 min

  2412. Bit rate : 39 b/s

  2413. Count of elements : 1102

  2414. Stream size : 30.8 KiB (0%)

  2415. Language : Japanese

  2416. Default : No

  2417. Forced : No

  2418. Text #16

  2419. ID : 141

  2420. Format : UTF-8

  2421. Codec ID : S_TEXT/UTF8

  2422. Codec ID/Info : UTF-8 Plain Text

  2423. Duration : 1 h 34 min

  2424. Bit rate : 49 b/s

  2425. Count of elements : 1155

  2426. Stream size : 34.0 KiB (0%)

  2427. Language : Korean

  2428. Default : No

  2429. Forced : No

  2430. Text #17

  2431. ID : 142

  2432. Format : UTF-8

  2433. Codec ID : S_TEXT/UTF8

  2434. Codec ID/Info : UTF-8 Plain Text

  2435. Duration : 1 h 45 min

  2436. Bit rate : 39 b/s

  2437. Count of elements : 1160

  2438. Stream size : 30.6 KiB (0%)

  2439. Language : Norwegian Bokmal

  2440. Default : No

  2441. Forced : No

  2442. Text #18

  2443. ID : 143

  2444. Format : UTF-8

  2445. Codec ID : S_TEXT/UTF8

  2446. Codec ID/Info : UTF-8 Plain Text

  2447. Duration : 1 h 45 min

  2448. Bit rate : 38 b/s

  2449. Count of elements : 911

  2450. Stream size : 30.1 KiB (0%)

  2451. Language : Dutch

  2452. Default : No

  2453. Forced : No

  2454. Text #19

  2455. ID : 144

  2456. Format : UTF-8

  2457. Codec ID : S_TEXT/UTF8

  2458. Codec ID/Info : UTF-8 Plain Text

  2459. Duration : 1 h 45 min

  2460. Bit rate : 37 b/s

  2461. Count of elements : 1153

  2462. Stream size : 28.9 KiB (0%)

  2463. Language : Polish

  2464. Default : No

  2465. Forced : No

  2466. Text #20

  2467. ID : 145

  2468. Format : UTF-8

  2469. Codec ID : S_TEXT/UTF8

  2470. Codec ID/Info : UTF-8 Plain Text

  2471. Duration : 1 h 35 min

  2472. Bit rate : 61 b/s

  2473. Count of elements : 1235

  2474. Stream size : 42.8 KiB (0%)

  2475. Title : Brazil (SDH)

  2476. Language : Portuguese

  2477. Default : No

  2478. Forced : No

  2479. Text #21

  2480. ID : 146

  2481. Format : UTF-8

  2482. Codec ID : S_TEXT/UTF8

  2483. Codec ID/Info : UTF-8 Plain Text

  2484. Duration : 1 h 45 min

  2485. Bit rate : 44 b/s

  2486. Count of elements : 1156

  2487. Stream size : 34.8 KiB (0%)

  2488. Title : Brazil

  2489. Language : Portuguese

  2490. Default : No

  2491. Forced : No

  2492. Text #22

  2493. ID : 147

  2494. Format : UTF-8

  2495. Codec ID : S_TEXT/UTF8

  2496. Codec ID/Info : UTF-8 Plain Text

  2497. Duration : 1 h 45 min

  2498. Bit rate : 44 b/s

  2499. Count of elements : 1156

  2500. Stream size : 34.7 KiB (0%)

  2501. Language : Portuguese

  2502. Default : No

  2503. Forced : No

  2504. Text #23

  2505. ID : 148

  2506. Format : UTF-8

  2507. Codec ID : S_TEXT/UTF8

  2508. Codec ID/Info : UTF-8 Plain Text

  2509. Duration : 1 h 34 min

  2510. Bit rate : 45 b/s

  2511. Count of elements : 877

  2512. Stream size : 31.6 KiB (0%)

  2513. Language : Swedish

  2514. Default : No

  2515. Forced : No

  2516. Text #24

  2517. ID : 149

  2518. Format : UTF-8

  2519. Codec ID : S_TEXT/UTF8

  2520. Codec ID/Info : UTF-8 Plain Text

  2521. Duration : 1 h 36 min

  2522. Bit rate : 41 b/s

  2523. Count of elements : 1235

  2524. Stream size : 29.6 KiB (0%)

  2525. Title : Simplified

  2526. Language : Chinese

  2527. Default : No

  2528. Forced : No

  2529. Text #25

  2530. ID : 150

  2531. Format : UTF-8

  2532. Codec ID : S_TEXT/UTF8

  2533. Codec ID/Info : UTF-8 Plain Text

  2534. Duration : 1 h 45 min

  2535. Bit rate : 35 b/s

  2536. Count of elements : 1157

  2537. Stream size : 27.6 KiB (0%)

  2538. Title : Traditional

  2539. Language : Chinese

  2540. Default : No

  2541. Forced : No

  2542. Text #26

  2543. ID : 151

  2544. Format : UTF-8

  2545. Codec ID : S_TEXT/UTF8

  2546. Codec ID/Info : UTF-8 Plain Text

  2547. Duration : 1 h 37 min

  2548. Bit rate : 38 b/s

  2549. Count of elements : 1157

  2550. Stream size : 27.5 KiB (0%)

  2551. Title : Traditional, Hong Kong

  2552. Language : Chinese

  2553. Default : No

  2554. Forced : No


复制代码


文件下载


除非特别注明,本文『寻龙传说[国英日韩多音轨/简繁英字幕].Raya.and.the.Last.Dragon.2021.2160p.HDR.DSNP.WEB-DL.H.265.DDP5.1.Atmos-HDBWEB 29』来源于互联网机器人自动抓取,非本站原创。 浮游电影网不对本文拥有版权,如有侵犯,请联系邮箱:fuyouu#yandex.com[#换成@]投诉。我们会在15个工作日内删除。 但烦请转载时请标明出处:“本文转载于『浮游电影网』,原文地址:https://www.fuyouu.com/22523.html

评论吧骚年!

发表你的见解   

昵称*

E-mail*(建议输入,以便收到博主回复的提示邮件)

验证码*

您可以使用eMule或eMule Mod(Windows)、aMule(Win、Linux、Mac)等软件下载eD2k链接。。
eMule收藏集(.emulecollection)文件是您选中的所有链接的列表文件。eMule可以直接下载它们。
按住SHIFT键选择可以选中多个选择框。
可用文件名和大小选择器来选择文件。
文件名选择器帮您根据文件名称或后缀来选择文件。不分大小写。
符号使用:
和:空格( )、+
不包含:-
或:|
转义:一对英文引号("");
匹配开头:^
匹配结尾:$
例如:
选中所有名称中包含有“eMule”或“0.49c”字眼,但不包含有“exe”字眼的:emule|0.49c -exe
选中所有名称的开头是“eMule”,结尾是“0.49c”的:^emule 0.49c$
选中所有名称中带有“eMule 0.49c”的(必须是“eMule 0.49c”,中间没有别的字符,不能是“eMule fake 0.49c”),需要转义:"emule 0.49c"
大小选择器帮您根据文件大小选择文件。