当前位置: 首页 >> 动画电影 >> 夏日友晴天[国英日韩多音轨/简繁英字幕].Luca.2021.2160p.HDR.DSNP.WEB-DL.H.265.DDP5.1.Atmos-HDBWEB 22.16GB >> 正文

夏日友晴天[国英日韩多音轨/简繁英字幕].Luca.2021.2160p.HDR.DSNP.WEB-DL.H.265.DDP5.1.Atmos-HDBWEB 22.16GB

2022年06月17日 00:40:20     电影发布:来源于网络     电影分类:动画电影     评论(0)    

◎译 名 夏日友晴天 / 盛夏友晴天(港) / 路卡的夏天(台) / 卢卡

◎片 名 Luca

◎年 代 2021

◎产 地 美国

◎类 别 喜剧 / 动画 / 奇幻 / 冒险

◎语 言 英语 / 意大利语

◎上映日期 2021-08-20(中国大陆) / 2021-06-18(美国网络)

◎IMDb链接 https://www.imdb.com/title/tt12801262/

◎豆瓣评分 7.3/10 (99654人评价)

◎豆瓣链接 https://movie.douban.com/subject/35161768/

◎片 长 95分钟

◎导 演 埃里康·卡萨罗萨 Enrico Casarosa (id:1320935)

◎编 剧 埃里康·卡萨罗萨 Enrico Casarosa (id:1320935)

杰西·安德鲁斯 Jesse Andrews (id:1348082)

西蒙·斯蒂芬森 Simon Stephenson (id:1458701)

麦克·琼斯 Mike Jones (id:1440274)

朱莉·林恩 Julie Lynn (id:1290527)

兰达尔·格林 Randall Green (id:1416865)

◎演 员 雅各布·特伦布莱 Jacob Tremblay (id:1332866)

杰克·迪伦·格雷泽 Jack Dylan Grazer (id:1380979)

艾玛·伯曼 Emma Berman (id:1458960)

萨维里奥·雷蒙多 Saverio Raimondo (id:1458961)

玛娅·鲁道夫 Maya Rudolph (id:1025183)

萨莎·拜伦·科恩 Sacha Baron Cohen (id:1027161)

马可·巴里切利 Marco Barricelli (id:1458962)

吉姆·加菲根 Jim Gaffigan (id:1009467)

彼得·孙 Peter Sohn (id:1298008)

洛伦佐·克里斯奇 Lorenzo Crisci (id:1458963)

玛丽娜·马西罗尼 Marina Massironi (id:1121897)

吉诺·拉·莫妮卡 Gino La Monica (id:1106936)

桑迪·马丁 Sandy Martin (id:1389480)

嘉科莫·吉安尼欧缇 Giacomo Gianniotti (id:1339672)

艾莉莎·加布瑞利 Elisa Gabrielli (id:1458964)

咪咪·梅纳德 Mimi Maynard (id:1445999)

埃里康·卡萨罗萨 Enrico Casarosa (id:1320935)

吉姆·皮里 Jim Pirri (id:1314311)

Gino D'Acampo Gino D'Acampo (id:1212394)

德雷克·贝尔 Drake Bell (id:1009318)

约翰·拉岑贝格 John Ratzenberger (id:1002680)

乔纳森·尼科尔斯 Jonathan Nichols (id:1459012)

丹·罗莫 Dan Romer (id:1325664)

◎简 介

故事发生在意大利里维埃拉地区的一个美丽海滨小镇,讲述了男孩卢卡(雅各布·特伦布莱 配音)在令人难忘的夏季,所经历的成长故事,充满了意式冰淇淋、意大利面和无尽的摩托车骑行。卢卡与好友阿贝托(杰克·迪伦·格雷泽 配音)和新朋友茱莉娅(艾玛·伯曼 配音)共赴冒险,但所有的乐趣都受到一个深藏不露的秘密威胁——他们两人是来自水面下另一个世界的海怪。

◎获奖情况 (共12项)

第94届奥斯卡金像奖 (2022)

最佳动画长片(提名)

└──埃里康·卡萨罗萨 (id:1320935)

第79届金球奖 (2022)

电影类 最佳动画长片(提名)

第75届英国电影学院奖 (2022)

电影奖 最佳动画片(提名)

第49届动画安妮奖 (2022)

最佳动画长片(提名)

最佳导演(提名)

└──埃里康·卡萨罗萨 (id:1320935)

最佳编剧(提名)

最佳配音(提名)

└──杰克·迪伦·格雷泽 (id:1380979)

最佳配乐(提名)

最佳剪辑(提名)

最佳动画角色(提名)

最佳角色设计(提名)

第27届美国评论家选择电影奖 (2022)

最佳动画片(提名)

  1. ##### MediaInfo ######

  2. General

  3. Unique ID : 333777276922477076019912147800958915779 (0xFB1B2A4D0B5822BBE3C32B82ABBB54C3)

  4. Complete name : Luca.2021.2160p.HDR.DSNP.WEB-DL.H.265.DDP5.1.Atmos-HDBWEB.mkv

  5. Format : Matroska

  6. Format version : Version 4

  7. File size : 22.2 GiB

  8. Duration : 1 h 35 min

  9. Overall bit rate : 33.3 Mb/s

  10. Encoded date : UTC 2022-06-13 10:32:43

  11. Writing application : mkvmerge v68.0.0 ('The Curtain') 64-bit

  12. Writing library : libebml v1.4.2 + libmatroska v1.6.4

  13. Video

  14. ID : 1

  15. Format : HEVC

  16. Format/Info : High Efficiency Video Coding

  17. Format profile : Main [email protected]@High

  18. HDR format : SMPTE ST 2086, HDR10 compatible

  19. Codec ID : V_MPEGH/ISO/HEVC

  20. Duration : 1 h 35 min

  21. Bit rate : 16.7 Mb/s

  22. Width : 3 840 pixels

  23. Height : 2 160 pixels

  24. Display aspect ratio : 16:9

  25. Frame rate mode : Constant

  26. Frame rate : 23.976 (24000/1001/53354) FPS

  27. Color space : YUV

  28. Chroma subsampling : 4:2:0

  29. Bit depth : 10 bits

  30. Bits/(Pixel*Frame) : 0.084

  31. Stream size : 11.1 GiB (50%)

  32. Language : English

  33. Default : Yes

  34. Forced : No

  35. Color range : Limited

  36. Color primaries : BT.2020

  37. Transfer characteristics : PQ

  38. Matrix coefficients : BT.2020 non-constant

  39. Mastering display color primaries : BT.2020

  40. Mastering display luminance : min: 0.0000 cd/m2, max: 1000 cd/m2

  41. Audio #1

  42. ID : 2

  43. Format : E-AC-3 JOC

  44. Format/Info : Enhanced AC-3 with Joint Object Coding

  45. Commercial name : Dolby Digital Plus with Dolby Atmos

  46. Codec ID : A_EAC3

  47. Duration : 1 h 35 min

  48. Bit rate mode : Constant

  49. Bit rate : 768 kb/s

  50. Channel(s) : 6 channels

  51. Channel layout : L R C LFE Ls Rs

  52. Sampling rate : 48.0 kHz

  53. Frame rate : 31.250 FPS (1536 SPF)

  54. Compression mode : Lossy

  55. Stream size : 523 MiB (2%)

  56. Language : English

  57. Service kind : Complete Main

  58. Default : Yes

  59. Forced : No

  60. Complexity index : 16

  61. Number of dynamic objects : 15

  62. Bed channel count : 1 channel

  63. Bed channel configuration : LFE

  64. Audio #2

  65. ID : 3

  66. Format : E-AC-3

  67. Format/Info : Enhanced AC-3

  68. Commercial name : Dolby Digital Plus

  69. Codec ID : A_EAC3

  70. Duration : 1 h 35 min

  71. Bit rate mode : Constant

  72. Bit rate : 256 kb/s

  73. Channel(s) : 6 channels

  74. Channel layout : L R C LFE Ls Rs

  75. Sampling rate : 48.0 kHz

  76. Frame rate : 31.250 FPS (1536 SPF)

  77. Compression mode : Lossy

  78. Stream size : 174 MiB (1%)

  79. Language : English

  80. Service kind : Complete Main

  81. Default : No

  82. Forced : No

  83. Audio #3

  84. ID : 4

  85. Format : AAC LC

  86. Format/Info : Advanced Audio Codec Low Complexity

  87. Codec ID : A_AAC-2

  88. Duration : 1 h 35 min

  89. Bit rate : 125 kb/s

  90. Channel(s) : 2 channels

  91. Channel layout : L R

  92. Sampling rate : 48.0 kHz

  93. Frame rate : 46.875 FPS (1024 SPF)

  94. Compression mode : Lossy

  95. Stream size : 85.4 MiB (0%)

  96. Language : English

  97. Default : No

  98. Forced : No

  99. Audio #4

  100. ID : 5

  101. Format : AAC LC

  102. Format/Info : Advanced Audio Codec Low Complexity

  103. Codec ID : A_AAC-2

  104. Duration : 1 h 35 min

  105. Bit rate : 61.4 kb/s

  106. Channel(s) : 2 channels

  107. Channel layout : L R

  108. Sampling rate : 48.0 kHz

  109. Frame rate : 46.875 FPS (1024 SPF)

  110. Compression mode : Lossy

  111. Stream size : 41.8 MiB (0%)

  112. Language : English

  113. Default : No

  114. Forced : No

  115. Audio #5

  116. ID : 6

  117. Format : E-AC-3

  118. Format/Info : Enhanced AC-3

  119. Commercial name : Dolby Digital Plus

  120. Codec ID : A_EAC3

  121. Duration : 1 h 35 min

  122. Bit rate mode : Constant

  123. Bit rate : 256 kb/s

  124. Channel(s) : 6 channels

  125. Channel layout : L R C LFE Ls Rs

  126. Sampling rate : 48.0 kHz

  127. Frame rate : 31.250 FPS (1536 SPF)

  128. Compression mode : Lossy

  129. Stream size : 174 MiB (1%)

  130. Language : Czech

  131. Service kind : Complete Main

  132. Default : No

  133. Forced : No

  134. Audio #6

  135. ID : 7

  136. Format : E-AC-3

  137. Format/Info : Enhanced AC-3

  138. Commercial name : Dolby Digital Plus

  139. Codec ID : A_EAC3

  140. Duration : 1 h 35 min

  141. Bit rate mode : Constant

  142. Bit rate : 256 kb/s

  143. Channel(s) : 6 channels

  144. Channel layout : L R C LFE Ls Rs

  145. Sampling rate : 48.0 kHz

  146. Frame rate : 31.250 FPS (1536 SPF)

  147. Compression mode : Lossy

  148. Stream size : 174 MiB (1%)

  149. Language : Czech

  150. Service kind : Complete Main

  151. Default : No

  152. Forced : No

  153. Audio #7

  154. ID : 8

  155. Format : AAC LC

  156. Format/Info : Advanced Audio Codec Low Complexity

  157. Codec ID : A_AAC-2

  158. Duration : 1 h 35 min

  159. Bit rate : 125 kb/s

  160. Channel(s) : 2 channels

  161. Channel layout : L R

  162. Sampling rate : 48.0 kHz

  163. Frame rate : 46.875 FPS (1024 SPF)

  164. Compression mode : Lossy

  165. Stream size : 85.4 MiB (0%)

  166. Language : Czech

  167. Default : No

  168. Forced : No

  169. Audio #8

  170. ID : 9

  171. Format : AAC LC

  172. Format/Info : Advanced Audio Codec Low Complexity

  173. Codec ID : A_AAC-2

  174. Duration : 1 h 35 min

  175. Bit rate : 61.4 kb/s

  176. Channel(s) : 2 channels

  177. Channel layout : L R

  178. Sampling rate : 48.0 kHz

  179. Frame rate : 46.875 FPS (1024 SPF)

  180. Compression mode : Lossy

  181. Stream size : 41.8 MiB (0%)

  182. Language : Czech

  183. Default : No

  184. Forced : No

  185. Audio #9

  186. ID : 10

  187. Format : E-AC-3

  188. Format/Info : Enhanced AC-3

  189. Commercial name : Dolby Digital Plus

  190. Codec ID : A_EAC3

  191. Duration : 1 h 35 min

  192. Bit rate mode : Constant

  193. Bit rate : 256 kb/s

  194. Channel(s) : 6 channels

  195. Channel layout : L R C LFE Ls Rs

  196. Sampling rate : 48.0 kHz

  197. Frame rate : 31.250 FPS (1536 SPF)

  198. Compression mode : Lossy

  199. Stream size : 174 MiB (1%)

  200. Language : Danish

  201. Service kind : Complete Main

  202. Default : No

  203. Forced : No

  204. Audio #10

  205. ID : 11

  206. Format : E-AC-3

  207. Format/Info : Enhanced AC-3

  208. Commercial name : Dolby Digital Plus

  209. Codec ID : A_EAC3

  210. Duration : 1 h 35 min

  211. Bit rate mode : Constant

  212. Bit rate : 256 kb/s

  213. Channel(s) : 6 channels

  214. Channel layout : L R C LFE Ls Rs

  215. Sampling rate : 48.0 kHz

  216. Frame rate : 31.250 FPS (1536 SPF)

  217. Compression mode : Lossy

  218. Stream size : 174 MiB (1%)

  219. Language : Danish

  220. Service kind : Complete Main

  221. Default : No

  222. Forced : No

  223. Audio #11

  224. ID : 12

  225. Format : AAC LC

  226. Format/Info : Advanced Audio Codec Low Complexity

  227. Codec ID : A_AAC-2

  228. Duration : 1 h 35 min

  229. Bit rate : 125 kb/s

  230. Channel(s) : 2 channels

  231. Channel layout : L R

  232. Sampling rate : 48.0 kHz

  233. Frame rate : 46.875 FPS (1024 SPF)

  234. Compression mode : Lossy

  235. Stream size : 85.4 MiB (0%)

  236. Language : Danish

  237. Default : No

  238. Forced : No

  239. Audio #12

  240. ID : 13

  241. Format : AAC LC

  242. Format/Info : Advanced Audio Codec Low Complexity

  243. Codec ID : A_AAC-2

  244. Duration : 1 h 35 min

  245. Bit rate : 61.4 kb/s

  246. Channel(s) : 2 channels

  247. Channel layout : L R

  248. Sampling rate : 48.0 kHz

  249. Frame rate : 46.875 FPS (1024 SPF)

  250. Compression mode : Lossy

  251. Stream size : 41.8 MiB (0%)

  252. Language : Danish

  253. Default : No

  254. Forced : No

  255. Audio #13

  256. ID : 14

  257. Format : E-AC-3

  258. Format/Info : Enhanced AC-3

  259. Commercial name : Dolby Digital Plus

  260. Codec ID : A_EAC3

  261. Duration : 1 h 35 min

  262. Bit rate mode : Constant

  263. Bit rate : 256 kb/s

  264. Channel(s) : 6 channels

  265. Channel layout : L R C LFE Ls Rs

  266. Sampling rate : 48.0 kHz

  267. Frame rate : 31.250 FPS (1536 SPF)

  268. Compression mode : Lossy

  269. Stream size : 174 MiB (1%)

  270. Language : German

  271. Service kind : Complete Main

  272. Default : No

  273. Forced : No

  274. Audio #14

  275. ID : 15

  276. Format : E-AC-3

  277. Format/Info : Enhanced AC-3

  278. Commercial name : Dolby Digital Plus

  279. Codec ID : A_EAC3

  280. Duration : 1 h 35 min

  281. Bit rate mode : Constant

  282. Bit rate : 256 kb/s

  283. Channel(s) : 6 channels

  284. Channel layout : L R C LFE Ls Rs

  285. Sampling rate : 48.0 kHz

  286. Frame rate : 31.250 FPS (1536 SPF)

  287. Compression mode : Lossy

  288. Stream size : 174 MiB (1%)

  289. Language : German

  290. Service kind : Complete Main

  291. Default : No

  292. Forced : No

  293. Audio #15

  294. ID : 16

  295. Format : AAC LC

  296. Format/Info : Advanced Audio Codec Low Complexity

  297. Codec ID : A_AAC-2

  298. Duration : 1 h 35 min

  299. Bit rate : 125 kb/s

  300. Channel(s) : 2 channels

  301. Channel layout : L R

  302. Sampling rate : 48.0 kHz

  303. Frame rate : 46.875 FPS (1024 SPF)

  304. Compression mode : Lossy

  305. Stream size : 85.4 MiB (0%)

  306. Language : German

  307. Default : No

  308. Forced : No

  309. Audio #16

  310. ID : 17

  311. Format : AAC LC

  312. Format/Info : Advanced Audio Codec Low Complexity

  313. Codec ID : A_AAC-2

  314. Duration : 1 h 35 min

  315. Bit rate : 61.4 kb/s

  316. Channel(s) : 2 channels

  317. Channel layout : L R

  318. Sampling rate : 48.0 kHz

  319. Frame rate : 46.875 FPS (1024 SPF)

  320. Compression mode : Lossy

  321. Stream size : 41.8 MiB (0%)

  322. Language : German

  323. Default : No

  324. Forced : No

  325. Audio #17

  326. ID : 18

  327. Format : E-AC-3

  328. Format/Info : Enhanced AC-3

  329. Commercial name : Dolby Digital Plus

  330. Codec ID : A_EAC3

  331. Duration : 1 h 35 min

  332. Bit rate mode : Constant

  333. Bit rate : 256 kb/s

  334. Channel(s) : 6 channels

  335. Channel layout : L R C LFE Ls Rs

  336. Sampling rate : 48.0 kHz

  337. Frame rate : 31.250 FPS (1536 SPF)

  338. Compression mode : Lossy

  339. Stream size : 174 MiB (1%)

  340. Language : Greek

  341. Service kind : Complete Main

  342. Default : No

  343. Forced : No

  344. Audio #18

  345. ID : 19

  346. Format : E-AC-3

  347. Format/Info : Enhanced AC-3

  348. Commercial name : Dolby Digital Plus

  349. Codec ID : A_EAC3

  350. Duration : 1 h 35 min

  351. Bit rate mode : Constant

  352. Bit rate : 256 kb/s

  353. Channel(s) : 6 channels

  354. Channel layout : L R C LFE Ls Rs

  355. Sampling rate : 48.0 kHz

  356. Frame rate : 31.250 FPS (1536 SPF)

  357. Compression mode : Lossy

  358. Stream size : 174 MiB (1%)

  359. Language : Greek

  360. Service kind : Complete Main

  361. Default : No

  362. Forced : No

  363. Audio #19

  364. ID : 20

  365. Format : AAC LC

  366. Format/Info : Advanced Audio Codec Low Complexity

  367. Codec ID : A_AAC-2

  368. Duration : 1 h 35 min

  369. Bit rate : 125 kb/s

  370. Channel(s) : 2 channels

  371. Channel layout : L R

  372. Sampling rate : 48.0 kHz

  373. Frame rate : 46.875 FPS (1024 SPF)

  374. Compression mode : Lossy

  375. Stream size : 85.4 MiB (0%)

  376. Language : Greek

  377. Default : No

  378. Forced : No

  379. Audio #20

  380. ID : 21

  381. Format : AAC LC

  382. Format/Info : Advanced Audio Codec Low Complexity

  383. Codec ID : A_AAC-2

  384. Duration : 1 h 35 min

  385. Bit rate : 61.4 kb/s

  386. Channel(s) : 2 channels

  387. Channel layout : L R

  388. Sampling rate : 48.0 kHz

  389. Frame rate : 46.875 FPS (1024 SPF)

  390. Compression mode : Lossy

  391. Stream size : 41.8 MiB (0%)

  392. Language : Greek

  393. Default : No

  394. Forced : No

  395. Audio #21

  396. ID : 22

  397. Format : E-AC-3

  398. Format/Info : Enhanced AC-3

  399. Commercial name : Dolby Digital Plus

  400. Codec ID : A_EAC3

  401. Duration : 1 h 35 min

  402. Bit rate mode : Constant

  403. Bit rate : 256 kb/s

  404. Channel(s) : 6 channels

  405. Channel layout : L R C LFE Ls Rs

  406. Sampling rate : 48.0 kHz

  407. Frame rate : 31.250 FPS (1536 SPF)

  408. Compression mode : Lossy

  409. Stream size : 174 MiB (1%)

  410. Title : Latin America

  411. Language : Spanish

  412. Service kind : Complete Main

  413. Default : No

  414. Forced : No

  415. Audio #22

  416. ID : 23

  417. Format : E-AC-3

  418. Format/Info : Enhanced AC-3

  419. Commercial name : Dolby Digital Plus

  420. Codec ID : A_EAC3

  421. Duration : 1 h 35 min

  422. Bit rate mode : Constant

  423. Bit rate : 256 kb/s

  424. Channel(s) : 6 channels

  425. Channel layout : L R C LFE Ls Rs

  426. Sampling rate : 48.0 kHz

  427. Frame rate : 31.250 FPS (1536 SPF)

  428. Compression mode : Lossy

  429. Stream size : 174 MiB (1%)

  430. Title : Latin America

  431. Language : Spanish

  432. Service kind : Complete Main

  433. Default : No

  434. Forced : No

  435. Audio #23

  436. ID : 24

  437. Format : AAC LC

  438. Format/Info : Advanced Audio Codec Low Complexity

  439. Codec ID : A_AAC-2

  440. Duration : 1 h 35 min

  441. Bit rate : 125 kb/s

  442. Channel(s) : 2 channels

  443. Channel layout : L R

  444. Sampling rate : 48.0 kHz

  445. Frame rate : 46.875 FPS (1024 SPF)

  446. Compression mode : Lossy

  447. Stream size : 85.4 MiB (0%)

  448. Title : Latin America

  449. Language : Spanish

  450. Default : No

  451. Forced : No

  452. Audio #24

  453. ID : 25

  454. Format : AAC LC

  455. Format/Info : Advanced Audio Codec Low Complexity

  456. Codec ID : A_AAC-2

  457. Duration : 1 h 35 min

  458. Bit rate : 61.4 kb/s

  459. Channel(s) : 2 channels

  460. Channel layout : L R

  461. Sampling rate : 48.0 kHz

  462. Frame rate : 46.875 FPS (1024 SPF)

  463. Compression mode : Lossy

  464. Stream size : 41.8 MiB (0%)

  465. Title : Latin America

  466. Language : Spanish

  467. Default : No

  468. Forced : No

  469. Audio #25

  470. ID : 26

  471. Format : E-AC-3

  472. Format/Info : Enhanced AC-3

  473. Commercial name : Dolby Digital Plus

  474. Codec ID : A_EAC3

  475. Duration : 1 h 35 min

  476. Bit rate mode : Constant

  477. Bit rate : 256 kb/s

  478. Channel(s) : 6 channels

  479. Channel layout : L R C LFE Ls Rs

  480. Sampling rate : 48.0 kHz

  481. Frame rate : 31.250 FPS (1536 SPF)

  482. Compression mode : Lossy

  483. Stream size : 174 MiB (1%)

  484. Language : Spanish

  485. Service kind : Complete Main

  486. Default : No

  487. Forced : No

  488. Audio #26

  489. ID : 27

  490. Format : E-AC-3

  491. Format/Info : Enhanced AC-3

  492. Commercial name : Dolby Digital Plus

  493. Codec ID : A_EAC3

  494. Duration : 1 h 35 min

  495. Bit rate mode : Constant

  496. Bit rate : 256 kb/s

  497. Channel(s) : 6 channels

  498. Channel layout : L R C LFE Ls Rs

  499. Sampling rate : 48.0 kHz

  500. Frame rate : 31.250 FPS (1536 SPF)

  501. Compression mode : Lossy

  502. Stream size : 174 MiB (1%)

  503. Language : Spanish

  504. Service kind : Complete Main

  505. Default : No

  506. Forced : No

  507. Audio #27

  508. ID : 28

  509. Format : AAC LC

  510. Format/Info : Advanced Audio Codec Low Complexity

  511. Codec ID : A_AAC-2

  512. Duration : 1 h 35 min

  513. Bit rate : 125 kb/s

  514. Channel(s) : 2 channels

  515. Channel layout : L R

  516. Sampling rate : 48.0 kHz

  517. Frame rate : 46.875 FPS (1024 SPF)

  518. Compression mode : Lossy

  519. Stream size : 85.4 MiB (0%)

  520. Language : Spanish

  521. Default : No

  522. Forced : No

  523. Audio #28

  524. ID : 29

  525. Format : AAC LC

  526. Format/Info : Advanced Audio Codec Low Complexity

  527. Codec ID : A_AAC-2

  528. Duration : 1 h 35 min

  529. Bit rate : 61.4 kb/s

  530. Channel(s) : 2 channels

  531. Channel layout : L R

  532. Sampling rate : 48.0 kHz

  533. Frame rate : 46.875 FPS (1024 SPF)

  534. Compression mode : Lossy

  535. Stream size : 41.8 MiB (0%)

  536. Language : Spanish

  537. Default : No

  538. Forced : No

  539. Audio #29

  540. ID : 30

  541. Format : E-AC-3

  542. Format/Info : Enhanced AC-3

  543. Commercial name : Dolby Digital Plus

  544. Codec ID : A_EAC3

  545. Duration : 1 h 35 min

  546. Bit rate mode : Constant

  547. Bit rate : 256 kb/s

  548. Channel(s) : 6 channels

  549. Channel layout : L R C LFE Ls Rs

  550. Sampling rate : 48.0 kHz

  551. Frame rate : 31.250 FPS (1536 SPF)

  552. Compression mode : Lossy

  553. Stream size : 174 MiB (1%)

  554. Language : Finnish

  555. Service kind : Complete Main

  556. Default : No

  557. Forced : No

  558. Audio #30

  559. ID : 31

  560. Format : E-AC-3

  561. Format/Info : Enhanced AC-3

  562. Commercial name : Dolby Digital Plus

  563. Codec ID : A_EAC3

  564. Duration : 1 h 35 min

  565. Bit rate mode : Constant

  566. Bit rate : 256 kb/s

  567. Channel(s) : 6 channels

  568. Channel layout : L R C LFE Ls Rs

  569. Sampling rate : 48.0 kHz

  570. Frame rate : 31.250 FPS (1536 SPF)

  571. Compression mode : Lossy

  572. Stream size : 174 MiB (1%)

  573. Language : Finnish

  574. Service kind : Complete Main

  575. Default : No

  576. Forced : No

  577. Audio #31

  578. ID : 32

  579. Format : AAC LC

  580. Format/Info : Advanced Audio Codec Low Complexity

  581. Codec ID : A_AAC-2

  582. Duration : 1 h 35 min

  583. Bit rate : 125 kb/s

  584. Channel(s) : 2 channels

  585. Channel layout : L R

  586. Sampling rate : 48.0 kHz

  587. Frame rate : 46.875 FPS (1024 SPF)

  588. Compression mode : Lossy

  589. Stream size : 85.4 MiB (0%)

  590. Language : Finnish

  591. Default : No

  592. Forced : No

  593. Audio #32

  594. ID : 33

  595. Format : AAC LC

  596. Format/Info : Advanced Audio Codec Low Complexity

  597. Codec ID : A_AAC-2

  598. Duration : 1 h 35 min

  599. Bit rate : 61.4 kb/s

  600. Channel(s) : 2 channels

  601. Channel layout : L R

  602. Sampling rate : 48.0 kHz

  603. Frame rate : 46.875 FPS (1024 SPF)

  604. Compression mode : Lossy

  605. Stream size : 41.8 MiB (0%)

  606. Language : Finnish

  607. Default : No

  608. Forced : No

  609. Audio #33

  610. ID : 34

  611. Format : E-AC-3

  612. Format/Info : Enhanced AC-3

  613. Commercial name : Dolby Digital Plus

  614. Codec ID : A_EAC3

  615. Duration : 1 h 35 min

  616. Bit rate mode : Constant

  617. Bit rate : 256 kb/s

  618. Channel(s) : 6 channels

  619. Channel layout : L R C LFE Ls Rs

  620. Sampling rate : 48.0 kHz

  621. Frame rate : 31.250 FPS (1536 SPF)

  622. Compression mode : Lossy

  623. Stream size : 174 MiB (1%)

  624. Language : French

  625. Service kind : Complete Main

  626. Default : No

  627. Forced : No

  628. Audio #34

  629. ID : 35

  630. Format : E-AC-3

  631. Format/Info : Enhanced AC-3

  632. Commercial name : Dolby Digital Plus

  633. Codec ID : A_EAC3

  634. Duration : 1 h 35 min

  635. Bit rate mode : Constant

  636. Bit rate : 256 kb/s

  637. Channel(s) : 6 channels

  638. Channel layout : L R C LFE Ls Rs

  639. Sampling rate : 48.0 kHz

  640. Frame rate : 31.250 FPS (1536 SPF)

  641. Compression mode : Lossy

  642. Stream size : 174 MiB (1%)

  643. Language : French

  644. Service kind : Complete Main

  645. Default : No

  646. Forced : No

  647. Audio #35

  648. ID : 36

  649. Format : AAC LC

  650. Format/Info : Advanced Audio Codec Low Complexity

  651. Codec ID : A_AAC-2

  652. Duration : 1 h 35 min

  653. Bit rate : 125 kb/s

  654. Channel(s) : 2 channels

  655. Channel layout : L R

  656. Sampling rate : 48.0 kHz

  657. Frame rate : 46.875 FPS (1024 SPF)

  658. Compression mode : Lossy

  659. Stream size : 85.4 MiB (0%)

  660. Language : French

  661. Default : No

  662. Forced : No

  663. Audio #36

  664. ID : 37

  665. Format : AAC LC

  666. Format/Info : Advanced Audio Codec Low Complexity

  667. Codec ID : A_AAC-2

  668. Duration : 1 h 35 min

  669. Bit rate : 61.4 kb/s

  670. Channel(s) : 2 channels

  671. Channel layout : L R

  672. Sampling rate : 48.0 kHz

  673. Frame rate : 46.875 FPS (1024 SPF)

  674. Compression mode : Lossy

  675. Stream size : 41.8 MiB (0%)

  676. Language : French

  677. Default : No

  678. Forced : No

  679. Audio #37

  680. ID : 38

  681. Format : E-AC-3

  682. Format/Info : Enhanced AC-3

  683. Commercial name : Dolby Digital Plus

  684. Codec ID : A_EAC3

  685. Duration : 1 h 35 min

  686. Bit rate mode : Constant

  687. Bit rate : 256 kb/s

  688. Channel(s) : 6 channels

  689. Channel layout : L R C LFE Ls Rs

  690. Sampling rate : 48.0 kHz

  691. Frame rate : 31.250 FPS (1536 SPF)

  692. Compression mode : Lossy

  693. Stream size : 174 MiB (1%)

  694. Language : Hungarian

  695. Service kind : Complete Main

  696. Default : No

  697. Forced : No

  698. Audio #38

  699. ID : 39

  700. Format : E-AC-3

  701. Format/Info : Enhanced AC-3

  702. Commercial name : Dolby Digital Plus

  703. Codec ID : A_EAC3

  704. Duration : 1 h 35 min

  705. Bit rate mode : Constant

  706. Bit rate : 256 kb/s

  707. Channel(s) : 6 channels

  708. Channel layout : L R C LFE Ls Rs

  709. Sampling rate : 48.0 kHz

  710. Frame rate : 31.250 FPS (1536 SPF)

  711. Compression mode : Lossy

  712. Stream size : 174 MiB (1%)

  713. Language : Hungarian

  714. Service kind : Complete Main

  715. Default : No

  716. Forced : No

  717. Audio #39

  718. ID : 40

  719. Format : AAC LC

  720. Format/Info : Advanced Audio Codec Low Complexity

  721. Codec ID : A_AAC-2

  722. Duration : 1 h 35 min

  723. Bit rate : 125 kb/s

  724. Channel(s) : 2 channels

  725. Channel layout : L R

  726. Sampling rate : 48.0 kHz

  727. Frame rate : 46.875 FPS (1024 SPF)

  728. Compression mode : Lossy

  729. Stream size : 85.4 MiB (0%)

  730. Language : Hungarian

  731. Default : No

  732. Forced : No

  733. Audio #40

  734. ID : 41

  735. Format : AAC LC

  736. Format/Info : Advanced Audio Codec Low Complexity

  737. Codec ID : A_AAC-2

  738. Duration : 1 h 35 min

  739. Bit rate : 61.4 kb/s

  740. Channel(s) : 2 channels

  741. Channel layout : L R

  742. Sampling rate : 48.0 kHz

  743. Frame rate : 46.875 FPS (1024 SPF)

  744. Compression mode : Lossy

  745. Stream size : 41.8 MiB (0%)

  746. Language : Hungarian

  747. Default : No

  748. Forced : No

  749. Audio #41

  750. ID : 42

  751. Format : E-AC-3

  752. Format/Info : Enhanced AC-3

  753. Commercial name : Dolby Digital Plus

  754. Codec ID : A_EAC3

  755. Duration : 1 h 35 min

  756. Bit rate mode : Constant

  757. Bit rate : 256 kb/s

  758. Channel(s) : 6 channels

  759. Channel layout : L R C LFE Ls Rs

  760. Sampling rate : 48.0 kHz

  761. Frame rate : 31.250 FPS (1536 SPF)

  762. Compression mode : Lossy

  763. Stream size : 174 MiB (1%)

  764. Language : Italian

  765. Service kind : Complete Main

  766. Default : No

  767. Forced : No

  768. Audio #42

  769. ID : 43

  770. Format : E-AC-3

  771. Format/Info : Enhanced AC-3

  772. Commercial name : Dolby Digital Plus

  773. Codec ID : A_EAC3

  774. Duration : 1 h 35 min

  775. Bit rate mode : Constant

  776. Bit rate : 256 kb/s

  777. Channel(s) : 6 channels

  778. Channel layout : L R C LFE Ls Rs

  779. Sampling rate : 48.0 kHz

  780. Frame rate : 31.250 FPS (1536 SPF)

  781. Compression mode : Lossy

  782. Stream size : 174 MiB (1%)

  783. Language : Italian

  784. Service kind : Complete Main

  785. Default : No

  786. Forced : No

  787. Audio #43

  788. ID : 44

  789. Format : AAC LC

  790. Format/Info : Advanced Audio Codec Low Complexity

  791. Codec ID : A_AAC-2

  792. Duration : 1 h 35 min

  793. Bit rate : 125 kb/s

  794. Channel(s) : 2 channels

  795. Channel layout : L R

  796. Sampling rate : 48.0 kHz

  797. Frame rate : 46.875 FPS (1024 SPF)

  798. Compression mode : Lossy

  799. Stream size : 85.4 MiB (0%)

  800. Language : Italian

  801. Default : No

  802. Forced : No

  803. Audio #44

  804. ID : 45

  805. Format : AAC LC

  806. Format/Info : Advanced Audio Codec Low Complexity

  807. Codec ID : A_AAC-2

  808. Duration : 1 h 35 min

  809. Bit rate : 61.4 kb/s

  810. Channel(s) : 2 channels

  811. Channel layout : L R

  812. Sampling rate : 48.0 kHz

  813. Frame rate : 46.875 FPS (1024 SPF)

  814. Compression mode : Lossy

  815. Stream size : 41.8 MiB (0%)

  816. Language : Italian

  817. Default : No

  818. Forced : No

  819. Audio #45

  820. ID : 46

  821. Format : E-AC-3

  822. Format/Info : Enhanced AC-3

  823. Commercial name : Dolby Digital Plus

  824. Codec ID : A_EAC3

  825. Duration : 1 h 35 min

  826. Bit rate mode : Constant

  827. Bit rate : 256 kb/s

  828. Channel(s) : 6 channels

  829. Channel layout : L R C LFE Ls Rs

  830. Sampling rate : 48.0 kHz

  831. Frame rate : 31.250 FPS (1536 SPF)

  832. Compression mode : Lossy

  833. Stream size : 174 MiB (1%)

  834. Language : Japanese

  835. Service kind : Complete Main

  836. Default : No

  837. Forced : No

  838. Audio #46

  839. ID : 47

  840. Format : E-AC-3

  841. Format/Info : Enhanced AC-3

  842. Commercial name : Dolby Digital Plus

  843. Codec ID : A_EAC3

  844. Duration : 1 h 35 min

  845. Bit rate mode : Constant

  846. Bit rate : 256 kb/s

  847. Channel(s) : 6 channels

  848. Channel layout : L R C LFE Ls Rs

  849. Sampling rate : 48.0 kHz

  850. Frame rate : 31.250 FPS (1536 SPF)

  851. Compression mode : Lossy

  852. Stream size : 174 MiB (1%)

  853. Language : Japanese

  854. Service kind : Complete Main

  855. Default : No

  856. Forced : No

  857. Audio #47

  858. ID : 48

  859. Format : AAC LC

  860. Format/Info : Advanced Audio Codec Low Complexity

  861. Codec ID : A_AAC-2

  862. Duration : 1 h 35 min

  863. Bit rate : 125 kb/s

  864. Channel(s) : 2 channels

  865. Channel layout : L R

  866. Sampling rate : 48.0 kHz

  867. Frame rate : 46.875 FPS (1024 SPF)

  868. Compression mode : Lossy

  869. Stream size : 85.4 MiB (0%)

  870. Language : Japanese

  871. Default : No

  872. Forced : No

  873. Audio #48

  874. ID : 49

  875. Format : AAC LC

  876. Format/Info : Advanced Audio Codec Low Complexity

  877. Codec ID : A_AAC-2

  878. Duration : 1 h 35 min

  879. Bit rate : 61.4 kb/s

  880. Channel(s) : 2 channels

  881. Channel layout : L R

  882. Sampling rate : 48.0 kHz

  883. Frame rate : 46.875 FPS (1024 SPF)

  884. Compression mode : Lossy

  885. Stream size : 41.8 MiB (0%)

  886. Language : Japanese

  887. Default : No

  888. Forced : No

  889. Audio #49

  890. ID : 50

  891. Format : E-AC-3

  892. Format/Info : Enhanced AC-3

  893. Commercial name : Dolby Digital Plus

  894. Codec ID : A_EAC3

  895. Duration : 1 h 35 min

  896. Bit rate mode : Constant

  897. Bit rate : 256 kb/s

  898. Channel(s) : 6 channels

  899. Channel layout : L R C LFE Ls Rs

  900. Sampling rate : 48.0 kHz

  901. Frame rate : 31.250 FPS (1536 SPF)

  902. Compression mode : Lossy

  903. Stream size : 174 MiB (1%)

  904. Language : Korean

  905. Service kind : Complete Main

  906. Default : No

  907. Forced : No

  908. Audio #50

  909. ID : 51

  910. Format : E-AC-3

  911. Format/Info : Enhanced AC-3

  912. Commercial name : Dolby Digital Plus

  913. Codec ID : A_EAC3

  914. Duration : 1 h 35 min

  915. Bit rate mode : Constant

  916. Bit rate : 256 kb/s

  917. Channel(s) : 6 channels

  918. Channel layout : L R C LFE Ls Rs

  919. Sampling rate : 48.0 kHz

  920. Frame rate : 31.250 FPS (1536 SPF)

  921. Compression mode : Lossy

  922. Stream size : 174 MiB (1%)

  923. Language : Korean

  924. Service kind : Complete Main

  925. Default : No

  926. Forced : No

  927. Audio #51

  928. ID : 52

  929. Format : AAC LC

  930. Format/Info : Advanced Audio Codec Low Complexity

  931. Codec ID : A_AAC-2

  932. Duration : 1 h 35 min

  933. Bit rate : 125 kb/s

  934. Channel(s) : 2 channels

  935. Channel layout : L R

  936. Sampling rate : 48.0 kHz

  937. Frame rate : 46.875 FPS (1024 SPF)

  938. Compression mode : Lossy

  939. Stream size : 85.4 MiB (0%)

  940. Language : Korean

  941. Default : No

  942. Forced : No

  943. Audio #52

  944. ID : 53

  945. Format : AAC LC

  946. Format/Info : Advanced Audio Codec Low Complexity

  947. Codec ID : A_AAC-2

  948. Duration : 1 h 35 min

  949. Bit rate : 61.4 kb/s

  950. Channel(s) : 2 channels

  951. Channel layout : L R

  952. Sampling rate : 48.0 kHz

  953. Frame rate : 46.875 FPS (1024 SPF)

  954. Compression mode : Lossy

  955. Stream size : 41.8 MiB (0%)

  956. Language : Korean

  957. Default : No

  958. Forced : No

  959. Audio #53

  960. ID : 54

  961. Format : E-AC-3

  962. Format/Info : Enhanced AC-3

  963. Commercial name : Dolby Digital Plus

  964. Codec ID : A_EAC3

  965. Duration : 1 h 35 min

  966. Bit rate mode : Constant

  967. Bit rate : 256 kb/s

  968. Channel(s) : 6 channels

  969. Channel layout : L R C LFE Ls Rs

  970. Sampling rate : 48.0 kHz

  971. Frame rate : 31.250 FPS (1536 SPF)

  972. Compression mode : Lossy

  973. Stream size : 174 MiB (1%)

  974. Language : Norwegian Bokmal

  975. Service kind : Complete Main

  976. Default : No

  977. Forced : No

  978. Audio #54

  979. ID : 55

  980. Format : E-AC-3

  981. Format/Info : Enhanced AC-3

  982. Commercial name : Dolby Digital Plus

  983. Codec ID : A_EAC3

  984. Duration : 1 h 35 min

  985. Bit rate mode : Constant

  986. Bit rate : 256 kb/s

  987. Channel(s) : 6 channels

  988. Channel layout : L R C LFE Ls Rs

  989. Sampling rate : 48.0 kHz

  990. Frame rate : 31.250 FPS (1536 SPF)

  991. Compression mode : Lossy

  992. Stream size : 174 MiB (1%)

  993. Language : Norwegian Bokmal

  994. Service kind : Complete Main

  995. Default : No

  996. Forced : No

  997. Audio #55

  998. ID : 56

  999. Format : AAC LC

  1000. Format/Info : Advanced Audio Codec Low Complexity

  1001. Codec ID : A_AAC-2

  1002. Duration : 1 h 35 min

  1003. Bit rate : 125 kb/s

  1004. Channel(s) : 2 channels

  1005. Channel layout : L R

  1006. Sampling rate : 48.0 kHz

  1007. Frame rate : 46.875 FPS (1024 SPF)

  1008. Compression mode : Lossy

  1009. Stream size : 85.4 MiB (0%)

  1010. Language : Norwegian Bokmal

  1011. Default : No

  1012. Forced : No

  1013. Audio #56

  1014. ID : 57

  1015. Format : AAC LC

  1016. Format/Info : Advanced Audio Codec Low Complexity

  1017. Codec ID : A_AAC-2

  1018. Duration : 1 h 35 min

  1019. Bit rate : 61.4 kb/s

  1020. Channel(s) : 2 channels

  1021. Channel layout : L R

  1022. Sampling rate : 48.0 kHz

  1023. Frame rate : 46.875 FPS (1024 SPF)

  1024. Compression mode : Lossy

  1025. Stream size : 41.8 MiB (0%)

  1026. Language : Norwegian Bokmal

  1027. Default : No

  1028. Forced : No

  1029. Audio #57

  1030. ID : 58

  1031. Format : E-AC-3

  1032. Format/Info : Enhanced AC-3

  1033. Commercial name : Dolby Digital Plus

  1034. Codec ID : A_EAC3

  1035. Duration : 1 h 35 min

  1036. Bit rate mode : Constant

  1037. Bit rate : 256 kb/s

  1038. Channel(s) : 6 channels

  1039. Channel layout : L R C LFE Ls Rs

  1040. Sampling rate : 48.0 kHz

  1041. Frame rate : 31.250 FPS (1536 SPF)

  1042. Compression mode : Lossy

  1043. Stream size : 174 MiB (1%)

  1044. Language : Dutch

  1045. Service kind : Complete Main

  1046. Default : No

  1047. Forced : No

  1048. Audio #58

  1049. ID : 59

  1050. Format : E-AC-3

  1051. Format/Info : Enhanced AC-3

  1052. Commercial name : Dolby Digital Plus

  1053. Codec ID : A_EAC3

  1054. Duration : 1 h 35 min

  1055. Bit rate mode : Constant

  1056. Bit rate : 256 kb/s

  1057. Channel(s) : 6 channels

  1058. Channel layout : L R C LFE Ls Rs

  1059. Sampling rate : 48.0 kHz

  1060. Frame rate : 31.250 FPS (1536 SPF)

  1061. Compression mode : Lossy

  1062. Stream size : 174 MiB (1%)

  1063. Language : Dutch

  1064. Service kind : Complete Main

  1065. Default : No

  1066. Forced : No

  1067. Audio #59

  1068. ID : 60

  1069. Format : AAC LC

  1070. Format/Info : Advanced Audio Codec Low Complexity

  1071. Codec ID : A_AAC-2

  1072. Duration : 1 h 35 min

  1073. Bit rate : 125 kb/s

  1074. Channel(s) : 2 channels

  1075. Channel layout : L R

  1076. Sampling rate : 48.0 kHz

  1077. Frame rate : 46.875 FPS (1024 SPF)

  1078. Compression mode : Lossy

  1079. Stream size : 85.4 MiB (0%)

  1080. Language : Dutch

  1081. Default : No

  1082. Forced : No

  1083. Audio #60

  1084. ID : 61

  1085. Format : AAC LC

  1086. Format/Info : Advanced Audio Codec Low Complexity

  1087. Codec ID : A_AAC-2

  1088. Duration : 1 h 35 min

  1089. Bit rate : 61.4 kb/s

  1090. Channel(s) : 2 channels

  1091. Channel layout : L R

  1092. Sampling rate : 48.0 kHz

  1093. Frame rate : 46.875 FPS (1024 SPF)

  1094. Compression mode : Lossy

  1095. Stream size : 41.8 MiB (0%)

  1096. Language : Dutch

  1097. Default : No

  1098. Forced : No

  1099. Audio #61

  1100. ID : 62

  1101. Format : E-AC-3

  1102. Format/Info : Enhanced AC-3

  1103. Commercial name : Dolby Digital Plus

  1104. Codec ID : A_EAC3

  1105. Duration : 1 h 35 min

  1106. Bit rate mode : Constant

  1107. Bit rate : 256 kb/s

  1108. Channel(s) : 6 channels

  1109. Channel layout : L R C LFE Ls Rs

  1110. Sampling rate : 48.0 kHz

  1111. Frame rate : 31.250 FPS (1536 SPF)

  1112. Compression mode : Lossy

  1113. Stream size : 174 MiB (1%)

  1114. Title : Belgium

  1115. Language : Dutch

  1116. Service kind : Complete Main

  1117. Default : No

  1118. Forced : No

  1119. Audio #62

  1120. ID : 63

  1121. Format : E-AC-3

  1122. Format/Info : Enhanced AC-3

  1123. Commercial name : Dolby Digital Plus

  1124. Codec ID : A_EAC3

  1125. Duration : 1 h 35 min

  1126. Bit rate mode : Constant

  1127. Bit rate : 256 kb/s

  1128. Channel(s) : 6 channels

  1129. Channel layout : L R C LFE Ls Rs

  1130. Sampling rate : 48.0 kHz

  1131. Frame rate : 31.250 FPS (1536 SPF)

  1132. Compression mode : Lossy

  1133. Stream size : 174 MiB (1%)

  1134. Title : Belgium

  1135. Language : Dutch

  1136. Service kind : Complete Main

  1137. Default : No

  1138. Forced : No

  1139. Audio #63

  1140. ID : 64

  1141. Format : AAC LC

  1142. Format/Info : Advanced Audio Codec Low Complexity

  1143. Codec ID : A_AAC-2

  1144. Duration : 1 h 35 min

  1145. Bit rate : 125 kb/s

  1146. Channel(s) : 2 channels

  1147. Channel layout : L R

  1148. Sampling rate : 48.0 kHz

  1149. Frame rate : 46.875 FPS (1024 SPF)

  1150. Compression mode : Lossy

  1151. Stream size : 85.4 MiB (0%)

  1152. Title : Belgium

  1153. Language : Dutch

  1154. Default : No

  1155. Forced : No

  1156. Audio #64

  1157. ID : 65

  1158. Format : AAC LC

  1159. Format/Info : Advanced Audio Codec Low Complexity

  1160. Codec ID : A_AAC-2

  1161. Duration : 1 h 35 min

  1162. Bit rate : 61.4 kb/s

  1163. Channel(s) : 2 channels

  1164. Channel layout : L R

  1165. Sampling rate : 48.0 kHz

  1166. Frame rate : 46.875 FPS (1024 SPF)

  1167. Compression mode : Lossy

  1168. Stream size : 41.8 MiB (0%)

  1169. Title : Belgium

  1170. Language : Dutch

  1171. Default : No

  1172. Forced : No

  1173. Audio #65

  1174. ID : 66

  1175. Format : E-AC-3

  1176. Format/Info : Enhanced AC-3

  1177. Commercial name : Dolby Digital Plus

  1178. Codec ID : A_EAC3

  1179. Duration : 1 h 35 min

  1180. Bit rate mode : Constant

  1181. Bit rate : 256 kb/s

  1182. Channel(s) : 6 channels

  1183. Channel layout : L R C LFE Ls Rs

  1184. Sampling rate : 48.0 kHz

  1185. Frame rate : 31.250 FPS (1536 SPF)

  1186. Compression mode : Lossy

  1187. Stream size : 174 MiB (1%)

  1188. Language : Polish

  1189. Service kind : Complete Main

  1190. Default : No

  1191. Forced : No

  1192. Audio #66

  1193. ID : 67

  1194. Format : E-AC-3

  1195. Format/Info : Enhanced AC-3

  1196. Commercial name : Dolby Digital Plus

  1197. Codec ID : A_EAC3

  1198. Duration : 1 h 35 min

  1199. Bit rate mode : Constant

  1200. Bit rate : 256 kb/s

  1201. Channel(s) : 6 channels

  1202. Channel layout : L R C LFE Ls Rs

  1203. Sampling rate : 48.0 kHz

  1204. Frame rate : 31.250 FPS (1536 SPF)

  1205. Compression mode : Lossy

  1206. Stream size : 174 MiB (1%)

  1207. Language : Polish

  1208. Service kind : Complete Main

  1209. Default : No

  1210. Forced : No

  1211. Audio #67

  1212. ID : 68

  1213. Format : AAC LC

  1214. Format/Info : Advanced Audio Codec Low Complexity

  1215. Codec ID : A_AAC-2

  1216. Duration : 1 h 35 min

  1217. Bit rate : 125 kb/s

  1218. Channel(s) : 2 channels

  1219. Channel layout : L R

  1220. Sampling rate : 48.0 kHz

  1221. Frame rate : 46.875 FPS (1024 SPF)

  1222. Compression mode : Lossy

  1223. Stream size : 85.4 MiB (0%)

  1224. Language : Polish

  1225. Default : No

  1226. Forced : No

  1227. Audio #68

  1228. ID : 69

  1229. Format : AAC LC

  1230. Format/Info : Advanced Audio Codec Low Complexity

  1231. Codec ID : A_AAC-2

  1232. Duration : 1 h 35 min

  1233. Bit rate : 61.4 kb/s

  1234. Channel(s) : 2 channels

  1235. Channel layout : L R

  1236. Sampling rate : 48.0 kHz

  1237. Frame rate : 46.875 FPS (1024 SPF)

  1238. Compression mode : Lossy

  1239. Stream size : 41.8 MiB (0%)

  1240. Language : Polish

  1241. Default : No

  1242. Forced : No

  1243. Audio #69

  1244. ID : 70

  1245. Format : E-AC-3

  1246. Format/Info : Enhanced AC-3

  1247. Commercial name : Dolby Digital Plus

  1248. Codec ID : A_EAC3

  1249. Duration : 1 h 35 min

  1250. Bit rate mode : Constant

  1251. Bit rate : 256 kb/s

  1252. Channel(s) : 6 channels

  1253. Channel layout : L R C LFE Ls Rs

  1254. Sampling rate : 48.0 kHz

  1255. Frame rate : 31.250 FPS (1536 SPF)

  1256. Compression mode : Lossy

  1257. Stream size : 174 MiB (1%)

  1258. Title : Brazil

  1259. Language : Portuguese

  1260. Service kind : Complete Main

  1261. Default : No

  1262. Forced : No

  1263. Audio #70

  1264. ID : 71

  1265. Format : E-AC-3

  1266. Format/Info : Enhanced AC-3

  1267. Commercial name : Dolby Digital Plus

  1268. Codec ID : A_EAC3

  1269. Duration : 1 h 35 min

  1270. Bit rate mode : Constant

  1271. Bit rate : 256 kb/s

  1272. Channel(s) : 6 channels

  1273. Channel layout : L R C LFE Ls Rs

  1274. Sampling rate : 48.0 kHz

  1275. Frame rate : 31.250 FPS (1536 SPF)

  1276. Compression mode : Lossy

  1277. Stream size : 174 MiB (1%)

  1278. Title : Brazil

  1279. Language : Portuguese

  1280. Service kind : Complete Main

  1281. Default : No

  1282. Forced : No

  1283. Audio #71

  1284. ID : 72

  1285. Format : AAC LC

  1286. Format/Info : Advanced Audio Codec Low Complexity

  1287. Codec ID : A_AAC-2

  1288. Duration : 1 h 35 min

  1289. Bit rate : 125 kb/s

  1290. Channel(s) : 2 channels

  1291. Channel layout : L R

  1292. Sampling rate : 48.0 kHz

  1293. Frame rate : 46.875 FPS (1024 SPF)

  1294. Compression mode : Lossy

  1295. Stream size : 85.4 MiB (0%)

  1296. Title : Brazil

  1297. Language : Portuguese

  1298. Default : No

  1299. Forced : No

  1300. Audio #72

  1301. ID : 73

  1302. Format : AAC LC

  1303. Format/Info : Advanced Audio Codec Low Complexity

  1304. Codec ID : A_AAC-2

  1305. Duration : 1 h 35 min

  1306. Bit rate : 61.4 kb/s

  1307. Channel(s) : 2 channels

  1308. Channel layout : L R

  1309. Sampling rate : 48.0 kHz

  1310. Frame rate : 46.875 FPS (1024 SPF)

  1311. Compression mode : Lossy

  1312. Stream size : 41.8 MiB (0%)

  1313. Title : Brazil

  1314. Language : Portuguese

  1315. Default : No

  1316. Forced : No

  1317. Audio #73

  1318. ID : 74

  1319. Format : E-AC-3

  1320. Format/Info : Enhanced AC-3

  1321. Commercial name : Dolby Digital Plus

  1322. Codec ID : A_EAC3

  1323. Duration : 1 h 35 min

  1324. Bit rate mode : Constant

  1325. Bit rate : 256 kb/s

  1326. Channel(s) : 6 channels

  1327. Channel layout : L R C LFE Ls Rs

  1328. Sampling rate : 48.0 kHz

  1329. Frame rate : 31.250 FPS (1536 SPF)

  1330. Compression mode : Lossy

  1331. Stream size : 174 MiB (1%)

  1332. Language : Portuguese

  1333. Service kind : Complete Main

  1334. Default : No

  1335. Forced : No

  1336. Audio #74

  1337. ID : 75

  1338. Format : E-AC-3

  1339. Format/Info : Enhanced AC-3

  1340. Commercial name : Dolby Digital Plus

  1341. Codec ID : A_EAC3

  1342. Duration : 1 h 35 min

  1343. Bit rate mode : Constant

  1344. Bit rate : 256 kb/s

  1345. Channel(s) : 6 channels

  1346. Channel layout : L R C LFE Ls Rs

  1347. Sampling rate : 48.0 kHz

  1348. Frame rate : 31.250 FPS (1536 SPF)

  1349. Compression mode : Lossy

  1350. Stream size : 174 MiB (1%)

  1351. Language : Portuguese

  1352. Service kind : Complete Main

  1353. Default : No

  1354. Forced : No

  1355. Audio #75

  1356. ID : 76

  1357. Format : AAC LC

  1358. Format/Info : Advanced Audio Codec Low Complexity

  1359. Codec ID : A_AAC-2

  1360. Duration : 1 h 35 min

  1361. Bit rate : 125 kb/s

  1362. Channel(s) : 2 channels

  1363. Channel layout : L R

  1364. Sampling rate : 48.0 kHz

  1365. Frame rate : 46.875 FPS (1024 SPF)

  1366. Compression mode : Lossy

  1367. Stream size : 85.4 MiB (0%)

  1368. Language : Portuguese

  1369. Default : No

  1370. Forced : No

  1371. Audio #76

  1372. ID : 77

  1373. Format : AAC LC

  1374. Format/Info : Advanced Audio Codec Low Complexity

  1375. Codec ID : A_AAC-2

  1376. Duration : 1 h 35 min

  1377. Bit rate : 61.4 kb/s

  1378. Channel(s) : 2 channels

  1379. Channel layout : L R

  1380. Sampling rate : 48.0 kHz

  1381. Frame rate : 46.875 FPS (1024 SPF)

  1382. Compression mode : Lossy

  1383. Stream size : 41.8 MiB (0%)

  1384. Language : Portuguese

  1385. Default : No

  1386. Forced : No

  1387. Audio #77

  1388. ID : 78

  1389. Format : E-AC-3

  1390. Format/Info : Enhanced AC-3

  1391. Commercial name : Dolby Digital Plus

  1392. Codec ID : A_EAC3

  1393. Duration : 1 h 35 min

  1394. Bit rate mode : Constant

  1395. Bit rate : 256 kb/s

  1396. Channel(s) : 6 channels

  1397. Channel layout : L R C LFE Ls Rs

  1398. Sampling rate : 48.0 kHz

  1399. Frame rate : 31.250 FPS (1536 SPF)

  1400. Compression mode : Lossy

  1401. Stream size : 174 MiB (1%)

  1402. Language : Romanian

  1403. Service kind : Complete Main

  1404. Default : No

  1405. Forced : No

  1406. Audio #78

  1407. ID : 79

  1408. Format : E-AC-3

  1409. Format/Info : Enhanced AC-3

  1410. Commercial name : Dolby Digital Plus

  1411. Codec ID : A_EAC3

  1412. Duration : 1 h 35 min

  1413. Bit rate mode : Constant

  1414. Bit rate : 256 kb/s

  1415. Channel(s) : 6 channels

  1416. Channel layout : L R C LFE Ls Rs

  1417. Sampling rate : 48.0 kHz

  1418. Frame rate : 31.250 FPS (1536 SPF)

  1419. Compression mode : Lossy

  1420. Stream size : 174 MiB (1%)

  1421. Language : Romanian

  1422. Service kind : Complete Main

  1423. Default : No

  1424. Forced : No

  1425. Audio #79

  1426. ID : 80

  1427. Format : AAC LC

  1428. Format/Info : Advanced Audio Codec Low Complexity

  1429. Codec ID : A_AAC-2

  1430. Duration : 1 h 35 min

  1431. Bit rate : 125 kb/s

  1432. Channel(s) : 2 channels

  1433. Channel layout : L R

  1434. Sampling rate : 48.0 kHz

  1435. Frame rate : 46.875 FPS (1024 SPF)

  1436. Compression mode : Lossy

  1437. Stream size : 85.4 MiB (0%)

  1438. Language : Romanian

  1439. Default : No

  1440. Forced : No

  1441. Audio #80

  1442. ID : 81

  1443. Format : AAC LC

  1444. Format/Info : Advanced Audio Codec Low Complexity

  1445. Codec ID : A_AAC-2

  1446. Duration : 1 h 35 min

  1447. Bit rate : 61.4 kb/s

  1448. Channel(s) : 2 channels

  1449. Channel layout : L R

  1450. Sampling rate : 48.0 kHz

  1451. Frame rate : 46.875 FPS (1024 SPF)

  1452. Compression mode : Lossy

  1453. Stream size : 41.8 MiB (0%)

  1454. Language : Romanian

  1455. Default : No

  1456. Forced : No

  1457. Audio #81

  1458. ID : 82

  1459. Format : E-AC-3

  1460. Format/Info : Enhanced AC-3

  1461. Commercial name : Dolby Digital Plus

  1462. Codec ID : A_EAC3

  1463. Duration : 1 h 35 min

  1464. Bit rate mode : Constant

  1465. Bit rate : 256 kb/s

  1466. Channel(s) : 6 channels

  1467. Channel layout : L R C LFE Ls Rs

  1468. Sampling rate : 48.0 kHz

  1469. Frame rate : 31.250 FPS (1536 SPF)

  1470. Compression mode : Lossy

  1471. Stream size : 174 MiB (1%)

  1472. Language : Slovak

  1473. Service kind : Complete Main

  1474. Default : No

  1475. Forced : No

  1476. Audio #82

  1477. ID : 83

  1478. Format : E-AC-3

  1479. Format/Info : Enhanced AC-3

  1480. Commercial name : Dolby Digital Plus

  1481. Codec ID : A_EAC3

  1482. Duration : 1 h 35 min

  1483. Bit rate mode : Constant

  1484. Bit rate : 256 kb/s

  1485. Channel(s) : 6 channels

  1486. Channel layout : L R C LFE Ls Rs

  1487. Sampling rate : 48.0 kHz

  1488. Frame rate : 31.250 FPS (1536 SPF)

  1489. Compression mode : Lossy

  1490. Stream size : 174 MiB (1%)

  1491. Language : Slovak

  1492. Service kind : Complete Main

  1493. Default : No

  1494. Forced : No

  1495. Audio #83

  1496. ID : 84

  1497. Format : AAC LC

  1498. Format/Info : Advanced Audio Codec Low Complexity

  1499. Codec ID : A_AAC-2

  1500. Duration : 1 h 35 min

  1501. Bit rate : 125 kb/s

  1502. Channel(s) : 2 channels

  1503. Channel layout : L R

  1504. Sampling rate : 48.0 kHz

  1505. Frame rate : 46.875 FPS (1024 SPF)

  1506. Compression mode : Lossy

  1507. Stream size : 85.4 MiB (0%)

  1508. Language : Slovak

  1509. Default : No

  1510. Forced : No

  1511. Audio #84

  1512. ID : 85

  1513. Format : AAC LC

  1514. Format/Info : Advanced Audio Codec Low Complexity

  1515. Codec ID : A_AAC-2

  1516. Duration : 1 h 35 min

  1517. Bit rate : 61.4 kb/s

  1518. Channel(s) : 2 channels

  1519. Channel layout : L R

  1520. Sampling rate : 48.0 kHz

  1521. Frame rate : 46.875 FPS (1024 SPF)

  1522. Compression mode : Lossy

  1523. Stream size : 41.8 MiB (0%)

  1524. Language : Slovak

  1525. Default : No

  1526. Forced : No

  1527. Audio #85

  1528. ID : 86

  1529. Format : E-AC-3

  1530. Format/Info : Enhanced AC-3

  1531. Commercial name : Dolby Digital Plus

  1532. Codec ID : A_EAC3

  1533. Duration : 1 h 35 min

  1534. Bit rate mode : Constant

  1535. Bit rate : 256 kb/s

  1536. Channel(s) : 6 channels

  1537. Channel layout : L R C LFE Ls Rs

  1538. Sampling rate : 48.0 kHz

  1539. Frame rate : 31.250 FPS (1536 SPF)

  1540. Compression mode : Lossy

  1541. Stream size : 174 MiB (1%)

  1542. Language : Swedish

  1543. Service kind : Complete Main

  1544. Default : No

  1545. Forced : No

  1546. Audio #86

  1547. ID : 87

  1548. Format : E-AC-3

  1549. Format/Info : Enhanced AC-3

  1550. Commercial name : Dolby Digital Plus

  1551. Codec ID : A_EAC3

  1552. Duration : 1 h 35 min

  1553. Bit rate mode : Constant

  1554. Bit rate : 256 kb/s

  1555. Channel(s) : 6 channels

  1556. Channel layout : L R C LFE Ls Rs

  1557. Sampling rate : 48.0 kHz

  1558. Frame rate : 31.250 FPS (1536 SPF)

  1559. Compression mode : Lossy

  1560. Stream size : 174 MiB (1%)

  1561. Language : Swedish

  1562. Service kind : Complete Main

  1563. Default : No

  1564. Forced : No

  1565. Audio #87

  1566. ID : 88

  1567. Format : AAC LC

  1568. Format/Info : Advanced Audio Codec Low Complexity

  1569. Codec ID : A_AAC-2

  1570. Duration : 1 h 35 min

  1571. Bit rate : 125 kb/s

  1572. Channel(s) : 2 channels

  1573. Channel layout : L R

  1574. Sampling rate : 48.0 kHz

  1575. Frame rate : 46.875 FPS (1024 SPF)

  1576. Compression mode : Lossy

  1577. Stream size : 85.4 MiB (0%)

  1578. Language : Swedish

  1579. Default : No

  1580. Forced : No

  1581. Audio #88

  1582. ID : 89

  1583. Format : AAC LC

  1584. Format/Info : Advanced Audio Codec Low Complexity

  1585. Codec ID : A_AAC-2

  1586. Duration : 1 h 35 min

  1587. Bit rate : 61.4 kb/s

  1588. Channel(s) : 2 channels

  1589. Channel layout : L R

  1590. Sampling rate : 48.0 kHz

  1591. Frame rate : 46.875 FPS (1024 SPF)

  1592. Compression mode : Lossy

  1593. Stream size : 41.8 MiB (0%)

  1594. Language : Swedish

  1595. Default : No

  1596. Forced : No

  1597. Audio #89

  1598. ID : 90

  1599. Format : E-AC-3

  1600. Format/Info : Enhanced AC-3

  1601. Commercial name : Dolby Digital Plus

  1602. Codec ID : A_EAC3

  1603. Duration : 1 h 35 min

  1604. Bit rate mode : Constant

  1605. Bit rate : 256 kb/s

  1606. Channel(s) : 6 channels

  1607. Channel layout : L R C LFE Ls Rs

  1608. Sampling rate : 48.0 kHz

  1609. Frame rate : 31.250 FPS (1536 SPF)

  1610. Compression mode : Lossy

  1611. Stream size : 174 MiB (1%)

  1612. Language : Chinese

  1613. Service kind : Complete Main

  1614. Default : No

  1615. Forced : No

  1616. Audio #90

  1617. ID : 91

  1618. Format : E-AC-3

  1619. Format/Info : Enhanced AC-3

  1620. Commercial name : Dolby Digital Plus

  1621. Codec ID : A_EAC3

  1622. Duration : 1 h 35 min

  1623. Bit rate mode : Constant

  1624. Bit rate : 256 kb/s

  1625. Channel(s) : 6 channels

  1626. Channel layout : L R C LFE Ls Rs

  1627. Sampling rate : 48.0 kHz

  1628. Frame rate : 31.250 FPS (1536 SPF)

  1629. Compression mode : Lossy

  1630. Stream size : 174 MiB (1%)

  1631. Language : Chinese

  1632. Service kind : Complete Main

  1633. Default : No

  1634. Forced : No

  1635. Audio #91

  1636. ID : 92

  1637. Format : AAC LC

  1638. Format/Info : Advanced Audio Codec Low Complexity

  1639. Codec ID : A_AAC-2

  1640. Duration : 1 h 35 min

  1641. Bit rate : 125 kb/s

  1642. Channel(s) : 2 channels

  1643. Channel layout : L R

  1644. Sampling rate : 48.0 kHz

  1645. Frame rate : 46.875 FPS (1024 SPF)

  1646. Compression mode : Lossy

  1647. Stream size : 85.4 MiB (0%)

  1648. Language : Chinese

  1649. Default : No

  1650. Forced : No

  1651. Audio #92

  1652. ID : 93

  1653. Format : AAC LC

  1654. Format/Info : Advanced Audio Codec Low Complexity

  1655. Codec ID : A_AAC-2

  1656. Duration : 1 h 35 min

  1657. Bit rate : 61.4 kb/s

  1658. Channel(s) : 2 channels

  1659. Channel layout : L R

  1660. Sampling rate : 48.0 kHz

  1661. Frame rate : 46.875 FPS (1024 SPF)

  1662. Compression mode : Lossy

  1663. Stream size : 41.8 MiB (0%)

  1664. Language : Chinese

  1665. Default : No

  1666. Forced : No

  1667. Text #1

  1668. ID : 94

  1669. Format : UTF-8

  1670. Codec ID : S_TEXT/UTF8

  1671. Codec ID/Info : UTF-8 Plain Text

  1672. Duration : 1 h 34 min

  1673. Bit rate : 72 b/s

  1674. Count of elements : 1989

  1675. Stream size : 50.4 KiB (0%)

  1676. Title : SDH

  1677. Language : English

  1678. Default : No

  1679. Forced : No

  1680. Text #2

  1681. ID : 95

  1682. Format : UTF-8

  1683. Codec ID : S_TEXT/UTF8

  1684. Codec ID/Info : UTF-8 Plain Text

  1685. Duration : 1 h 33 min

  1686. Bit rate : 53 b/s

  1687. Count of elements : 902

  1688. Stream size : 36.5 KiB (0%)

  1689. Language : Danish

  1690. Default : No

  1691. Forced : No

  1692. Text #3

  1693. ID : 96

  1694. Format : UTF-8

  1695. Codec ID : S_TEXT/UTF8

  1696. Codec ID/Info : UTF-8 Plain Text

  1697. Duration : 1 h 34 min

  1698. Bit rate : 64 b/s

  1699. Count of elements : 1296

  1700. Stream size : 44.7 KiB (0%)

  1701. Title : SDH

  1702. Language : German

  1703. Default : No

  1704. Forced : No

  1705. Text #4

  1706. ID : 97

  1707. Format : UTF-8

  1708. Codec ID : S_TEXT/UTF8

  1709. Codec ID/Info : UTF-8 Plain Text

  1710. Duration : 1 h 33 min

  1711. Bit rate : 49 b/s

  1712. Count of elements : 1278

  1713. Stream size : 33.9 KiB (0%)

  1714. Language : German

  1715. Default : No

  1716. Forced : No

  1717. Text #5

  1718. ID : 98

  1719. Format : UTF-8

  1720. Codec ID : S_TEXT/UTF8

  1721. Codec ID/Info : UTF-8 Plain Text

  1722. Duration : 1 h 34 min

  1723. Bit rate : 62 b/s

  1724. Count of elements : 1462

  1725. Stream size : 43.4 KiB (0%)

  1726. Title : Latin America (SDH)

  1727. Language : Spanish

  1728. Default : No

  1729. Forced : No

  1730. Text #6

  1731. ID : 99

  1732. Format : UTF-8

  1733. Codec ID : S_TEXT/UTF8

  1734. Codec ID/Info : UTF-8 Plain Text

  1735. Duration : 1 h 33 min

  1736. Bit rate : 55 b/s

  1737. Count of elements : 1300

  1738. Stream size : 38.3 KiB (0%)

  1739. Title : Latin America

  1740. Language : Spanish

  1741. Default : No

  1742. Forced : No

  1743. Text #7

  1744. ID : 100

  1745. Format : UTF-8

  1746. Codec ID : S_TEXT/UTF8

  1747. Codec ID/Info : UTF-8 Plain Text

  1748. Duration : 1 h 33 min

  1749. Bit rate : 51 b/s

  1750. Count of elements : 1296

  1751. Stream size : 35.6 KiB (0%)

  1752. Language : Spanish

  1753. Default : No

  1754. Forced : No

  1755. Text #8

  1756. ID : 101

  1757. Format : UTF-8

  1758. Codec ID : S_TEXT/UTF8

  1759. Codec ID/Info : UTF-8 Plain Text

  1760. Duration : 1 h 33 min

  1761. Bit rate : 54 b/s

  1762. Count of elements : 1292

  1763. Stream size : 37.3 KiB (0%)

  1764. Language : Finnish

  1765. Default : No

  1766. Forced : No

  1767. Text #9

  1768. ID : 102

  1769. Format : UTF-8

  1770. Codec ID : S_TEXT/UTF8

  1771. Codec ID/Info : UTF-8 Plain Text

  1772. Duration : 1 h 34 min

  1773. Bit rate : 62 b/s

  1774. Count of elements : 1487

  1775. Stream size : 43.5 KiB (0%)

  1776. Title : SDH

  1777. Language : French

  1778. Default : No

  1779. Forced : No

  1780. Text #10

  1781. ID : 103

  1782. Format : UTF-8

  1783. Codec ID : S_TEXT/UTF8

  1784. Codec ID/Info : UTF-8 Plain Text

  1785. Duration : 1 h 33 min

  1786. Bit rate : 52 b/s

  1787. Count of elements : 1187

  1788. Stream size : 35.7 KiB (0%)

  1789. Language : French

  1790. Default : No

  1791. Forced : No

  1792. Text #11

  1793. ID : 104

  1794. Format : UTF-8

  1795. Codec ID : S_TEXT/UTF8

  1796. Codec ID/Info : UTF-8 Plain Text

  1797. Duration : 1 h 33 min

  1798. Bit rate : 49 b/s

  1799. Count of elements : 1269

  1800. Stream size : 34.1 KiB (0%)

  1801. Language : Italian

  1802. Default : No

  1803. Forced : No

  1804. Text #12

  1805. ID : 105

  1806. Format : UTF-8

  1807. Codec ID : S_TEXT/UTF8

  1808. Codec ID/Info : UTF-8 Plain Text

  1809. Duration : 1 h 33 min

  1810. Bit rate : 45 b/s

  1811. Count of elements : 1259

  1812. Stream size : 31.4 KiB (0%)

  1813. Language : Japanese

  1814. Default : No

  1815. Forced : No

  1816. Text #13

  1817. ID : 106

  1818. Format : UTF-8

  1819. Codec ID : S_TEXT/UTF8

  1820. Codec ID/Info : UTF-8 Plain Text

  1821. Duration : 1 h 33 min

  1822. Bit rate : 55 b/s

  1823. Count of elements : 1296

  1824. Stream size : 38.2 KiB (0%)

  1825. Language : Korean

  1826. Default : No

  1827. Forced : No

  1828. Text #14

  1829. ID : 107

  1830. Format : UTF-8

  1831. Codec ID : S_TEXT/UTF8

  1832. Codec ID/Info : UTF-8 Plain Text

  1833. Duration : 1 h 33 min

  1834. Bit rate : 50 b/s

  1835. Count of elements : 1298

  1836. Stream size : 34.6 KiB (0%)

  1837. Language : Norwegian Bokmal

  1838. Default : No

  1839. Forced : No

  1840. Text #15

  1841. ID : 108

  1842. Format : UTF-8

  1843. Codec ID : S_TEXT/UTF8

  1844. Codec ID/Info : UTF-8 Plain Text

  1845. Duration : 1 h 33 min

  1846. Bit rate : 46 b/s

  1847. Count of elements : 1112

  1848. Stream size : 32.0 KiB (0%)

  1849. Language : Dutch

  1850. Default : No

  1851. Forced : No

  1852. Text #16

  1853. ID : 109

  1854. Format : UTF-8

  1855. Codec ID : S_TEXT/UTF8

  1856. Codec ID/Info : UTF-8 Plain Text

  1857. Duration : 1 h 33 min

  1858. Bit rate : 51 b/s

  1859. Count of elements : 1294

  1860. Stream size : 35.2 KiB (0%)

  1861. Language : Polish

  1862. Default : No

  1863. Forced : No

  1864. Text #17

  1865. ID : 110

  1866. Format : UTF-8

  1867. Codec ID : S_TEXT/UTF8

  1868. Codec ID/Info : UTF-8 Plain Text

  1869. Duration : 1 h 34 min

  1870. Bit rate : 64 b/s

  1871. Count of elements : 1243

  1872. Stream size : 44.5 KiB (0%)

  1873. Title : Brazil (SDH)

  1874. Language : Portuguese

  1875. Default : No

  1876. Forced : No

  1877. Text #18

  1878. ID : 111

  1879. Format : UTF-8

  1880. Codec ID : S_TEXT/UTF8

  1881. Codec ID/Info : UTF-8 Plain Text

  1882. Duration : 1 h 33 min

  1883. Bit rate : 55 b/s

  1884. Count of elements : 1295

  1885. Stream size : 37.9 KiB (0%)

  1886. Title : Brazil

  1887. Language : Portuguese

  1888. Default : No

  1889. Forced : No

  1890. Text #19

  1891. ID : 112

  1892. Format : UTF-8

  1893. Codec ID : S_TEXT/UTF8

  1894. Codec ID/Info : UTF-8 Plain Text

  1895. Duration : 1 h 33 min

  1896. Bit rate : 55 b/s

  1897. Count of elements : 1290

  1898. Stream size : 38.3 KiB (0%)

  1899. Language : Portuguese

  1900. Default : No

  1901. Forced : No

  1902. Text #20

  1903. ID : 113

  1904. Format : UTF-8

  1905. Codec ID : S_TEXT/UTF8

  1906. Codec ID/Info : UTF-8 Plain Text

  1907. Duration : 1 h 33 min

  1908. Bit rate : 48 b/s

  1909. Count of elements : 912

  1910. Stream size : 33.2 KiB (0%)

  1911. Language : Swedish

  1912. Default : No

  1913. Forced : No

  1914. Text #21

  1915. ID : 114

  1916. Format : UTF-8

  1917. Codec ID : S_TEXT/UTF8

  1918. Codec ID/Info : UTF-8 Plain Text

  1919. Duration : 1 h 33 min

  1920. Bit rate : 51 b/s

  1921. Count of elements : 1320

  1922. Stream size : 34.9 KiB (0%)

  1923. Title : Simplified

  1924. Language : Chinese

  1925. Default : No

  1926. Forced : No

  1927. Text #22

  1928. ID : 115

  1929. Format : UTF-8

  1930. Codec ID : S_TEXT/UTF8

  1931. Codec ID/Info : UTF-8 Plain Text

  1932. Duration : 1 h 33 min

  1933. Bit rate : 45 b/s

  1934. Count of elements : 1315

  1935. Stream size : 31.4 KiB (0%)

  1936. Title : Traditional

  1937. Language : Chinese

  1938. Default : No

  1939. Forced : No

  1940. Text #23

  1941. ID : 116

  1942. Format : UTF-8

  1943. Codec ID : S_TEXT/UTF8

  1944. Codec ID/Info : UTF-8 Plain Text

  1945. Duration : 1 h 33 min

  1946. Bit rate : 43 b/s

  1947. Count of elements : 1304

  1948. Stream size : 29.7 KiB (0%)

  1949. Title : Traditional, Hong Kong

  1950. Language : Chinese

  1951. Default : No

  1952. Forced : No


复制代码


文件下载


除非特别注明,本文『夏日友晴天[国英日韩多音轨/简繁英字幕].Luca.2021.2160p.HDR.DSNP.WEB-DL.H.265.DDP5.1.Atmos-HDBWEB 22.16GB』来源于互联网机器人自动抓取,非本站原创。 浮游电影网不对本文拥有版权,如有侵犯,请联系邮箱:fuyouu#yandex.com[#换成@]投诉。我们会在15个工作日内删除。 但烦请转载时请标明出处:“本文转载于『浮游电影网』,原文地址:https://www.fuyouu.com/22522.html

评论吧骚年!

发表你的见解   

昵称*

E-mail*(建议输入,以便收到博主回复的提示邮件)

验证码*

您可以使用eMule或eMule Mod(Windows)、aMule(Win、Linux、Mac)等软件下载eD2k链接。。
eMule收藏集(.emulecollection)文件是您选中的所有链接的列表文件。eMule可以直接下载它们。
按住SHIFT键选择可以选中多个选择框。
可用文件名和大小选择器来选择文件。
文件名选择器帮您根据文件名称或后缀来选择文件。不分大小写。
符号使用:
和:空格( )、+
不包含:-
或:|
转义:一对英文引号("");
匹配开头:^
匹配结尾:$
例如:
选中所有名称中包含有“eMule”或“0.49c”字眼,但不包含有“exe”字眼的:emule|0.49c -exe
选中所有名称的开头是“eMule”,结尾是“0.49c”的:^emule 0.49c$
选中所有名称中带有“eMule 0.49c”的(必须是“eMule 0.49c”,中间没有别的字符,不能是“eMule fake 0.49c”),需要转义:"emule 0.49c"
大小选择器帮您根据文件大小选择文件。