当前位置: 首页 >> 海外电影 >> 玩火的女孩[共2部合集][中英字幕].The.Girl.Who.Played.with.Fire.2009.Extended.BluRay.1080p.x265.10bit-MiniHD 14.16G >> 正文

玩火的女孩[共2部合集][中英字幕].The.Girl.Who.Played.with.Fire.2009.Extended.BluRay.1080p.x265.10bit-MiniHD 14.16G

2022年06月13日 22:01:07     电影发布:来源于网络     电影分类:海外电影     评论(0)    

◎译 名 玩火的女孩 / The Girl Who Played with Fire

◎片 名 Flickan som lekte med elden

◎年 代 2009

◎产 地 瑞典 / 丹麦 / 德国 / 比利时

◎类 别 悬疑 / 惊悚 / 犯罪

◎语 言 瑞典语 / 英语 / 俄语

◎上映日期 2009-09-18(瑞典/丹麦) / 2010-01-21(德国)

◎IMDb链接 https://www.imdb.com/title/tt1216487/

◎豆瓣评分 6.8/10 (6348人评价)

◎豆瓣链接 https://movie.douban.com/subject/3218765/

◎片 长 129分钟

◎导 演 丹尼尔·阿尔弗雷德森 Daniel Alfredson (id:1018252)

◎编 剧 斯蒂格·拉赫松 Stieg Larsson (id:1022719)

乌尔夫·吕贝里 Ulf Ryberg (id:1296393)

◎演 员 迈克尔·恩奎斯特 Michael Nyqvist (id:1041155)

劳米·拉佩斯 Noomi Rapace (id:1013796)

乔根·贝塔吉 J?rgen Berthage (id:1252357)

Hans Christian Thulin (id:1225672)

特希拉·布拉德 Tehilla Blad (id:1255630)

索菲亚·德拉普 Sofia Ledarp (id:1183756)

Ola Wahlstr?m Ola Wahlstr?m (id:1166406)

Georgi Staykov Georgi Staykov (id:1151902)

Paolo Roberto Paolo Roberto (id:1141852)

Reuben Sallmander Reuben Sallmander (id:1138563)

Tanja Lorentzon (id:1225917)

马格努斯·克雷佩 Magnus Krepper (id:1109069)

帕尔·奥斯卡森 Per Oscarsson (id:1007212)

莱娜·恩卓 Lena Endre (id:1009453)

雅各布·埃里克松 Jacob Ericksson (id:1014481)

拉夫·卡尔松 Ralph Carlsson (id:1032962)

彼得·安德森 Peter Andersson (id:1056229)

Sven Ahlstr?m Sven Ahlstr?m (id:1058428)

Anders Ahlbom Anders Ahlbom (id:1059954)

Niklas Hjulstr?m Niklas Hjulstr?m (id:1097452)

米凯利斯·库佐吉亚纳基斯 Michalis Koutsogiannakis (id:1102767)

Donald H?gberg Donald H?gberg (id:1107353)

安妮卡·哈林 Annika Hallin (id:1005109)

Jon Mankell Jon Mankell (id:1030095)

Jacob Groth Jacob Groth (id:1285546)

彼德·莫克罗辛斯基 Peter Mokrosinski (id:1292305)

Tusse Lande Tusse Lande (id:1110328)

洛维·拉森 Love Larson (id:1207898)

Linus Lindbalk (id:1228971)

◎简 介

米克·布卢姆科斯特(Michael Nyqvist 饰)是千禧年报社的一名记者,他正就东欧雏妓贩卖的问题展开调查。然而随着调查的深入,他的助手道格及其女友被人残忍杀害。根据现场遗留下的指纹,所有的指控都指向了丽莎贝丝·萨兰德(劳米·拉佩斯 Noomi Rapace 饰)。不久,萨兰德的最新监护人尼尔斯·彼尤曼律师(Peter Andersson 饰)亦在寓所被人杀害。经过一段时间的环球旅行,萨兰德刚刚回到瑞典,等待她的却是一系列莫名的指控和追捕。究竟是谁策划了这一系列的谋杀?又为什么将罪名都转嫁到萨兰德的身上?所有的一切背后又隐藏着怎样的阴谋?

本片根据瑞典小说家斯蒂格·拉尔松(Stieg Larsson)的原著改编。

◎获奖情况 (共1项)

第23届欧洲电影奖 (2010)

观众选择奖(提名)

  1. 合集文件列表:

  2. 1.The.Girl.Who.Played.with.Fire.Part.I.2009.Extended.BluRay.1080p.x265.10bit-MiniHD.mkv 6.70GB

  3. 2.The.Girl.Who.Played.with.Fire.Part.II.2009.Extended.BluRay.1080p.x265.10bit-MiniHD.mkv 7.45GB


复制代码

  1. ##### MediaInfo ######

  2. General

  3. Unique ID : 223001150291381247606270341239664055440 (0xA7C475948C0686BF8034AD3CB6689490)

  4. Complete name : The.Girl.Who.Played.with.Fire.Part.I.2009.Extended.BluRay.1080p.x265.10bit-MiniHD.mkv

  5. Format : Matroska

  6. Format version : Version 4

  7. File size : 6.70 GiB

  8. Duration : 1 h 33 min

  9. Overall bit rate : 10.3 Mb/s

  10. Encoded date : UTC 2017-09-24 12:04:11

  11. Writing application : mkvmerge v11.0.0 ('Alive') 64bit

  12. Writing library : libebml v1.3.4 + libmatroska v1.4.5

  13. Video

  14. ID : 1

  15. Format : HEVC

  16. Format/Info : High Efficiency Video Coding

  17. Codec ID : V_MPEGH/ISO/HEVC

  18. Duration : 1 h 33 min

  19. Bit rate : 9 632 kb/s

  20. Width : 1 920 pixels

  21. Height : 1 080 pixels

  22. Display aspect ratio : 16:9

  23. Frame rate mode : Constant

  24. Frame rate : 23.976 (24000/1001/53354) FPS

  25. Bits/(Pixel*Frame) : 0.194

  26. Stream size : 6.27 GiB (94%)

  27. Default : Yes

  28. Forced : No

  29. Audio

  30. ID : 2

  31. Format : AC-3

  32. Format/Info : Audio Coding 3

  33. Commercial name : Dolby Digital

  34. Codec ID : A_AC3

  35. Duration : 1 h 33 min

  36. Bit rate mode : Constant

  37. Bit rate : 448 kb/s

  38. Channel(s) : 6 channels

  39. Channel layout : L R C LFE Ls Rs

  40. Sampling rate : 48.0 kHz

  41. Frame rate : 31.250 FPS (1536 SPF)

  42. Compression mode : Lossy

  43. Stream size : 299 MiB (4%)

  44. Language : Swedish

  45. Service kind : Complete Main

  46. Default : Yes

  47. Forced : No

  48. Text #1

  49. ID : 3

  50. Format : PGS

  51. Muxing mode : zlib

  52. Codec ID : S_HDMV/PGS

  53. Codec ID/Info : Picture based subtitle format used on BDs/HD-DVDs

  54. Language : English

  55. Default : Yes

  56. Forced : No

  57. Text #2

  58. ID : 4

  59. Format : PGS

  60. Muxing mode : zlib

  61. Codec ID : S_HDMV/PGS

  62. Codec ID/Info : Picture based subtitle format used on BDs/HD-DVDs

  63. Language : Chinese

  64. Default : No

  65. Forced : No

  66. Text #3

  67. ID : 5

  68. Format : PGS

  69. Muxing mode : zlib

  70. Codec ID : S_HDMV/PGS

  71. Codec ID/Info : Picture based subtitle format used on BDs/HD-DVDs

  72. Language : Chinese

  73. Default : No

  74. Forced : No

  75. Menu

  76. 00:00:00.000 : en:Chapter 01

  77. 00:04:18.716 : en:Chapter 02

  78. 00:10:19.952 : en:Chapter 03

  79. 00:17:27.212 : en:Chapter 04

  80. 00:23:29.866 : en:Chapter 05

  81. 00:33:15.284 : en:Chapter 06

  82. 00:43:10.087 : en:Chapter 07

  83. 00:52:19.553 : en:Chapter 08

  84. 01:02:24.866 : en:Chapter 09

  85. 01:11:37.418 : en:Chapter 10

  86. 01:21:41.313 : en:Chapter 11

  87. 01:32:42.014 : en:Chapter 12


复制代码



文件下载


除非特别注明,本文『玩火的女孩[共2部合集][中英字幕].The.Girl.Who.Played.with.Fire.2009.Extended.BluRay.1080p.x265.10bit-MiniHD 14.16G』来源于互联网机器人自动抓取,非本站原创。 浮游电影网不对本文拥有版权,如有侵犯,请联系邮箱:fuyouu#yandex.com[#换成@]投诉。我们会在15个工作日内删除。 但烦请转载时请标明出处:“本文转载于『浮游电影网』,原文地址:https://www.fuyouu.com/22518.html

评论吧骚年!

发表你的见解   

昵称*

E-mail*(建议输入,以便收到博主回复的提示邮件)

验证码*

您可以使用eMule或eMule Mod(Windows)、aMule(Win、Linux、Mac)等软件下载eD2k链接。。
eMule收藏集(.emulecollection)文件是您选中的所有链接的列表文件。eMule可以直接下载它们。
按住SHIFT键选择可以选中多个选择框。
可用文件名和大小选择器来选择文件。
文件名选择器帮您根据文件名称或后缀来选择文件。不分大小写。
符号使用:
和:空格( )、+
不包含:-
或:|
转义:一对英文引号("");
匹配开头:^
匹配结尾:$
例如:
选中所有名称中包含有“eMule”或“0.49c”字眼,但不包含有“exe”字眼的:emule|0.49c -exe
选中所有名称的开头是“eMule”,结尾是“0.49c”的:^emule 0.49c$
选中所有名称中带有“eMule 0.49c”的(必须是“eMule 0.49c”,中间没有别的字符,不能是“eMule fake 0.49c”),需要转义:"emule 0.49c"
大小选择器帮您根据文件大小选择文件。