当前位置: 首页 >> 欧美电影 >> 大河恋[简繁英字幕].A.River.Runs.Through.It.1992.2160p.HDR.UHD.BluRay.DTS-HD.MA.5.1.x265-10bit-ENTHD 16.70GB >> 正文

大河恋[简繁英字幕].A.River.Runs.Through.It.1992.2160p.HDR.UHD.BluRay.DTS-HD.MA.5.1.x265-10bit-ENTHD 16.70GB

2022年06月06日 23:32:50     电影发布:来源于网络     电影分类:欧美电影     评论(0)    

◎译 名 大河恋 / 川流岁月(港) / 大河之恋 / 一条贯穿的大河 / 一条奔腾而过的河流

◎片 名 A River Runs Through It

◎年 代 1992

◎产 地 美国

◎类 别 剧情 / 家庭

◎语 言 英语

◎上映日期 1992-10-09(美国)

◎IMDb链接 https://www.imdb.com/title/tt0105265/

◎豆瓣评分 8.5/10 (69868人评价)

◎豆瓣链接 https://movie.douban.com/subject/1292718/

◎片 长 123分钟

◎导 演 罗伯特·雷德福 Robert Redford (id:1053617)

◎编 剧 理查德·弗雷登伯格 Richard Friedenberg (id:1284207)

诺曼·麦克莱恩 Norman Maclean (id:1014407)

◎演 员 克莱格·谢佛 Craig Sheffer (id:1048157)

布拉德·皮特 Brad Pitt (id:1054452)

汤姆·斯凯里特 Tom Skerritt (id:1049603)

布兰达·布莱斯 Brenda Blethyn (id:1032036)

艾米丽·劳伊德 Emily Lloyd (id:1027369)

伊迪·麦克勒格 Edie McClurg (id:1114886)

斯蒂芬·谢伦 Stephen Shellen (id:1146519)

妮科尔·伯德特 Nicole Burdette (id:1343031)

苏珊·特雷勒 Susan Traylor (id:1276527)

迈克尔·库立兹 Michael Cudlitz (id:1013916)

罗布·考克斯 Rob Cox (id:1075756)

弗雷德·奥克兰 Fred Oakland (id:1137339)

麦金太尔·狄克逊 MacIntyre Dixon (id:1082111)

威廉·胡特金斯 William Hootkins (id:1010721)

杰斯·施维德 Jess Schwidde (id:1138036)

约瑟夫·高登-莱维特 Joseph Gordon-Levitt (id:1101703)

罗伯特·雷德福 Robert Redford (id:1053617)

帕特里克·马基 Patrick Markey (id:1291017)

菲利普·鲁斯洛特 Philippe Rousselot (id:1050316)

琳齐·克林曼 Lynzee Klingman (id:1288719)

乔恩·赫特曼 Jon Hutman (id:1287219)

琼·安·布兰克 Jean Ann Black (id:1278717)

邦尼·帕克尔 Bunny Parker (id:1293970)

安妮·摩根 Anne Morgan (id:1292487)

Paul Ryan Paul Ryan (id:1296386)

Steve Perry Steve Perry (id:1294334)

帕特里克·马基 Patrick Markey (id:1291017)

◎简 介

两兄弟经常跟父亲一起钓鱼。潺潺河水,静静午后,成了父子间最难忘的时刻。父亲是一个老牧师,常常在镇上布道,大儿子诺曼(克莱格?谢佛 Craig Sheffer 饰)正是继承了父亲的事业——他擅长讲课,大学毕业后回到家乡传道授业。小儿子保罗(布拉德?皮特 Brad Pitt 饰)却有着迥异的性格——他热爱自由,有一套奇特的钓鱼方法。然而,令人担心的是他迷上了赌博,并因此欠钱遭打。

诺曼结婚后收到一封芝加哥大学的聘用书,他离家前往芝加哥之前,和父亲、弟弟一同在大河边再次享受钓鱼时光。他劝保罗跟他一起离开这里,然而保罗痴迷钓鱼,不愿离去。怎料,这竟是最后的相聚。

◎获奖情况 (共4项)

第65届奥斯卡金像奖 (1993)

最佳改编剧本(提名)

└──理查德·弗雷登伯格 (id:1284207)

最佳摄影

└──菲利普·鲁斯洛特 (id:1050316)

最佳原创配乐(提名)

└──马克·艾沙姆 (id:1050293)

第50届金球奖 (1993)

电影类 最佳导演(提名)

└──罗伯特·雷德福 (id:1053617)

  1. ##### MediaInfo ######

  2. General

  3. Unique ID : 141234925142658411597913607221541758142 (0x6A40DB6E598931C919972D7CF94E64BE)

  4. Complete name : A.River.Runs.Through.It.1992.2160p.HDR.UHD.BluRay.DTS-HD.MA.5.1.x265-10bit-ENTHD.mkv

  5. Format : Matroska

  6. Format version : Version 4

  7. File size : 16.7 GiB

  8. Duration : 2 h 3 min

  9. Overall bit rate mode : Variable

  10. Overall bit rate : 19.4 Mb/s

  11. Movie name : A River Runs Through It 1992 2160p HDR UHD BluRay DTS-HD MA 5.1 x265-10bit-HDS

  12. Encoded date : UTC 2022-06-06 00:35:08

  13. Writing application : mkvmerge v67.0.0 ('Under Stars') 64-bit

  14. Writing library : libebml v1.4.2 + libmatroska v1.6.4

  15. Video

  16. ID : 1

  17. Format : HEVC

  18. Format/Info : High Efficiency Video Coding

  19. Format profile : Main [email protected]@High

  20. HDR format : SMPTE ST 2086, HDR10 compatible

  21. Codec ID : V_MPEGH/ISO/HEVC

  22. Duration : 2 h 3 min

  23. Bit rate : 17.5 Mb/s

  24. Width : 3 840 pixels

  25. Height : 2 072 pixels

  26. Display aspect ratio : 1.85:1

  27. Frame rate mode : Constant

  28. Frame rate : 24.000 FPS

  29. Color space : YUV

  30. Chroma subsampling : 4:2:0

  31. Bit depth : 10 bits

  32. Bits/(Pixel*Frame) : 0.092

  33. Stream size : 15.1 GiB (90%)

  34. Title : @HDSky

  35. Writing library : x265 - H.265/HEVC codec

  36. Default : Yes

  37. Forced : No

  38. Color range : Limited

  39. Color primaries : BT.2020

  40. Transfer characteristics : PQ

  41. Matrix coefficients : BT.2020 non-constant

  42. Mastering display color primaries : Display P3

  43. Mastering display luminance : min: 0.0001 cd/m2, max: 1000 cd/m2

  44. Maximum Content Light Level : 2163 cd/m2

  45. Maximum Frame-Average Light Level : 567 cd/m2

  46. Audio

  47. ID : 2

  48. Format : DTS XLL

  49. Format/Info : Digital Theater Systems

  50. Commercial name : DTS-HD Master Audio

  51. Codec ID : A_DTS

  52. Duration : 2 h 3 min

  53. Bit rate mode : Variable

  54. Bit rate : 1 763 kb/s

  55. Channel(s) : 6 channels

  56. Channel layout : C L R Ls Rs LFE

  57. Sampling rate : 48.0 kHz

  58. Frame rate : 93.750 FPS (512 SPF)

  59. Bit depth : 16 bits

  60. Compression mode : Lossless

  61. Stream size : 1.52 GiB (9%)

  62. Title : English

  63. Language : English

  64. Default : Yes

  65. Forced : No

  66. Text #1

  67. ID : 3

  68. Format : PGS

  69. Muxing mode : zlib

  70. Codec ID : S_HDMV/PGS

  71. Codec ID/Info : Picture based subtitle format used on BDs/HD-DVDs

  72. Duration : 1 h 58 min

  73. Bit rate : 26.6 kb/s

  74. Count of elements : 1772

  75. Stream size : 22.6 MiB (0%)

  76. Title : ENG

  77. Language : English

  78. Default : Yes

  79. Forced : No

  80. Text #2

  81. ID : 4

  82. Format : PGS

  83. Muxing mode : zlib

  84. Codec ID : S_HDMV/PGS

  85. Codec ID/Info : Picture based subtitle format used on BDs/HD-DVDs

  86. Duration : 1 h 58 min

  87. Bit rate : 26.1 kb/s

  88. Count of elements : 2606

  89. Stream size : 22.1 MiB (0%)

  90. Title : CHS

  91. Language : Chinese

  92. Default : Yes

  93. Forced : No

  94. Text #3

  95. ID : 5

  96. Format : PGS

  97. Muxing mode : zlib

  98. Codec ID : S_HDMV/PGS

  99. Codec ID/Info : Picture based subtitle format used on BDs/HD-DVDs

  100. Duration : 1 h 58 min

  101. Bit rate : 26.8 kb/s

  102. Count of elements : 2606

  103. Stream size : 22.7 MiB (0%)

  104. Title : CHT

  105. Language : Chinese

  106. Default : Yes

  107. Forced : No

  108. Text #4

  109. ID : 6

  110. Format : PGS

  111. Muxing mode : zlib

  112. Codec ID : S_HDMV/PGS

  113. Codec ID/Info : Picture based subtitle format used on BDs/HD-DVDs

  114. Duration : 1 h 58 min

  115. Bit rate : 42.3 kb/s

  116. Count of elements : 2700

  117. Stream size : 35.9 MiB (0%)

  118. Title : CHS&ENG

  119. Language : Chinese

  120. Default : Yes

  121. Forced : No

  122. Text #5

  123. ID : 7

  124. Format : PGS

  125. Muxing mode : zlib

  126. Codec ID : S_HDMV/PGS

  127. Codec ID/Info : Picture based subtitle format used on BDs/HD-DVDs

  128. Duration : 1 h 58 min

  129. Bit rate : 42.9 kb/s

  130. Count of elements : 2700

  131. Stream size : 36.4 MiB (0%)

  132. Title : CHT&ENG

  133. Language : Chinese

  134. Default : Yes

  135. Forced : No

  136. Menu

  137. 00:00:00.000 : en:第 01 章

  138. 00:09:01.750 : en:第 02 章

  139. 00:22:24.415 : en:第 03 章

  140. 00:35:59.208 : en:第 04 章

  141. 00:48:43.083 : en:第 05 章

  142. 01:03:16.791 : en:第 06 章

  143. 01:10:51.373 : en:第 07 章

  144. 01:18:01.582 : en:第 08 章

  145. 01:27:37.792 : en:第 09 章

  146. 01:40:21.123 : en:第 10 章

  147. 01:52:25.623 : en:第 11 章

  148. 01:59:29.707 : en:第 12 章


复制代码



文件下载


除非特别注明,本文『大河恋[简繁英字幕].A.River.Runs.Through.It.1992.2160p.HDR.UHD.BluRay.DTS-HD.MA.5.1.x265-10bit-ENTHD 16.70GB』来源于互联网机器人自动抓取,非本站原创。 浮游电影网不对本文拥有版权,如有侵犯,请联系邮箱:fuyouu#yandex.com[#换成@]投诉。我们会在15个工作日内删除。 但烦请转载时请标明出处:“本文转载于『浮游电影网』,原文地址:https://www.fuyouu.com/22512.html

评论吧骚年!

发表你的见解   

昵称*

E-mail*(建议输入,以便收到博主回复的提示邮件)

验证码*

您可以使用eMule或eMule Mod(Windows)、aMule(Win、Linux、Mac)等软件下载eD2k链接。。
eMule收藏集(.emulecollection)文件是您选中的所有链接的列表文件。eMule可以直接下载它们。
按住SHIFT键选择可以选中多个选择框。
可用文件名和大小选择器来选择文件。
文件名选择器帮您根据文件名称或后缀来选择文件。不分大小写。
符号使用:
和:空格( )、+
不包含:-
或:|
转义:一对英文引号("");
匹配开头:^
匹配结尾:$
例如:
选中所有名称中包含有“eMule”或“0.49c”字眼,但不包含有“exe”字眼的:emule|0.49c -exe
选中所有名称的开头是“eMule”,结尾是“0.49c”的:^emule 0.49c$
选中所有名称中带有“eMule 0.49c”的(必须是“eMule 0.49c”,中间没有别的字符,不能是“eMule fake 0.49c”),需要转义:"emule 0.49c"
大小选择器帮您根据文件大小选择文件。