当前位置: 首页 >> 欧美电影 >> 惩罚者[共2部合集][简繁英字幕].The.Punisher.1-2.2004-2008.BluRay.1080p.TrueHD.5.1.x265.10bit-ALT 15.12GB >> 正文

惩罚者[共2部合集][简繁英字幕].The.Punisher.1-2.2004-2008.BluRay.1080p.TrueHD.5.1.x265.10bit-ALT 15.12GB

2022年06月05日 22:35:01     电影发布:来源于网络     电影分类:欧美电影     评论(0)    

◎译 名 惩罚者 / 神鬼制裁(台) / 制裁者

◎片 名 The Punisher

◎年 代 2004

◎产 地 美国 / 德国

◎类 别 剧情 / 动作 / 惊悚 / 犯罪

◎语 言 英语

◎上映日期 2004-04-16(美国)

◎IMDb链接 https://www.imdb.com/title/tt0330793/

◎豆瓣评分 6.5/10 (16012人评价)

◎豆瓣链接 https://movie.douban.com/subject/1305686/

◎片 长 124分钟

◎导 演 乔纳森·汉斯雷 Jonathan Hensleigh (id:1286460)

◎编 剧 乔纳森·汉斯雷 Jonathan Hensleigh (id:1286460)

迈克尔·弗朗斯 Michael France (id:1284080)

◎演 员 托马斯·简 Thomas Jane (id:1031816)

约翰·特拉沃尔塔 John Travolta (id:1054426)

威尔·帕顿 Will Patton (id:1019066)

丽贝卡·罗梅恩 Rebecca Romijn (id:1040527)

本·福斯特 Ben Foster (id:1040512)

Marcus Johns (id:1222270)

Kassie Spielman (id:1227842)

Heather Trzyna (id:1229284)

Charleene Closshey (id:1258429)

埃迪·杰米森 Eddie Jemison (id:1287666)

劳拉·哈灵 Laura Harring (id:1031883)

马特·托蒂 Matt Totty (id:1349054)

John Lynch John Lynch (id:1218665)

Vincent Lecavalier Vincent Lecavalier (id:1199044)

詹姆斯·卡佩内罗 James Carpinello (id:1022778)

John Baker John Baker (id:1210574)

Darla Delgado Darla Delgado (id:1205328)

Russell Hess Russell Hess (id:1203497)

吉姆·麦司奇门 Jim Meskimen (id:1055696)

萨曼莎·玛西丝 Samantha Mathis (id:1048132)

马科·圣约翰 Marco St. John (id:1045298)

罗伊·谢德 Roy Scheider (id:1041132)

艾杜亚多·雅内兹 Eduardo Yá?ez (id:1027493)

Mark Collie Mark Collie (id:1074200)

杰夫·蔡斯 Jeff Chase (id:1076111)

Hatcher Flaschen Hatcher Flaschen (id:1186199)

Jillian Kinsman Jillian Kinsman (id:1177218)

Yamil Piedra Yamil Piedra (id:1175427)

Walter Medina Walter Medina (id:1173229)

迈克尔·里尔登 Michael Reardon (id:1139680)

John Pinette John Pinette (id:1134656)

尼克·罗兰 Nick Loren (id:1120203)

马克·麦考利 Marc Macaulay (id:1116920)

Michael Thomas Dunn Michael Thomas Dunn (id:1089037)

Russell Durham Comegys Russell Durham Comegys (id:1085896)

凯文·纳什 Kevin Nash (id:1010684)

盖尔·安妮·赫德 Gale Anne Hurd (id:1040812)

斯坦·李 Stan Lee (id:1013888)

克里斯·罗伯茨 Chris Roberts (id:1147018)

约翰·H·斯塔克 John H. Starke (id:1298278)

卡尔洛·西利奥托 Carlo Siliotto (id:1016956)

康拉德·W·霍尔 Conrad W. Hall (id:1041863)

史蒂夫·肯珀 Steven Kemper (id:1288378)

Pam Dixon Pam Dixon (id:1282494)

Michael Z. Hanan Michael Z. Hanan (id:1094137)

约翰·德克斯特 John Dexter (id:1282341)

马修·W.蒙格儿 Matthew W. Mungle (id:1131227)

米歇尔·布勒 Michelle Bühler (id:1279844)

约兰达·塔辛 Yolanda Toussieng (id:1299453)

Michele Baylis Michele Baylis (id:1278127)

大卫·萨迪 David Sardi (id:1296704)

加里·海姆斯 Gary Hymes (id:1287237)

Christian Clarke Christian Clarke (id:1051738)

Carl Beyer Carl Beyer (id:1011923)

Gene Warren III Gene Warren III (id:1013356)

Andrew Shuford Andrew Shuford (id:1187488)

托尼·马加莱塔 Tony Magaletta (id:1124827)

小吉恩·沃伦 Gene Warren Jr. (id:1300455)

◎简 介

弗兰克·卡斯特(托马斯·简 Thomas Jane 饰)的生命中,绝大部分时间都在于死神赛跑。早年在海军陆战队服役,退役后又进入FBI。在枪炮火光中生活了多年之后,弗兰克不愿再整日收到死亡的威胁,家人整日为他担惊受怕。所以,他决定提前退休与妻儿享受平静的生活。可是,在最后的一次任务中,却因意外使一名无辜青年死亡。而这名青年的父亲却是坦帕市的大富商霍华德·桑特(约翰·特拉沃塔 John Travolta 饰)。为了给儿子报仇,霍华德向黑市发出了对弗兰克一家的绞杀令。不过弗兰克却侥幸在这场浩劫中存活下来。为了报仇,弗兰克不再寄望于法制,而是全副武装向霍华德发起挑战。面对霍华德组建的私人军队,弗兰克凭一己之力将如何应对?

  1. 合集文件列表:

  2. 1.Punisher.War.Zone.2008.BluRay.1080p.AC3.x265.10bit-ALT.mkv 6.15GB

  3. 2.The.Punisher.2004.BluRay.1080p.TrueHD.5.1.x265.10bit-ALT.mkv 8.97GB


复制代码

  1. ##### MediaInfo ######

  2. General

  3. Unique ID : 68369475778042742082443252176167041172 (0x336F7B68D3FAC8A5C80233F49622F894)

  4. Complete name : Punisher.War.Zone.2008.BluRay.1080p.AC3.x265.10bit-ALT.mkv

  5. Format : Matroska

  6. Format version : Version 4

  7. File size : 6.15 GiB

  8. Duration : 1 h 42 min

  9. Overall bit rate : 8 568 kb/s

  10. Encoded date : UTC 2020-07-07 04:41:02

  11. Writing application : mkvmerge v48.0.0 ('Fortress Around Your Heart') 64-bit

  12. Writing library : libebml v1.4.0 + libmatroska v1.6.0

  13. Video

  14. ID : 1

  15. Format : HEVC

  16. Format/Info : High Efficiency Video Coding

  17. Format profile : Main [email protected]@High

  18. Codec ID : V_MPEGH/ISO/HEVC

  19. Duration : 1 h 42 min

  20. Bit rate : 7 877 kb/s

  21. Width : 1 920 pixels

  22. Height : 800 pixels

  23. Display aspect ratio : 2.40:1

  24. Frame rate mode : Constant

  25. Frame rate : 23.976 (24000/1001/53354) FPS

  26. Color space : YUV

  27. Chroma subsampling : 4:2:0

  28. Bit depth : 10 bits

  29. Bits/(Pixel*Frame) : 0.214

  30. Stream size : 5.65 GiB (92%)

  31. Title : HEVC, [email protected]@High, 24/1.001 fps @ 7876 kbps

  32. Writing library : x265 3.3+1-g396395b2b:[Windows][GCC 9.2.0][64 bit] 10bit

  33. Encoding settings : cpuid=533541111039 / frame-threads=4 / numa-pools=16 / wpp / pmode / pme / no-psnr / no-ssim / log-level=2 / input-csp=1 / input-res=1920x800 / interlace=0 / total-frames=147740 / level-idc=51 / high-tier=1 / uhd-bd=0 / ref=5 / no-allow-non-conformance / no-repeat-headers / annexb / no-aud / no-hrd / info / hash=0 / no-temporal-layers / open-gop / min-keyint=24 / keyint=240 / gop-lookahead=0 / bframes=6 / b-adapt=2 / b-pyramid / bframe-bias=0 / rc-lookahead=40 / lookahead-slices=0 / NTMzNTQ=uuDQuD2mJt9fsCf / scenecut=40 / hist-scenecut=0 / radl=0 / no-splice / no-intra-refresh / ctu=32 / min-cu-size=8 / no-rect / no-amp / max-tu-size=32 / tu-inter-depth=3 / tu-intra-depth=3 / limit-tu=4 / rdoq-level=2 / dynamic-rd=0.00 / no-ssim-rd / signhide / no-tskip / nr-intra=0 / nr-inter=0 / no-constrained-intra / no-strong-intra-smoothing / max-merge=4 / limit-refs=1 / limit-modes / me=3 / subme=4 / merange=25 / temporal-mvp / no-frame-dup / no-hme / weightp / weightb / no-analyze-src-pics / deblock=-3:-3 / no-sao / no-sao-non-deblock / rd=6 / selective-sao=0 / no-early-skip / rskip / no-fast-intra / no-tskip-fast / no-cu-lossless / b-intra / no-splitrd-skip / rdpenalty=0 / psy-rd=2.00 / psy-rdoq=1.00 / no-rd-refine / no-lossless / cbqpoffs=0 / crqpoffs=0 / rc=crf / crf=18.5 / qcomp=0.65 / qpstep=4 / stats-write=0 / stats-read=0 / vbv-maxrate=80000 / vbv-bufsize=80000 / vbv-init=0.9 / crf-max=0.0 / crf-min=0.0 / ipratio=1.40 / pbratio=1.30 / aq-mode=2 / aq-strength=0.85 / cutree / zone-count=0 / no-strict-cbr / qg-size=32 / no-rc-grain / qpmax=69 / qpmin=0 / no-const-vbv / sar=1 / overscan=0 / videoformat=5 / range=0 / colorprim=1 / transfer=1 / colormatrix=1 / chromaloc=0 / display-window=0 / cll=0,0 / min-luma=0 / max-luma=1023 / log2-max-poc-lsb=8 / vui-timing-info / vui-hrd-info / slices=1 / no-opt-qp-pps / no-opt-ref-list-length-pps / no-multi-pass-opt-rps / scenecut-bias=0.05 / hist-threshold=0.01 / no-opt-cu-delta-qp / no-aq-motion / no-hdr10 / no-hdr10-opt / no-dhdr10-opt / no-idr-recovery-sei / analysis-reuse-level=0 / analysis-save-reuse-level=0 / analysis-load-reuse-level=0 / scale-factor=0 / refine-intra=0 / refine-inter=0 / refine-mv=1 / refine-ctu-distortion=0 / no-limit-sao / ctu-info=0 / no-lowpass-dct / refine-analysis-type=0 / copy-pic=1 / max-ausize-factor=1.0 / no-dynamic-refine / no-single-sei / no-hevc-aq / no-svt / no-field / qp-adaptation-range=1.00 / no-scenecut-aware-qpconformance-window-offsets / right=0 / bottom=0 / NTMzNTQ=

  34. Language : English

  35. Default : Yes

  36. Forced : No

  37. Color range : Limited

  38. Color primaries : BT.709

  39. Transfer characteristics : BT.709

  40. Matrix coefficients : BT.709

  41. Audio

  42. ID : 2

  43. Format : AC-3

  44. Format/Info : Audio Coding 3

  45. Commercial name : Dolby Digital

  46. Codec ID : A_AC3

  47. Duration : 1 h 42 min

  48. Bit rate mode : Constant

  49. Bit rate : 640 kb/s

  50. Channel(s) : 6 channels

  51. Channel layout : L R C LFE Ls Rs

  52. Sampling rate : 48.0 kHz

  53. Frame rate : 31.250 FPS (1536 SPF)

  54. Compression mode : Lossy

  55. Stream size : 470 MiB (7%)

  56. Title : English Dolby Digital Audio 5.1 @ 640 kbps

  57. Language : English

  58. Service kind : Complete Main

  59. Default : Yes

  60. Forced : No

  61. Text #1

  62. ID : 3

  63. Format : PGS

  64. Codec ID : S_HDMV/PGS

  65. Codec ID/Info : Picture based subtitle format used on BDs/HD-DVDs

  66. Duration : 1 h 34 min

  67. Bit rate : 18.4 kb/s

  68. Count of elements : 1874

  69. Stream size : 12.5 MiB (0%)

  70. Title : Eng/SUP

  71. Language : English

  72. Default : No

  73. Forced : No

  74. Text #2

  75. ID : 4

  76. Format : PGS

  77. Codec ID : S_HDMV/PGS

  78. Codec ID/Info : Picture based subtitle format used on BDs/HD-DVDs

  79. Duration : 1 h 34 min

  80. Bit rate : 17.2 kb/s

  81. Count of elements : 1876

  82. Stream size : 11.7 MiB (0%)

  83. Title : Chs/SUP 简体

  84. Language : Chinese

  85. Default : Yes

  86. Forced : No

  87. Text #3

  88. ID : 5

  89. Format : PGS

  90. Codec ID : S_HDMV/PGS

  91. Codec ID/Info : Picture based subtitle format used on BDs/HD-DVDs

  92. Duration : 1 h 34 min

  93. Bit rate : 18.0 kb/s

  94. Count of elements : 1876

  95. Stream size : 12.3 MiB (0%)

  96. Title : Cht/SUP 繁体

  97. Language : Chinese

  98. Default : No

  99. Forced : No

  100. Menu

  101. 00:00:00.000 : en:第 01 章

  102. 00:06:42.692 : en:第 02 章

  103. 00:16:04.004 : en:第 03 章

  104. 00:21:25.032 : en:第 04 章

  105. 00:25:33.781 : en:第 05 章

  106. 00:30:42.714 : en:第 06 章

  107. 00:35:35.298 : en:第 07 章

  108. 00:44:07.061 : en:第 08 章

  109. 00:52:04.246 : en:第 09 章

  110. 00:57:42.083 : en:第 10 章

  111. 01:05:14.409 : en:第 11 章

  112. 01:12:29.219 : en:第 12 章

  113. 01:20:22.734 : en:第 13 章

  114. 01:26:37.317 : en:第 14 章

  115. 01:28:34.516 : en:第 15 章

  116. 01:32:45.810 : en:第 16 章


复制代码



文件下载


除非特别注明,本文『惩罚者[共2部合集][简繁英字幕].The.Punisher.1-2.2004-2008.BluRay.1080p.TrueHD.5.1.x265.10bit-ALT 15.12GB』来源于互联网机器人自动抓取,非本站原创。 浮游电影网不对本文拥有版权,如有侵犯,请联系邮箱:fuyouu#yandex.com[#换成@]投诉。我们会在15个工作日内删除。 但烦请转载时请标明出处:“本文转载于『浮游电影网』,原文地址:https://www.fuyouu.com/22506.html

评论吧骚年!

发表你的见解   

昵称*

E-mail*(建议输入,以便收到博主回复的提示邮件)

验证码*

您可以使用eMule或eMule Mod(Windows)、aMule(Win、Linux、Mac)等软件下载eD2k链接。。
eMule收藏集(.emulecollection)文件是您选中的所有链接的列表文件。eMule可以直接下载它们。
按住SHIFT键选择可以选中多个选择框。
可用文件名和大小选择器来选择文件。
文件名选择器帮您根据文件名称或后缀来选择文件。不分大小写。
符号使用:
和:空格( )、+
不包含:-
或:|
转义:一对英文引号("");
匹配开头:^
匹配结尾:$
例如:
选中所有名称中包含有“eMule”或“0.49c”字眼,但不包含有“exe”字眼的:emule|0.49c -exe
选中所有名称的开头是“eMule”,结尾是“0.49c”的:^emule 0.49c$
选中所有名称中带有“eMule 0.49c”的(必须是“eMule 0.49c”,中间没有别的字符,不能是“eMule fake 0.49c”),需要转义:"emule 0.49c"
大小选择器帮您根据文件大小选择文件。