当前位置: 首页 >> 欧美电影 >> 镖客[共3部合集][繁英字幕].The.Man.With.No.Name.Trilogy.Collection.1964-1966.BluRay.1080p.DTS-HD.MA.5.1.x265.10 >> 正文

镖客[共3部合集][繁英字幕].The.Man.With.No.Name.Trilogy.Collection.1964-1966.BluRay.1080p.DTS-HD.MA.5.1.x265.10

2022年06月04日 23:29:05     电影发布:来源于网络     电影分类:欧美电影     评论(0)    

镖客[共3部合集][繁英字幕].The.Man.With.No.Name.Trilogy.Collection.1964-1966.BluRay.1080p.DTS-HD.MA.5.1.x265.10bit-ALT 44.12GB

◎译 名 荒野大镖客 / 为了几块钱 / A Fistful of Dollars / For a Fistful of Dollars

◎片 名 Per un pugno di dollari

◎年 代 1964

◎产 地 意大利 / 西班牙 / 西德

◎类 别 动作 / 西部

◎语 言 意大利语 / 西班牙语 / 英语

◎上映日期 1964-09-12(意大利)

◎IMDb链接 https://www.imdb.com/title/tt0058461/

◎豆瓣评分 8.4/10 (61610人评价)

◎豆瓣链接 https://movie.douban.com/subject/1302522/

◎片 长 99分钟

◎导 演 赛尔乔·莱昂内 Sergio Leone (id:1013894)

◎编 剧 赛尔乔·莱昂内 Sergio Leone (id:1013894)

克林特·伊斯特伍德 Clint Eastwood (id:1054436)

黑泽明 Akira Kurosawa (id:1054529)

菊岛隆三 Ry?z? Kikushima (id:1288522)

杜奇奥·泰萨利 Duccio Tessari (id:1028488)

托尼诺·瓦莱里 Tonino Valerii (id:1048427)

费尔南多·迪·莱沃 Fernando Di Leo (id:1016821)

◎演 员 克林特·伊斯特伍德 Clint Eastwood (id:1054436)

吉安·马里亚·沃隆特 Gian Maria Volonté (id:1000353)

沃尔夫冈·路卡西 Wolfgang Lukschy (id:1126154)

玛丽安妮·柯奇 Marianne Koch (id:1023074)

西戈德·拉普 Sieghardt Rupp (id:1145059)

约瑟夫·埃格 Joseph Egger (id:1089965)

何塞·卡尔沃 José Calvo (id:1073110)

玛加丽塔·洛扎诺 Margarita Lozano (id:1124520)

丹尼尔·马汀 Daniel Martín (id:1048492)

贝尼托·斯特凡内利 Benito Stefanelli (id:1150306)

马里奥·布雷加 Mario Brega (id:1079012)

布鲁诺·卡罗泰努托 Bruno Carotenuto (id:1078338)

阿尔多·桑布雷利 Aldo Sambrell (id:1032635)

哈利·戴恩·斯坦通 Harry Dean Stanton (id:1010582)

李·米勒 Lee Miller (id:1120794)

弗兰克·布拉尼亚 Frank Bra?a (id:1073765)

恩里科·玛丽亚·萨莱诺 Enrico Maria Salerno (id:1050622)

Luis Barboo Luis Barboo (id:1061732)

纳扎雷诺·纳塔莱 Nazzareno Natale (id:1136608)

José Riesgo José Riesgo (id:1148549)

何塞·奥哈斯 José Orjas (id:1131915)

Nosher Powell Nosher Powell (id:1133920)

翁贝托·斯帕达罗 Umberto Spadaro (id:1150053)

Fernando Sánchez Polack Fernando Sánchez Polack (id:1150663)

Antonio Vico Antonio Vico (id:1154461)

William R. Thompkins William R. Thompkins (id:1159064)

José Canalejas José Canalejas (id:1078818)

恩尼奥·莫里康内 Ennio Morricone (id:1044688)

马斯默·达拉马诺 Massimo Dallamano (id:1002940)

卡罗·斯密 Carlo Simi (id:1043001)

Sigfrido Burmann Sigfrido Burmann (id:1044112)

José Luis Pérez José Luis Pérez (id:1295024)

托尼诺·瓦莱里 Tonino Valerii (id:1048427)

马里奥·卡亚诺 Mario Caiano (id:1008153)

佛朗哥·吉拉尔迪 Franco Giraldi (id:1012861)

◎简 介

墨西哥边境小镇来了一位大镖客(克林特·伊斯特伍德 Clint Eastwood 饰),他得知镇上势不两立的两大帮派罗霍兄弟和镇长巴克斯特相厮杀已久,便决定与两派斡旋,除去镇上恶势力,恢复小镇的平静。他目击罗霍兄弟劫杀了一队士兵并私占黄金,于是利用两具士兵尸体吸引巴克斯特来寻找罗霍兄弟的罪证。同时,他又将消息透露给罗霍兄弟,导致双方展开了一场激烈枪战。乔在两派激战时找到了黄金,并发现被罗霍兄弟囚禁的女人玛利索,他将玛利索交给巴克斯特,换回了在激战中被捕获的儿子安东尼奥。但后来他得知玛利索是被罗霍家的雷蒙抢占,于是设法救出了她,帮助她与丈夫孩子一起逃出镇子。深爱着玛利索的雷蒙发现心爱的女人被放走,便认定是巴克斯特一家所为,于是展开了疯狂的报复。究竟两大帮派谁胜谁负,作为中间人的大镖客能否实现恢复小镇和平的计划?

  1. 合集文件列表:

  2. 1.A.Fistful.of.Dollars.1964.BluRay.1080p.DTS-HD.MA.5.1.x265.10bit-ALT.mkv 11.86GB

  3. 2.For.a.Few.Dollars.More.1965.BluRay.1080p.DTS-HD.MA.5.1.x265.10bit-ALT.mkv 17.62GB

  4. 3.The.Good,the.Ugly,the.Bad.1966.BluRay.1080p.DTS-HD.MA.5.1.x265.10bit-ALT.mkv 14.64GB


复制代码

  1. ##### MediaInfo ######

  2. General

  3. Unique ID : 84204307702630297013731755118436270858 (0x3F5928E65D695B085F559E0726ABC30A)

  4. Complete name : A.Fistful.of.Dollars.1964.BluRay.1080p.DTS-HD.MA.5.1.x265.10bit-ALT.mkv

  5. Format : Matroska

  6. Format version : Version 4

  7. File size : 11.9 GiB

  8. Duration : 1 h 40 min

  9. Overall bit rate mode : Variable

  10. Overall bit rate : 17.0 Mb/s

  11. Encoded date : UTC 2020-04-08 02:43:38

  12. Writing application : mkvmerge v45.0.0 ('Heaven in Pennies') 64-bit

  13. Writing library : libebml v1.3.10 + libmatroska v1.5.2

  14. Video

  15. ID : 1

  16. Format : HEVC

  17. Format/Info : High Efficiency Video Coding

  18. Format profile : Main [email protected]@High

  19. Codec ID : V_MPEGH/ISO/HEVC

  20. Duration : 1 h 40 min

  21. Bit rate : 14.2 Mb/s

  22. Width : 1 920 pixels

  23. Height : 816 pixels

  24. Display aspect ratio : 2.35:1

  25. Frame rate mode : Constant

  26. Frame rate : 23.976 (24000/1001/53354) FPS

  27. Color space : YUV

  28. Chroma subsampling : 4:2:0

  29. Bit depth : 10 bits

  30. Bits/(Pixel*Frame) : 0.378

  31. Stream size : 9.93 GiB (84%)

  32. Title : HEVC, x265M[email protected]@High, 24/1.001 fps @ 14200 kbps

  33. Writing library : x265 3.3+1-g396395b2b:[Windows][GCC 9.2.0][64 bit] 10bit

  34. Encoding settings : cpuid=533541111039 / frame-threads=5 / numa-pools=44,44 / wpp / pmode / pme / no-psnr / no-ssim / log-level=2 / input-csp=1 / input-res=1920x816 / interlace=0 / total-frames=143958 / level-idc=51 / high-tier=1 / uhd-bd=0 / ref=5 / no-allow-non-conformance / no-repeat-headers / annexb / no-aud / no-hrd / info / hash=0 / no-temporal-layers / open-gop / min-keyint=24 / keyint=240 / gop-lookahead=0 / bframes=6 / b-adapt=2 / b-pyramid / bframe-bias=0 / rc-lookahead=40 / lookahead-slices=0 / NTMzNTQ=uuDQuD2mJt9fsCf / scenecut=40 / hist-scenecut=0 / radl=0 / no-splice / no-intra-refresh / ctu=32 / min-cu-size=8 / no-rect / no-amp / max-tu-size=32 / tu-inter-depth=3 / tu-intra-depth=3 / limit-tu=4 / rdoq-level=2 / dynamic-rd=0.00 / no-ssim-rd / signhide / no-tskip / nr-intra=0 / nr-inter=0 / no-constrained-intra / no-strong-intra-smoothing / max-merge=4 / limit-refs=1 / limit-modes / me=3 / subme=4 / merange=25 / temporal-mvp / no-frame-dup / no-hme / weightp / weightb / no-analyze-src-pics / deblock=-3:-3 / no-sao / no-sao-non-deblock / rd=6 / selective-sao=0 / no-early-skip / rskip / no-fast-intra / no-tskip-fast / no-cu-lossless / b-intra / no-splitrd-skip / rdpenalty=0 / psy-rd=2.00 / psy-rdoq=1.00 / no-rd-refine / no-lossless / cbqpoffs=0 / crqpoffs=0 / rc=crf / crf=18.5 / qcomp=0.65 / qpstep=4 / stats-write=0 / stats-read=0 / vbv-maxrate=80000 / vbv-bufsize=80000 / vbv-init=0.9 / crf-max=0.0 / crf-min=0.0 / ipratio=1.40 / pbratio=1.30 / aq-mode=2 / aq-strength=0.85 / cutree / zone-count=0 / no-strict-cbr / qg-size=32 / no-rc-grain / qpmax=69 / qpmin=0 / no-const-vbv / sar=1 / overscan=0 / videoformat=5 / range=0 / colorprim=1 / transfer=1 / colormatrix=1 / chromaloc=0 / display-window=0 / cll=0,0 / min-luma=0 / max-luma=1023 / log2-max-poc-lsb=8 / vui-timing-info / vui-hrd-info / slices=1 / no-opt-qp-pps / no-opt-ref-list-length-pps / no-multi-pass-opt-rps / scenecut-bias=0.05 / hist-threshold=0.01 / no-opt-cu-delta-qp / no-aq-motion / no-hdr10 / no-hdr10-opt / no-dhdr10-opt / no-idr-recovery-sei / analysis-reuse-level=0 / analysis-save-reuse-level=0 / analysis-load-reuse-level=0 / scale-factor=0 / refine-intra=0 / refine-inter=0 / refine-mv=1 / refine-ctu-distortion=0 / no-limit-sao / ctu-info=0 / no-lowpass-dct / refine-analysis-type=0 / copy-pic=1 / max-ausize-factor=1.0 / no-dynamic-refine / no-single-sei / no-hevc-aq / no-svt / no-field / qp-adaptation-range=1.00 / no-scenecut-aware-qpconformance-window-offsets / right=0 / bottom=0 / NTMzNTQ=

  35. Language : English

  36. Default : Yes

  37. Forced : No

  38. Color range : Limited

  39. Color primaries : BT.709

  40. Transfer characteristics : BT.709

  41. Matrix coefficients : BT.709

  42. Audio #1

  43. ID : 2

  44. Format : DTS XLL

  45. Format/Info : Digital Theater Systems

  46. Commercial name : DTS-HD Master Audio

  47. Codec ID : A_DTS

  48. Duration : 1 h 40 min

  49. Bit rate mode : Variable

  50. Bit rate : 2 469 kb/s

  51. Channel(s) : 6 channels

  52. Channel layout : C L R Ls Rs LFE

  53. Sampling rate : 48.0 kHz

  54. Frame rate : 93.750 FPS (512 SPF)

  55. Bit depth : 24 bits

  56. Compression mode : Lossless

  57. Stream size : 1.73 GiB (15%)

  58. Title : English DTS-HD Master Audio 5.1 @ 2887 kbps

  59. Language : English

  60. Default : Yes

  61. Forced : No

  62. Audio #2

  63. ID : 3

  64. Format : AC-3

  65. Format/Info : Audio Coding 3

  66. Commercial name : Dolby Digital

  67. Codec ID : A_AC3

  68. Duration : 1 h 40 min

  69. Bit rate mode : Constant

  70. Bit rate : 224 kb/s

  71. Channel(s) : 2 channels

  72. Channel layout : L R

  73. Sampling rate : 48.0 kHz

  74. Frame rate : 31.250 FPS (1536 SPF)

  75. Compression mode : Lossy

  76. Stream size : 160 MiB (1%)

  77. Title : English Dolby Digital Audio 2.0 @ 192 kbps Commentary

  78. Language : English

  79. Service kind : Complete Main

  80. Default : No

  81. Forced : No

  82. Text #1

  83. ID : 4

  84. Format : PGS

  85. Codec ID : S_HDMV/PGS

  86. Codec ID/Info : Picture based subtitle format used on BDs/HD-DVDs

  87. Duration : 1 h 39 min

  88. Bit rate : 26.5 kb/s

  89. Count of elements : 1680

  90. Stream size : 18.8 MiB (0%)

  91. Title : Eng/SUP

  92. Language : English

  93. Default : No

  94. Forced : No

  95. Text #2

  96. ID : 5

  97. Format : PGS

  98. Codec ID : S_HDMV/PGS

  99. Codec ID/Info : Picture based subtitle format used on BDs/HD-DVDs

  100. Duration : 1 h 39 min

  101. Bit rate : 22.9 kb/s

  102. Count of elements : 1404

  103. Stream size : 16.3 MiB (0%)

  104. Title : Cht/SUP 原盘繁体(HK)

  105. Language : Chinese

  106. Default : No

  107. Forced : No

  108. Text #3

  109. ID : 6

  110. Format : PGS

  111. Codec ID : S_HDMV/PGS

  112. Codec ID/Info : Picture based subtitle format used on BDs/HD-DVDs

  113. Duration : 1 h 39 min

  114. Bit rate : 17.5 kb/s

  115. Count of elements : 1404

  116. Stream size : 12.4 MiB (0%)

  117. Title : Cht/SUP 原盘繁体(TW)

  118. Language : Chinese

  119. Default : Yes

  120. Forced : No

  121. Menu

  122. 00:00:00.000 : en:第 01 章

  123. 00:02:32.361 : en:第 02 章

  124. 00:04:55.837 : en:第 03 章

  125. 00:07:29.032 : en:第 04 章

  126. 00:10:53.152 : en:第 05 章

  127. 00:12:58.945 : en:第 06 章

  128. 00:14:06.554 : en:第 07 章

  129. 00:16:35.953 : en:第 08 章

  130. 00:19:18.616 : en:第 09 章

  131. 00:21:22.281 : en:第 10 章

  132. 00:24:36.016 : en:第 11 章

  133. 00:27:54.631 : en:第 12 章

  134. 00:31:54.871 : en:第 13 章

  135. 00:33:14.951 : en:第 14 章

  136. 00:37:06.266 : en:第 15 章

  137. 00:39:50.972 : en:第 16 章

  138. 00:41:47.714 : en:第 17 章

  139. 00:46:55.062 : en:第 18 章

  140. 00:49:19.206 : en:第 19 章

  141. 00:50:46.877 : en:第 20 章

  142. 00:56:34.891 : en:第 21 章

  143. 00:57:33.825 : en:第 22 章

  144. 01:00:20.283 : en:第 23 章

  145. 01:01:57.923 : en:第 24 章

  146. 01:05:06.653 : en:第 25 章

  147. 01:07:36.928 : en:第 26 章

  148. 01:10:50.455 : en:第 27 章

  149. 01:15:01.831 : en:第 28 章

  150. 01:18:35.377 : en:第 29 章

  151. 01:25:04.808 : en:第 30 章

  152. 01:29:07.425 : en:第 31 章

  153. 01:34:40.300 : en:第 32 章


复制代码



文件下载


除非特别注明,本文『镖客[共3部合集][繁英字幕].The.Man.With.No.Name.Trilogy.Collection.1964-1966.BluRay.1080p.DTS-HD.MA.5.1.x265.10』来源于互联网机器人自动抓取,非本站原创。 浮游电影网不对本文拥有版权,如有侵犯,请联系邮箱:fuyouu#yandex.com[#换成@]投诉。我们会在15个工作日内删除。 但烦请转载时请标明出处:“本文转载于『浮游电影网』,原文地址:https://www.fuyouu.com/22493.html

评论吧骚年!

发表你的见解   

昵称*

E-mail*(建议输入,以便收到博主回复的提示邮件)

验证码*

您可以使用eMule或eMule Mod(Windows)、aMule(Win、Linux、Mac)等软件下载eD2k链接。。
eMule收藏集(.emulecollection)文件是您选中的所有链接的列表文件。eMule可以直接下载它们。
按住SHIFT键选择可以选中多个选择框。
可用文件名和大小选择器来选择文件。
文件名选择器帮您根据文件名称或后缀来选择文件。不分大小写。
符号使用:
和:空格( )、+
不包含:-
或:|
转义:一对英文引号("");
匹配开头:^
匹配结尾:$
例如:
选中所有名称中包含有“eMule”或“0.49c”字眼,但不包含有“exe”字眼的:emule|0.49c -exe
选中所有名称的开头是“eMule”,结尾是“0.49c”的:^emule 0.49c$
选中所有名称中带有“eMule 0.49c”的(必须是“eMule 0.49c”,中间没有别的字符,不能是“eMule fake 0.49c”),需要转义:"emule 0.49c"
大小选择器帮您根据文件大小选择文件。