当前位置: 首页 >> 日韩电影 >> 摇摆少女[中英字幕].Swing.Girls.2004.BluRay.1080p.x265.10bit-MiniHD 5.62GB >> 正文

摇摆少女[中英字幕].Swing.Girls.2004.BluRay.1080p.x265.10bit-MiniHD 5.62GB

2022年06月02日 22:15:06     电影发布:来源于网络     电影分类:日韩电影     评论(0)    

◎译 名 摇摆少女 / 喇叭书院(港) / 摇摆女孩(台) / 竞乐少女 / Swing Girls

◎片 名 スウィングガールズ

◎年 代 2004

◎产 地 日本

◎类 别 剧情 / 喜剧 / 音乐

◎语 言 日语

◎上映日期 2004-09-11(日本)

◎IMDb链接 https://www.imdb.com/title/tt0435434/

◎豆瓣评分 8.4/10 (36897人评价)

◎豆瓣链接 https://movie.douban.com/subject/1361254/

◎片 长 105分钟

◎导 演 矢口史靖 Shinobu Yaguchi (id:1164069)

◎编 剧 矢口史靖 Shinobu Yaguchi (id:1164069)

◎演 员 上野树里 Juri Ueno (id:1018591)

平冈祐太 Y?ta Hiraoka (id:1051144)

贯地谷栞 Shihori Kanjiya (id:1037758)

本仮屋唯佳 Yuika Motokariya (id:1051533)

丰岛由佳梨 Yukari Toyoshima (id:1178238)

关根香菜 Kana Sekine (id:1381757)

水田芙美子 Fumiko Mizuta (id:1337643)

明日香 Asuka (id:1245200)

中村知世 Chise Nakamura (id:1051294)

松田圆 Madoka Matsuda (id:1291287)

阿部渚 Nagisa Abe (id:1381758)

辰巳奈都子 Natsuko Tatsumi (id:1321668)

竹中直人 Naoto Takenaka (id:1035579)

白石美帆 Miho Shiraishi (id:1023842)

小日向文世 Fumiyo Kohinata (id:1009219)

渡边绘里 Eri Watanabe (id:1016983)

樱睦子 Mutsuko Sakura (id:1008702)

谷启 Kei Tani (id:1034224)

德井优 Yu Tokui (id:1029376)

田中要次 Y?ji Tanaka (id:1025561)

木野花 Hana Kino (id:1015520)

大仓孝二 Koji Ookura (id:1011644)

菅原大吉 Daikichi Sugawara (id:1336210)

西田尚美 Naomi Nishida (id:1006093)

江口德子 Noriko Eguchi (id:1048572)

真岛秀和 Hidekazu Mashima (id:1321815)

三上真史 Masashi Mikami (id:1021477)

福士诚治 Seiji Fukushi (id:1275370)

高桥一生 Issey Takahashi (id:1275907)

佐藤二朗 Jir? Sat? (id:1315821)

森下能幸 Yoshiyuki Morishita (id:1038001)

宝井诚明 Masaaki Takarai (id:1043321)

坂田聪 Tadashi Sakata (id:1363088)

岩佐真悠子 Mayuko Iwasa (id:1033856)

森康子 Kouko Mori (id:1275793)

林田麻里 Miki Hayashida (id:1361220)

关口大辅 Daisuke Sekiguchi (id:1024908)

Mikk? Yoshino Mikk? Yoshino (id:1330456)

Hiroshi Kishimoto Hiroshi Kishimoto (id:1330457)

柴主高秀 Takahide Shibanushi (id:1297447)

宫岛龙治 Ryuji Miyajima (id:1292254)

矶田典宏 Norihiro Isoda (id:1287410)

◎简 介

炎热的暑假,女生们还要在学校补课,早就坐不住的她们自动请缨去送午餐给为棒球队打气的管乐队。一路上嘻嘻哈哈的她们快到终点才发现因为天气炎热饭盒早就变坏了,而管乐队队员毫不知情地吃下去,随之而来的身体不适让而唯一没有吃饭盒的中村要求女生们负责,组成爵士乐团。可是女生们不懂得演奏乐器。

艰苦的训练开始了,可是痛苦中也带着甜蜜。

◎获奖情况 (共8项)

第28届日本电影学院奖 (2005)

话题奖 最具话题影片奖

最佳影片(提名)

最佳导演(提名)

└──矢口史靖 (id:1164069)

最佳编剧

└──矢口史靖 (id:1164069)

最佳配乐

最佳录音

└──郡弘道 (id:1288906)

最佳剪辑

└──宫岛龙治 (id:1292254)

最佳新人

  1. ##### MediaInfo ######

  2. General

  3. Unique ID : 230525445915510632815959849673031205406 (0xAD6D95FF0FEBEFD8958D7FCBE728C21E)

  4. Complete name : Swing.Girls.2004.BluRay.1080p.x265.10bit-MiniHD.mkv

  5. Format : Matroska

  6. Format version : Version 4

  7. File size : 5.61 GiB

  8. Duration : 1 h 44 min

  9. Overall bit rate : 7 671 kb/s

  10. Encoded date : UTC 2017-06-23 03:29:35

  11. Writing application : mkvmerge v11.0.0 ('Alive') 64bit

  12. Writing library : libebml v1.3.4 + libmatroska v1.4.5

  13. Video

  14. ID : 1

  15. Format : HEVC

  16. Format/Info : High Efficiency Video Coding

  17. Codec ID : V_MPEGH/ISO/HEVC

  18. Duration : 1 h 44 min

  19. Bit rate : 6 878 kb/s

  20. Width : 1 920 pixels

  21. Height : 1 038 pixels

  22. Display aspect ratio : 1.85:1

  23. Frame rate mode : Constant

  24. Frame rate : 23.976 (24000/1001/53354) FPS

  25. Bits/(Pixel*Frame) : 0.144

  26. Stream size : 5.03 GiB (90%)

  27. Default : Yes

  28. Forced : No

  29. Audio

  30. ID : 2

  31. Format : AC-3

  32. Format/Info : Audio Coding 3

  33. Commercial name : Dolby Digital

  34. Codec ID : A_AC3

  35. Duration : 1 h 44 min

  36. Bit rate mode : Constant

  37. Bit rate : 640 kb/s

  38. Channel(s) : 6 channels

  39. Channel layout : L R C LFE Ls Rs

  40. Sampling rate : 48.0 kHz

  41. Frame rate : 31.250 FPS (1536 SPF)

  42. Compression mode : Lossy

  43. Stream size : 480 MiB (8%)

  44. Language : Japanese

  45. Service kind : Complete Main

  46. Default : Yes

  47. Forced : No

  48. Text #1

  49. ID : 3

  50. Format : PGS

  51. Muxing mode : zlib

  52. Codec ID : S_HDMV/PGS

  53. Codec ID/Info : Picture based subtitle format used on BDs/HD-DVDs

  54. Language : Chinese

  55. Default : Yes

  56. Forced : No

  57. Text #2

  58. ID : 4

  59. Format : PGS

  60. Muxing mode : zlib

  61. Codec ID : S_HDMV/PGS

  62. Codec ID/Info : Picture based subtitle format used on BDs/HD-DVDs

  63. Language : Chinese

  64. Default : No

  65. Forced : No

  66. Text #3

  67. ID : 5

  68. Format : PGS

  69. Muxing mode : zlib

  70. Codec ID : S_HDMV/PGS

  71. Codec ID/Info : Picture based subtitle format used on BDs/HD-DVDs

  72. Language : English

  73. Default : No

  74. Forced : No

  75. Text #4

  76. ID : 6

  77. Format : PGS

  78. Muxing mode : zlib

  79. Codec ID : S_HDMV/PGS

  80. Codec ID/Info : Picture based subtitle format used on BDs/HD-DVDs

  81. Language : Japanese

  82. Default : No

  83. Forced : No

  84. Menu

  85. 00:00:00.000 : en:Chapter 01

  86. 00:20:01.950 : en:Chapter 02

  87. 00:40:03.150 : en:Chapter 03

  88. 01:00:03.599 : en:Chapter 04

  89. 01:15:04.500 : en:Chapter 05

  90. 01:30:06.149 : en:Chapter 06


复制代码



文件下载


除非特别注明,本文『摇摆少女[中英字幕].Swing.Girls.2004.BluRay.1080p.x265.10bit-MiniHD 5.62GB』来源于互联网机器人自动抓取,非本站原创。 浮游电影网不对本文拥有版权,如有侵犯,请联系邮箱:fuyouu#yandex.com[#换成@]投诉。我们会在15个工作日内删除。 但烦请转载时请标明出处:“本文转载于『浮游电影网』,原文地址:https://www.fuyouu.com/22472.html

评论吧骚年!

发表你的见解   

昵称*

E-mail*(建议输入,以便收到博主回复的提示邮件)

验证码*

您可以使用eMule或eMule Mod(Windows)、aMule(Win、Linux、Mac)等软件下载eD2k链接。。
eMule收藏集(.emulecollection)文件是您选中的所有链接的列表文件。eMule可以直接下载它们。
按住SHIFT键选择可以选中多个选择框。
可用文件名和大小选择器来选择文件。
文件名选择器帮您根据文件名称或后缀来选择文件。不分大小写。
符号使用:
和:空格( )、+
不包含:-
或:|
转义:一对英文引号("");
匹配开头:^
匹配结尾:$
例如:
选中所有名称中包含有“eMule”或“0.49c”字眼,但不包含有“exe”字眼的:emule|0.49c -exe
选中所有名称的开头是“eMule”,结尾是“0.49c”的:^emule 0.49c$
选中所有名称中带有“eMule 0.49c”的(必须是“eMule 0.49c”,中间没有别的字符,不能是“eMule fake 0.49c”),需要转义:"emule 0.49c"
大小选择器帮您根据文件大小选择文件。