当前位置: 首页 >> 港台电影 >> 无人驾驶[粤语音轨/简繁字幕].Spacked.Out.2000.BluRay.1080p.DTS-HD.MA.2.0.x265.10bit-ALT 10.65GB >> 正文

无人驾驶[粤语音轨/简繁字幕].Spacked.Out.2000.BluRay.1080p.DTS-HD.MA.2.0.x265.10bit-ALT 10.65GB

2022年06月02日 22:02:53     电影发布:来源于网络     电影分类:港台电影     评论(0)    

◎译 名 无人驾驶 / Spacked Out

◎片 名 無人駕駛

◎年 代 2000

◎产 地 中国香港

◎类 别 剧情

◎语 言 粤语

◎上映日期 2000-05-04

◎IMDb链接 https://www.imdb.com/title/tt0282753/

◎豆瓣评分 6.5/10 (1234人评价)

◎豆瓣链接 https://movie.douban.com/subject/1303924/

◎片 长 91 分钟

◎导 演 刘国昌 Lawrence Ah Mon (id:1276870)

◎编 剧 老鼠 Laoshu (id:1376922)

杨倩玲 Sin Ling Yeung (id:1301472)

区瑞莲 Ruilian Ou (id:1376920)

◎演 员 张咏妍 Wing Cheung (id:1322608)

潘美琪 Maggie Poon (id:1327713)

谭洁雯 Kit Man Tam (id:1376930)

杜琪峰 Johnnie To (id:1160186)

于逸尧 Yat-Yiu Yu (id:1301566)

黎耀辉 Yiu-Fai Lai (id:1289265)

陈志伟 Chi Wai Chan (id:1280415)

蔡彦菁 Maggie Choy (id:1426247)

黄国雄 Samuel Wong (id:1426248)

黄志明 Wong Chi-Ming (id:1398895)

区文诗 Angela Au (id:1359021)

◎简 介

屯门,一个发展了十多年的偏远新市镇。这个故事从屯门出发,沿途看四周出轨少女。

饼,一个十三的少女,发现自己怀了男友细荣的孩子,但细荣自从去油尖旺卖翻版VCD后便失去了音讯,生在破碎家庭的饼只有她的朋友诗诗,蕉和腐乳相依为靠。这四位少女听不惯大人的唠叨,也不愿服从学校的纪律,宁愿整天在外消磨时间,她们大多时间都在购物,唱卡拉OK和闲聊上。

四女对爱情充满了憧憬和诱惑。除了饼被男友抛弃,蕉只喜欢追寻短暂恋爱所带来的刺激。而诗诗和腐乳虽然同性相恋,但是诗诗始终只是抱着骑驴找马的心态来面对腐乳间的感情。家庭和感情的不如意,虽然造成四女心灵上的创伤,但是发生的种种却能增进了她们之间的友情。

四女怎样面对人生,能否在生命中找未来?路,正等待着她们去开拓……

本片是2000年香港国际电影节开幕电影,以实录形式探讨时下青年人问题的话题力作,全...

◎获奖情况 (共5项)

第37届台北金马影展 (2000)

金马奖 最佳原著剧本(提名)

金马奖 最佳新演员(提名)

└──谭洁雯 (id:1376930)

金马奖 最佳摄影(提名)

└──黎耀辉 (id:1289265)

金马奖 最佳剪辑(提名)

└──陈志伟 (id:1280415)

第1届华语电影传媒大奖 (2001)

年度十佳华语电影

  1. ##### MediaInfo ######

  2. General

  3. Unique ID : 200031383011419473748462401161465996252 (0x967CA49DFFFF4101B17FD6A5B5B8A3DC)

  4. Complete name : Spacked.Out.2000.BluRay.1080p.DTS-HD.MA.2.0.x265.10bit-ALT.mkv

  5. Format : Matroska

  6. Format version : Version 4

  7. File size : 10.7 GiB

  8. Duration : 1 h 34 min

  9. Overall bit rate mode : Variable

  10. Overall bit rate : 16.2 Mb/s

  11. Encoded date : UTC 2022-06-02 03:50:45

  12. Writing application : mkvmerge v49.0.0 ('Sick Of Losing Soulmates') 64-bit

  13. Writing library : libebml v1.4.0 + libmatroska v1.6.1

  14. Video

  15. ID : 1

  16. Format : HEVC

  17. Format/Info : High Efficiency Video Coding

  18. Format profile : Main [email protected]@High

  19. Codec ID : V_MPEGH/ISO/HEVC

  20. Duration : 1 h 34 min

  21. Bit rate : 14.3 Mb/s

  22. Width : 1 920 pixels

  23. Height : 1 080 pixels

  24. Display aspect ratio : 16:9

  25. Frame rate mode : Constant

  26. Frame rate : 24.000 FPS

  27. Color space : YUV

  28. Chroma subsampling : 4:2:0

  29. Bit depth : 10 bits

  30. Bits/(Pixel*Frame) : 0.288

  31. Stream size : 9.40 GiB (88%)

  32. Title : HEVC, [email protected]@High, 24 fps @ 14311 kbps

  33. Writing library : x265 3.5+36-1f2c8da77:[Windows][GCC 11.2.0][64 bit] 10bit

  34. Encoding settings : cpuid=533541111039 / frame-threads=4 / numa-pools=16 / wpp / no-pmode / no-pme / no-psnr / no-ssim / log-level=2 / input-csp=1 / input-res=1920x1080 / interlace=0 / total-frames=135402 / level-idc=51 / high-tier=1 / uhd-bd=0 / ref=5 / no-allow-non-conformance / no-repeat-headers / annexb / no-aud / no-eob / no-eos / no-hrd / info / hash=0 / no-temporal-layers / open-gop / min-keyint=24 / keyint=240 / gop-lookahead=0 / bframes=6 / b-adapt=2 / b-pyramid / bframe-bias=0 / rc-lookahead=40 / lookahead-slices=0 / NTMzNTQ=uuDQuD2mJt9fsCf / scenecut=40 / no-hist-scenecut / radl=0 / no-splice / no-intra-refresh / ctu=32 / min-cu-size=8 / no-rect / no-amp / max-tu-size=32 / tu-inter-depth=3 / tu-intra-depth=3 / limit-tu=4 / rdoq-level=2 / dynamic-rd=0.00 / no-ssim-rd / signhide / no-tskip / nr-intra=0 / nr-inter=0 / no-constrained-intra / no-strong-intra-smoothing / max-merge=4 / limit-refs=1 / limit-modes / me=3 / subme=4 / merange=25 / temporal-mvp / no-frame-dup / no-hme / weightp / weightb / no-analyze-src-pics / deblock=-3:-3 / no-sao / no-sao-non-deblock / rd=6 / selective-sao=0 / no-early-skip / rskip / no-fast-intra / no-tskip-fast / no-cu-lossless / b-intra / no-splitrd-skip / rdpenalty=0 / psy-rd=2.00 / psy-rdoq=1.00 / no-rd-refine / no-lossless / cbqpoffs=-2 / crqpoffs=-2 / rc=crf / crf=19.5 / qcomp=0.65 / qpstep=4 / stats-write=0 / stats-read=0 / vbv-maxrate=80000 / vbv-bufsize=80000 / vbv-init=0.9 / min-vbv-fullness=50.0 / max-vbv-fullness=80.0 / crf-max=0.0 / crf-min=0.0 / ipratio=1.40 / pbratio=1.30 / aq-mode=2 / aq-strength=0.85 / cutree / zone-count=0 / no-strict-cbr / qg-size=32 / no-rc-grain / qpmax=69 / qpmin=0 / no-const-vbv / sar=1 / overscan=0 / videoformat=5 / range=0 / colorprim=1 / transfer=1 / colormatrix=1 / chromaloc=0 / display-window=0 / cll=0,0 / min-luma=0 / max-luma=1023 / log2-max-poc-lsb=8 / vui-timing-info / vui-hrd-info / slices=1 / no-opt-qp-pps / no-opt-ref-list-length-pps / no-multi-pass-opt-rps / scenecut-bias=0.05 / hist-threshold=0.03 / no-opt-cu-delta-qp / no-aq-motion / no-hdr10 / no-hdr10-opt / no-dhdr10-opt / no-idr-recovery-sei / analysis-reuse-level=0 / analysis-save-reuse-level=0 / analysis-load-reuse-level=0 / scale-factor=0 / refine-intra=0 / refine-inter=0 / refine-mv=1 / refine-ctu-distortion=0 / no-limit-sao / ctu-info=0 / no-lowpass-dct / refine-analysis-type=0 / copy-pic=1 / max-ausize-factor=1.0 / no-dynamic-refine / no-single-sei / no-hevc-aq / no-svt / no-field / qp-adaptation-range=1.00 / scenecut-aware-qp=0conformance-window-offsets / right=0 / bottom=0 / NTMzNTQ= / decoder-max-rate=0 / no-vbv-live-multi-pass

  35. Language : English

  36. Default : Yes

  37. Forced : No

  38. Color range : Limited

  39. Color primaries : BT.709

  40. Transfer characteristics : BT.709

  41. Matrix coefficients : BT.709

  42. Audio

  43. ID : 2

  44. Format : DTS XLL

  45. Format/Info : Digital Theater Systems

  46. Commercial name : DTS-HD Master Audio

  47. Codec ID : A_DTS

  48. Duration : 1 h 34 min

  49. Bit rate mode : Variable

  50. Bit rate : 1 865 kb/s

  51. Channel(s) : 2 channels

  52. Channel layout : L R

  53. Sampling rate : 48.0 kHz

  54. Frame rate : 93.750 FPS (512 SPF)

  55. Bit depth : 24 bits

  56. Compression mode : Lossless

  57. Stream size : 1.22 GiB (11%)

  58. Title : Cantonese DTS-HD Master Audio 2.0 @ 1866 kbps

  59. Language : Chinese

  60. Default : Yes

  61. Forced : No

  62. Text #1

  63. ID : 3

  64. Format : PGS

  65. Codec ID : S_HDMV/PGS

  66. Codec ID/Info : Picture based subtitle format used on BDs/HD-DVDs

  67. Duration : 1 h 30 min

  68. Bit rate : 20.9 kb/s

  69. Count of elements : 2582

  70. Stream size : 13.5 MiB (0%)

  71. Title : Chs/SUP 简体

  72. Language : Chinese

  73. Default : Yes

  74. Forced : No

  75. Text #2

  76. ID : 4

  77. Format : PGS

  78. Codec ID : S_HDMV/PGS

  79. Codec ID/Info : Picture based subtitle format used on BDs/HD-DVDs

  80. Duration : 1 h 30 min

  81. Bit rate : 21.5 kb/s

  82. Count of elements : 2582

  83. Stream size : 13.9 MiB (0%)

  84. Title : Cht/SUP 繁体

  85. Language : Chinese

  86. Default : No

  87. Forced : No

  88. Menu

  89. 00:00:00.000 : en:第 01 章

  90. 00:10:28.083 : en:第 02 章

  91. 00:22:24.333 : en:第 03 章

  92. 00:32:49.708 : en:第 04 章

  93. 00:43:05.875 : en:第 05 章

  94. 00:53:59.667 : en:第 06 章

  95. 01:00:35.250 : en:第 07 章

  96. 01:13:54.500 : en:第 08 章

  97. 01:23:02.000 : en:第 09 章


复制代码



文件下载


除非特别注明,本文『无人驾驶[粤语音轨/简繁字幕].Spacked.Out.2000.BluRay.1080p.DTS-HD.MA.2.0.x265.10bit-ALT 10.65GB』来源于互联网机器人自动抓取,非本站原创。 浮游电影网不对本文拥有版权,如有侵犯,请联系邮箱:fuyouu#yandex.com[#换成@]投诉。我们会在15个工作日内删除。 但烦请转载时请标明出处:“本文转载于『浮游电影网』,原文地址:https://www.fuyouu.com/22460.html

评论吧骚年!

发表你的见解   

昵称*

E-mail*(建议输入,以便收到博主回复的提示邮件)

验证码*

您可以使用eMule或eMule Mod(Windows)、aMule(Win、Linux、Mac)等软件下载eD2k链接。。
eMule收藏集(.emulecollection)文件是您选中的所有链接的列表文件。eMule可以直接下载它们。
按住SHIFT键选择可以选中多个选择框。
可用文件名和大小选择器来选择文件。
文件名选择器帮您根据文件名称或后缀来选择文件。不分大小写。
符号使用:
和:空格( )、+
不包含:-
或:|
转义:一对英文引号("");
匹配开头:^
匹配结尾:$
例如:
选中所有名称中包含有“eMule”或“0.49c”字眼,但不包含有“exe”字眼的:emule|0.49c -exe
选中所有名称的开头是“eMule”,结尾是“0.49c”的:^emule 0.49c$
选中所有名称中带有“eMule 0.49c”的(必须是“eMule 0.49c”,中间没有别的字符,不能是“eMule fake 0.49c”),需要转义:"emule 0.49c"
大小选择器帮您根据文件大小选择文件。