当前位置: 首页 >> 欧美电影 >> 弗鲁特韦尔车站[中英字幕].Fruitvale.Station.2013.BluRay.1080p.x265.10bit-MiniHD 9.13GB >> 正文

弗鲁特韦尔车站[中英字幕].Fruitvale.Station.2013.BluRay.1080p.x265.10bit-MiniHD 9.13GB

2022年06月02日 21:56:11     电影发布:来源于网络     电影分类:欧美电影     评论(0)    

◎译 名 弗鲁特韦尔车站 / 公义终站(港) / 奥斯卡的一天(台) / 弗鲁特维尔车站 / 弗鲁特韦尔 / 水果谷 / Fruitvale

◎片 名 Fruitvale Station

◎年 代 2013

◎产 地 美国

◎类 别 剧情 / 传记

◎语 言 英语

◎上映日期 2013-01-19(圣丹斯电影节) / 2013-05-16(戛纳电影节) / 2013-07-12(美国)

◎IMDb链接 https://www.imdb.com/title/tt2334649/

◎豆瓣评分 7.4/10 (7599人评价)

◎豆瓣链接 https://movie.douban.com/subject/10735399/

◎片 长 85分钟

◎导 演 瑞恩·库格勒 Ryan Coogler (id:1326531)

◎编 剧 瑞恩·库格勒 Ryan Coogler (id:1326531)

◎演 员 迈克尔·B·乔丹 Michael B. Jordan (id:1107320)

梅罗妮·迪亚兹 Melonie Diaz (id:1044956)

奥克塔维亚·斯宾瑟 Octavia Spencer (id:1154263)

凯文·杜兰 Kevin Durand (id:1013790)

查德·迈克尔·墨瑞 Chad Michael Murray (id:1047991)

阿娜·欧蕾利 Ahna O'Reilly (id:1313713)

乔伊·奥格莱斯比 Joey Oglesby (id:1250822)

亚历桑德罗·加西亚 Alessandro Garcia (id:1430736)

崔斯坦·瓦尔德斯 Tristan Wilds (id:1009348)

基南·库格勒 Keenan Coogler (id:1459637)

妮娜·杨·邦吉奥威 Nina Yang Bongiovi (id:1336148)

路德维格·戈兰松 Ludwig G?ransson (id:1265962)

汉娜·比奇勒 Hannah Beachler (id:1408358)

◎简 介

Oscar Grant(迈克尔·B·乔丹 Michael B. Jordan 饰)和女友Sophina(梅罗妮·迪亚兹 Melonie Diaz 饰)还有四岁的女儿一起生活在奥克兰。2008年12月31日,是Oscar母亲的生日。早上,他像往常一样送女儿上幼儿园,送女友上班。Oscar卖过大麻、入过狱,因为经常迟到被炒了鱿鱼,但他准备在新的一年到来之际努力开始一段新的人生。晚上,大家欢聚一堂,庆祝他母亲的生日,同时庆祝新年的到来。结束和家人的聚会,Oscar带着Sophina还有一群好友,搭上地铁前往旧金山看烟花。2009年1月1日,新年的第一个早晨,狂欢了一夜的他们搭上回家的地铁,Oscar却在地铁上遇到了以前一起呆过监狱的“故人”,他的出现,改变了所有人.....

本片根据真实故事改编。

◎获奖情况 (共25项)

第66届戛纳电影节 (2013)

金摄影机奖(导演处女作奖)(提名)

└──瑞恩·库格勒 (id:1326531)

一种关注单元 一种关注大奖(提名)

└──瑞恩·库格勒 (id:1326531)

一种关注单元 未来奖

└──瑞恩·库格勒 (id:1326531)

第29届圣丹斯电影节 (2013)

评审团大奖 剧情片

└──瑞恩·库格勒 (id:1326531)

观众奖 剧情片

└──瑞恩·库格勒 (id:1326531)

第23届MTV电影奖 (2014)

MTV电影奖 突破表演奖(提名)

└──迈克尔·B·乔丹 (id:1107320)

第79届纽约影评人协会奖 (2013)

最佳处女作

└──瑞恩·库格勒 (id:1326531)

第85届美国国家评论协会奖 (2014)

最佳女配角

└──奥克塔维亚·斯宾瑟 (id:1154263)

最佳新人男演员

└──迈克尔·B·乔丹 (id:1107320)

最佳导演处女作

└──瑞恩·库格勒 (id:1326531)

年度佳片

第29届美国独立精神奖 (2014)

最佳处女作

最佳男主角(提名)

└──迈克尔·B·乔丹 (id:1107320)

最佳女配角(提名)

└──梅罗妮·迪亚兹 (id:1044956)

第17届英国独立电影奖 (2014)

最佳外国独立电影(提名)

第23届哥谭独立电影奖 (2013)

独立电影人奖

└──瑞恩·库格勒 (id:1326531)

年度突破演员

└──迈克尔·B·乔丹 (id:1107320)

观众选择奖(提名)

第14届美国电影学会奖 (2013)

年度佳片

第18届金卫星奖 (2014)

突破表演奖

└──迈克尔·B·乔丹 (id:1107320)

第17届好莱坞电影奖 (2013)

最受关注奖

└──迈克尔·B·乔丹 (id:1107320)

第12届华盛顿影评人协会奖 (2013)

最佳女配角(提名)

└──奥克塔维亚·斯宾瑟 (id:1154263)

第34届波士顿影评人协会奖 (2013)

最佳处女作

└──瑞恩·库格勒 (id:1326531)

第13届凤凰城影评人协会奖 (2013)

最具突破表演(提名)

└──迈克尔·B·乔丹 (id:1107320)

最佳新人导演(提名)

└──瑞恩·库格勒 (id:1326531)

  1. ##### MediaInfo ######

  2. General

  3. Unique ID : 173552278526484735315329335134048885038 (0x8290F3F8AA47508B8580D8E2F676192E)

  4. Complete name : Fruitvale.Station.2013.BluRay.1080p.x265.10bit-MiniHD.mkv

  5. Format : Matroska

  6. Format version : Version 4

  7. File size : 9.12 GiB

  8. Duration : 1 h 25 min

  9. Overall bit rate : 15.3 Mb/s

  10. Encoded date : UTC 2017-09-04 08:23:15

  11. Writing application : mkvmerge v11.0.0 ('Alive') 64bit

  12. Writing library : libebml v1.3.4 + libmatroska v1.4.5

  13. Video

  14. ID : 1

  15. Format : HEVC

  16. Format/Info : High Efficiency Video Coding

  17. Codec ID : V_MPEGH/ISO/HEVC

  18. Duration : 1 h 25 min

  19. Bit rate : 14.4 Mb/s

  20. Width : 1 920 pixels

  21. Height : 1 080 pixels

  22. Display aspect ratio : 16:9

  23. Frame rate mode : Constant

  24. Frame rate : 24.000 FPS

  25. Bits/(Pixel*Frame) : 0.289

  26. Stream size : 8.56 GiB (94%)

  27. Default : Yes

  28. Forced : No

  29. Audio

  30. ID : 2

  31. Format : AC-3

  32. Format/Info : Audio Coding 3

  33. Commercial name : Dolby Digital

  34. Codec ID : A_AC3

  35. Duration : 1 h 25 min

  36. Bit rate mode : Constant

  37. Bit rate : 640 kb/s

  38. Channel(s) : 6 channels

  39. Channel layout : L R C LFE Ls Rs

  40. Sampling rate : 48.0 kHz

  41. Frame rate : 31.250 FPS (1536 SPF)

  42. Compression mode : Lossy

  43. Stream size : 390 MiB (4%)

  44. Language : English

  45. Service kind : Complete Main

  46. Default : Yes

  47. Forced : No

  48. Text #1

  49. ID : 3

  50. Format : PGS

  51. Muxing mode : zlib

  52. Codec ID : S_HDMV/PGS

  53. Codec ID/Info : Picture based subtitle format used on BDs/HD-DVDs

  54. Language : English

  55. Default : Yes

  56. Forced : No

  57. Text #2

  58. ID : 4

  59. Format : PGS

  60. Muxing mode : zlib

  61. Codec ID : S_HDMV/PGS

  62. Codec ID/Info : Picture based subtitle format used on BDs/HD-DVDs

  63. Language : Chinese

  64. Default : No

  65. Forced : No

  66. Text #3

  67. ID : 5

  68. Format : PGS

  69. Muxing mode : zlib

  70. Codec ID : S_HDMV/PGS

  71. Codec ID/Info : Picture based subtitle format used on BDs/HD-DVDs

  72. Language : Chinese

  73. Default : No

  74. Forced : No

  75. Text #4

  76. ID : 6

  77. Format : PGS

  78. Muxing mode : zlib

  79. Codec ID : S_HDMV/PGS

  80. Codec ID/Info : Picture based subtitle format used on BDs/HD-DVDs

  81. Language : Chinese

  82. Default : No

  83. Forced : No

  84. Text #5

  85. ID : 7

  86. Format : PGS

  87. Muxing mode : zlib

  88. Codec ID : S_HDMV/PGS

  89. Codec ID/Info : Picture based subtitle format used on BDs/HD-DVDs

  90. Language : Chinese

  91. Default : No

  92. Forced : No

  93. Text #6

  94. ID : 8

  95. Format : PGS

  96. Muxing mode : zlib

  97. Codec ID : S_HDMV/PGS

  98. Codec ID/Info : Picture based subtitle format used on BDs/HD-DVDs

  99. Language : Chinese

  100. Default : No

  101. Forced : No

  102. Menu

  103. 00:00:00.000 : en:Chapter 01

  104. 00:05:07.916 : en:Chapter 02

  105. 00:10:32.333 : en:Chapter 03

  106. 00:15:30.458 : en:Chapter 04

  107. 00:19:09.416 : en:Chapter 05

  108. 00:26:54.250 : en:Chapter 06

  109. 00:30:03.000 : en:Chapter 07

  110. 00:37:14.166 : en:Chapter 08

  111. 00:41:15.083 : en:Chapter 09

  112. 00:45:47.125 : en:Chapter 10

  113. 00:50:49.000 : en:Chapter 11

  114. 00:54:20.083 : en:Chapter 12

  115. 01:00:27.875 : en:Chapter 13

  116. 01:06:32.333 : en:Chapter 14

  117. 01:09:52.750 : en:Chapter 15

  118. 01:13:06.291 : en:Chapter 16

  119. 01:17:13.458 : en:Chapter 17

  120. 01:20:07.833 : en:Chapter 18


复制代码



文件下载


除非特别注明,本文『弗鲁特韦尔车站[中英字幕].Fruitvale.Station.2013.BluRay.1080p.x265.10bit-MiniHD 9.13GB』来源于互联网机器人自动抓取,非本站原创。 浮游电影网不对本文拥有版权,如有侵犯,请联系邮箱:fuyouu#yandex.com[#换成@]投诉。我们会在15个工作日内删除。 但烦请转载时请标明出处:“本文转载于『浮游电影网』,原文地址:https://www.fuyouu.com/22453.html

评论吧骚年!

发表你的见解   

昵称*

E-mail*(建议输入,以便收到博主回复的提示邮件)

验证码*

您可以使用eMule或eMule Mod(Windows)、aMule(Win、Linux、Mac)等软件下载eD2k链接。。
eMule收藏集(.emulecollection)文件是您选中的所有链接的列表文件。eMule可以直接下载它们。
按住SHIFT键选择可以选中多个选择框。
可用文件名和大小选择器来选择文件。
文件名选择器帮您根据文件名称或后缀来选择文件。不分大小写。
符号使用:
和:空格( )、+
不包含:-
或:|
转义:一对英文引号("");
匹配开头:^
匹配结尾:$
例如:
选中所有名称中包含有“eMule”或“0.49c”字眼,但不包含有“exe”字眼的:emule|0.49c -exe
选中所有名称的开头是“eMule”,结尾是“0.49c”的:^emule 0.49c$
选中所有名称中带有“eMule 0.49c”的(必须是“eMule 0.49c”,中间没有别的字符,不能是“eMule fake 0.49c”),需要转义:"emule 0.49c"
大小选择器帮您根据文件大小选择文件。