当前位置: 首页 >> 动画电影 >> 大闹天宫[国语配音].The.Monkey.King.2012.2160p.WEB-DL.H265.DDP5.1-HDBWEB 9.77GB >> 正文

大闹天宫[国语配音].The.Monkey.King.2012.2160p.WEB-DL.H265.DDP5.1-HDBWEB 9.77GB

2022年06月01日 21:23:40     电影发布:来源于网络     电影分类:动画电影     评论(0)    

◎译 名 大闹天宫 / The Monkey King

◎年 代 2012

◎产 地 中国大陆

◎类 别 动画

◎语 言 汉语普通话

◎上映日期 2012-01-11(中国大陆3D版) / 2017-10-13(中国大陆2D重映)

◎IMDb链接 https://www.imdb.com/title/tt11941418/

◎豆瓣评分 7.9/10 (14231人评价)

◎豆瓣链接 https://movie.douban.com/subject/3681613/

◎片 长 90分钟(3D版)

◎导 演 万籁鸣 Laiming Wan (id:1315309)

唐澄 Cheng Tang (id:1316912)

速达 Da Su (id:1327328)

陈志宏 Zhihong Chen (id:1356652)

◎编 剧 李克弱 Keruo Li (id:1316865)

万籁鸣 Laiming Wan (id:1315309)

◎演 员 李扬 Yang Li (id:1316809)

陈凯歌 Kaige Chen (id:1023040)

陈道明 Daoming Chen (id:1045565)

张国立 Guoli Zhang (id:1015115)

刘烨 Ye Liu (id:1000572)

胡歌 Ge Hu (id:1274477)

周立波 Libo Zhou (id:1313882)

何炅 Jiong He (id:1313023)

陈佩斯 Peisi Chen (id:1280571)

姚晨 Chen Yao (id:1029395)

刘晓庆 Xiaoqing Liu (id:1042637)

冯小刚 Xiaogang Feng (id:1274255)

卢杉 Shan Lu (id:1336362)

吴少雄 Alan Ng (id:1366356)

唐澄 Cheng Tang (id:1316912)

严定宪 Dingxian Yan (id:1282456)

◎简 介

在遥远的东方傲来国,一枚承受了日精月华的石头突然炸裂,从里面蹦出了一只石猴(李扬 饰)。石猴在附近的花果山占山为王,逍遥自在,好不快活。只可惜他虽天赋神力,却没有一件得心应手的兵器。在老猴的建议下,美猴王入龙宫,强从东海龙王(陈凯歌 饰)那里讨来定海神针金箍棒。龙王一纸诉状告到天庭,玉帝(陈道明 饰)接受太白金星(张国立 饰)的建议,先后将美猴王骗到天宫作弼马温、管理蟠桃园。发觉被骗的美猴王怒砸马栏、破坏蟠桃宴,返回花果山自命齐天大圣。由此和十万天兵天将展开了惊心动魄的大战……

本片根据中国古典四大名著之一的《西游记》改编,是上海美术电影制片厂经典名作的重新修复的版本。

  1. ##### MediaInfo ######

  2. General

  3. Complete name : 大闹天宫.The.Monkey.King.2012.2160p.WEB-DL.H265.DDP5.1-HDBWEB.mp4

  4. Format : MPEG-4

  5. Format profile : Base Media

  6. Codec ID : isom (isom/iso2/mp41)

  7. File size : 9.77 GiB

  8. Duration : 1 h 32 min

  9. Overall bit rate mode : Variable

  10. Overall bit rate : 15.2 Mb/s

  11. Writing application : OurTV Multimedia Platform

  12. Video

  13. ID : 1

  14. Format : HEVC

  15. Format/Info : High Efficiency Video Coding

  16. Format profile : [email protected]@Main

  17. Codec ID : hev1

  18. Codec ID/Info : High Efficiency Video Coding

  19. Duration : 1 h 32 min

  20. Bit rate : 14.8 Mb/s

  21. Width : 3 840 pixels

  22. Height : 2 160 pixels

  23. Display aspect ratio : 16:9

  24. Frame rate mode : Constant

  25. Frame rate : 25.000 FPS

  26. Standard : Component

  27. Color space : YUV

  28. Chroma subsampling : 4:2:0

  29. Bit depth : 8 bits

  30. Bits/(Pixel*Frame) : 0.071

  31. Stream size : 9.52 GiB (97%)

  32. Color range : Limited

  33. Codec configuration box : hvcC

  34. Audio #1

  35. ID : 2

  36. Format : E-AC-3

  37. Format/Info : Enhanced AC-3

  38. Commercial name : Dolby Digital Plus

  39. Codec ID : ec-3

  40. Duration : 1 h 32 min

  41. Bit rate mode : Constant

  42. Bit rate : 192 kb/s

  43. Channel(s) : 6 channels

  44. Channel layout : L R C LFE Ls Rs

  45. Sampling rate : 48.0 kHz

  46. Frame rate : 31.250 FPS (1536 SPF)

  47. Compression mode : Lossy

  48. Stream size : 127 MiB (1%)

  49. Title : 国语DDP5.1

  50. Language : Chinese

  51. Service kind : Complete Main

  52. Default : Yes

  53. Alternate group : 1

  54. Audio #2

  55. ID : 3

  56. Format : AAC LC

  57. Format/Info : Advanced Audio Codec Low Complexity

  58. Codec ID : mp4a-40-2

  59. Duration : 1 h 32 min

  60. Bit rate mode : Variable

  61. Bit rate : 192 kb/s

  62. Channel(s) : 2 channels

  63. Channel layout : L R

  64. Sampling rate : 48.0 kHz

  65. Frame rate : 46.875 FPS (1024 SPF)

  66. Compression mode : Lossy

  67. Stream size : 125 MiB (1%)

  68. Title : 国语AAC2.0

  69. Language : Chinese

  70. Default : No

  71. Alternate group : 1


复制代码



文件下载


除非特别注明,本文『大闹天宫[国语配音].The.Monkey.King.2012.2160p.WEB-DL.H265.DDP5.1-HDBWEB 9.77GB』来源于互联网机器人自动抓取,非本站原创。 浮游电影网不对本文拥有版权,如有侵犯,请联系邮箱:fuyouu#yandex.com[#换成@]投诉。我们会在15个工作日内删除。 但烦请转载时请标明出处:“本文转载于『浮游电影网』,原文地址:https://www.fuyouu.com/22418.html

评论吧骚年!

发表你的见解   

昵称*

E-mail*(建议输入,以便收到博主回复的提示邮件)

验证码*

您可以使用eMule或eMule Mod(Windows)、aMule(Win、Linux、Mac)等软件下载eD2k链接。。
eMule收藏集(.emulecollection)文件是您选中的所有链接的列表文件。eMule可以直接下载它们。
按住SHIFT键选择可以选中多个选择框。
可用文件名和大小选择器来选择文件。
文件名选择器帮您根据文件名称或后缀来选择文件。不分大小写。
符号使用:
和:空格( )、+
不包含:-
或:|
转义:一对英文引号("");
匹配开头:^
匹配结尾:$
例如:
选中所有名称中包含有“eMule”或“0.49c”字眼,但不包含有“exe”字眼的:emule|0.49c -exe
选中所有名称的开头是“eMule”,结尾是“0.49c”的:^emule 0.49c$
选中所有名称中带有“eMule 0.49c”的(必须是“eMule 0.49c”,中间没有别的字符,不能是“eMule fake 0.49c”),需要转义:"emule 0.49c"
大小选择器帮您根据文件大小选择文件。