当前位置: 首页 >> 欧美电影 >> 亡灵[中文字幕].The.Revenant.2009.1080p.BluRay.DTS.x265-10bit-ENTHD 6.49GB >> 正文

亡灵[中文字幕].The.Revenant.2009.1080p.BluRay.DTS.x265-10bit-ENTHD 6.49GB

2022年05月31日 22:47:20     电影发布:来源于网络     电影分类:欧美电影     评论(0)    

◎译 名 亡灵 / 丧尸侠

◎片 名 The Revenant

◎年 代 2009

◎产 地 美国

◎类 别 喜剧 / 恐怖

◎语 言 英语

◎上映日期 2009-09-26(奥斯丁奇幻电影节)

◎IMDb链接 https://www.imdb.com/title/tt1336006/

◎豆瓣评分 7.3/10 (24233人评价)

◎豆瓣链接 https://movie.douban.com/subject/3792868/

◎片 长 117分钟

◎导 演 D·凯瑞·普瑞尔 D. Kerry Prior (id:1318969)

◎编 剧 D·凯瑞·普瑞尔 D. Kerry Prior (id:1318969)

◎演 员 大卫·安德斯 David Anders (id:1031984)

克里斯·维尔德 Chris Wylde (id:1165101)

路易斯·格里菲斯 Louise Griffiths (id:1331130)

贝尔纳多·巴迪罗 Bernardo Badillo (id:1259073)

Wally White (id:1225932)

马克·埃利亚斯 Mark Elias (id:1182024)

Zoe Simpson Zoe Simpson (id:1184865)

大卫·圣.詹姆斯 David St. James (id:1154210)

Brooke Bickford (id:1263053)

Michael J. Gonzalez (id:1239260)

凯西·史 Cathy Shim (id:1224933)

Braxton Davis Braxton Davis (id:1216838)

Jonathan Mangum Jonathan Mangum (id:1123172)

Jeff Rector Jeff Rector (id:1050529)

Jacques Thelemaque Jacques Thelemaque (id:1299108)

Tara Loren (id:1242843)

Chris Mills III Chris Mills III (id:1125715)

◎简 介

巴特(大卫·安德斯 David Anders 饰)是一名军人,一次行动中,他不幸中枪死亡,而就在他的遗体入土没多久,巴特竟然复活了。有些搞不清楚状况的巴特找到了生前的好友乔伊(克里斯·维尔德 Chris Wylde 饰),经过两人的反复研究和论证,他们得出了结论——巴特变成了丧尸,并且要依靠吸血为生。

就这样,每到白天,巴特变回尸体,等到夜晚降临,他就生龙活虎起来。巴特对于鲜血的嗜求让乔伊十分困扰,经过商讨,一个绝妙的注意应运而生——既然必须吸食人血,那何不顺便消灭那些在洛杉矶像老鼠一样存在的肮脏和繁多的恶棍呢?说干就干,由丧尸和人类组成的惩奸除恶小分队诞生了。

  1. ##### MediaInfo ######

  2. General

  3. Unique ID : 95627119696129183912567370868952481875 (0x47F11D03508DD606B8A44EE9B5714053)

  4. Complete name : The.Revenant.2009.1080p.BluRay.DTS.x265-10bit-ENTHD.mkv

  5. Format : Matroska

  6. Format version : Version 4

  7. File size : 6.49 GiB

  8. Duration : 1 h 57 min

  9. Overall bit rate : 7 879 kb/s

  10. Movie name : The Revenant 2009 1080p BluRay DTS x265-10bit-HDS

  11. Encoded date : UTC 2022-05-31 00:58:47

  12. Writing application : mkvmerge v38.0.0 ('The Silent Type') 64-bit

  13. Writing library : libebml v1.3.9 + libmatroska v1.5.2

  14. Video

  15. ID : 1

  16. Format : HEVC

  17. Format/Info : High Efficiency Video Coding

  18. Format profile : Main [email protected]@High

  19. Codec ID : V_MPEGH/ISO/HEVC

  20. Duration : 1 h 57 min

  21. Bit rate : 6 333 kb/s

  22. Width : 1 920 pixels

  23. Height : 816 pixels

  24. Display aspect ratio : 2.35:1

  25. Frame rate mode : Constant

  26. Frame rate : 23.976 (24000/1001/53354) FPS

  27. Color space : YUV

  28. Chroma subsampling : 4:2:0

  29. Bit depth : 10 bits

  30. Bits/(Pixel*Frame) : 0.169

  31. Stream size : 5.21 GiB (80%)

  32. Title : @HDSky

  33. Writing library : x265 - H.265/HEVC codec

  34. Default : Yes

  35. Forced : No

  36. Audio

  37. ID : 2

  38. Format : DTS

  39. Format/Info : Digital Theater Systems

  40. Codec ID : A_DTS

  41. Duration : 1 h 57 min

  42. Bit rate mode : Constant

  43. Bit rate : 1 509 kb/s

  44. Channel(s) : 6 channels

  45. Channel layout : C L R Ls Rs LFE

  46. Sampling rate : 48.0 kHz

  47. Frame rate : 93.750 FPS (512 SPF)

  48. Bit depth : 24 bits

  49. Compression mode : Lossy

  50. Stream size : 1.24 GiB (19%)

  51. Title : English

  52. Language : English

  53. Default : Yes

  54. Forced : No

  55. Text #1

  56. ID : 3

  57. Format : PGS

  58. Muxing mode : zlib

  59. Codec ID : S_HDMV/PGS

  60. Codec ID/Info : Picture based subtitle format used on BDs/HD-DVDs

  61. Duration : 1 h 57 min

  62. Bit rate : 30.5 kb/s

  63. Count of elements : 8134

  64. Stream size : 25.7 MiB (0%)

  65. Title : CHS

  66. Language : Chinese

  67. Default : Yes

  68. Forced : No

  69. Text #2

  70. ID : 4

  71. Format : PGS

  72. Muxing mode : zlib

  73. Codec ID : S_HDMV/PGS

  74. Codec ID/Info : Picture based subtitle format used on BDs/HD-DVDs

  75. Duration : 1 h 57 min

  76. Bit rate : 31.6 kb/s

  77. Count of elements : 8134

  78. Stream size : 26.6 MiB (0%)

  79. Title : CHT

  80. Language : Chinese

  81. Default : No

  82. Forced : No

  83. Menu

  84. 00:00:00.000 : en:Chapter 01

  85. 00:12:58.736 : en:Chapter 02

  86. 00:22:15.751 : en:Chapter 03

  87. 00:30:34.624 : en:Chapter 04

  88. 00:40:58.998 : en:Chapter 05

  89. 00:50:52.841 : en:Chapter 06

  90. 00:57:45.545 : en:Chapter 07

  91. 01:08:24.100 : en:Chapter 08

  92. 01:21:39.144 : en:Chapter 09

  93. 01:30:49.027 : en:Chapter 10

  94. 01:42:21.344 : en:Chapter 11

  95. 01:54:15.265 : en:Chapter 12


复制代码



文件下载


除非特别注明,本文『亡灵[中文字幕].The.Revenant.2009.1080p.BluRay.DTS.x265-10bit-ENTHD 6.49GB』来源于互联网机器人自动抓取,非本站原创。 浮游电影网不对本文拥有版权,如有侵犯,请联系邮箱:fuyouu#yandex.com[#换成@]投诉。我们会在15个工作日内删除。 但烦请转载时请标明出处:“本文转载于『浮游电影网』,原文地址:https://www.fuyouu.com/22408.html

评论吧骚年!

发表你的见解   

昵称*

E-mail*(建议输入,以便收到博主回复的提示邮件)

验证码*

您可以使用eMule或eMule Mod(Windows)、aMule(Win、Linux、Mac)等软件下载eD2k链接。。
eMule收藏集(.emulecollection)文件是您选中的所有链接的列表文件。eMule可以直接下载它们。
按住SHIFT键选择可以选中多个选择框。
可用文件名和大小选择器来选择文件。
文件名选择器帮您根据文件名称或后缀来选择文件。不分大小写。
符号使用:
和:空格( )、+
不包含:-
或:|
转义:一对英文引号("");
匹配开头:^
匹配结尾:$
例如:
选中所有名称中包含有“eMule”或“0.49c”字眼,但不包含有“exe”字眼的:emule|0.49c -exe
选中所有名称的开头是“eMule”,结尾是“0.49c”的:^emule 0.49c$
选中所有名称中带有“eMule 0.49c”的(必须是“eMule 0.49c”,中间没有别的字符,不能是“eMule fake 0.49c”),需要转义:"emule 0.49c"
大小选择器帮您根据文件大小选择文件。