当前位置: 首页 >> 欧美电影 >> 北欧人[简繁英字幕].The.Northman.2022.1080p.BluRay.TrueHD.7.1.Atmos.x265-10bit-ENTHD 15.48GB >> 正文

北欧人[简繁英字幕].The.Northman.2022.1080p.BluRay.TrueHD.7.1.Atmos.x265-10bit-ENTHD 15.48GB

2022年05月31日 22:46:34     电影发布:来源于网络     电影分类:欧美电影     评论(0)    

◎译 名 北欧人 / 北方人(台)

◎片 名 The Northman

◎年 代 2022

◎产 地 美国

◎类 别 剧情

◎语 言 英语

◎上映日期 2022-04-15(英国) / 2022-04-22(美国) / 2022-05-13(美国网络)

◎IMDb链接 https://www.imdb.com/title/tt11138512/

◎豆瓣评分 6.4/10 (14005人评价)

◎豆瓣链接 https://movie.douban.com/subject/34861178/

◎片 长 137分钟

◎导 演 罗伯特·艾格斯 Robert Eggers (id:1351393)

◎编 剧 罗伯特·艾格斯 Robert Eggers (id:1351393)

秀恩·西古尔德森 Sjón Sigurdsson (id:1052018)

◎演 员 亚历山大·斯卡斯加德 Alexander Skarsg?rd (id:1049485)

妮可·基德曼 Nicole Kidman (id:1054442)

克拉斯·邦 Claes Bang (id:1067129)

伊桑·霍克 Ethan Hawke (id:1018984)

安雅·泰勒-乔伊 Anya Taylor-Joy (id:1354934)

古斯塔夫·林德 Gustav Lindh (id:1413706)

艾略特·罗斯 Elliott Rose (id:1470646)

威廉·达福 Willem Dafoe (id:1010539)

菲尔·马丁 Phill Martin (id:1470647)

埃尔达·斯卡 Eldar Skar (id:1360101)

欧文·弗热瑞 Olwen Fouéré (id:1355887)

埃德加·阿布拉姆 Edgar Abram (id:1470650)

杰克·加斯曼 Jack Gassmann (id:1470651)

英格瓦·埃盖特·西古德松 Ingvar Eggert Siguresson (id:1041279)

奥斯卡·诺瓦克 Oscar Novak (id:1470648)

杰克·沃尔什 Jack Walsh (id:1363036)

比约克 Bj?rk (id:1054628)

伊恩·怀特 Ian Whyte (id:1183951)

凯蒂·帕廷森 Katie Pattinson (id:1470649)

凯特·迪基 Kate Dickie (id:1282399)

谢默斯·奥哈拉 Seamus O'Hara (id:1453625)

塔格·墨菲 Tadhg Murphy (id:1308673)

哈弗波·朱利尔斯·比昂森 Haftór Júlíus Bj?rnsson (id:1347773)

拉尔夫·伊内森 Ralph Ineson (id:1108378)

默里·麦克阿瑟 Murray McArthur (id:1117558)

乔恩·坎普林 Jon Campling (id:1218535)

迈克尔·舍费尔 Michael Schaefer (id:1355118)

露易丝·福特 Louise Ford (id:1450155)

Linda Muir (id:1471352)

◎简 介

一名年轻的维京王子,为了遭到谋杀的父亲,踏上一场冒险的复仇之路。

  1. ##### MediaInfo ######

  2. General

  3. Unique ID : 88122468689731842294931270405420032603 (0x424BC526BBF9632BE9E7379882FD225B)

  4. Complete name : The.Northman.2022.1080p.BluRay.TrueHD.7.1.Atmos.x265-10bit-ENTHD.mkv

  5. Format : Matroska

  6. Format version : Version 4

  7. File size : 15.5 GiB

  8. Duration : 2 h 16 min

  9. Overall bit rate mode : Variable

  10. Overall bit rate : 16.2 Mb/s

  11. Movie name : The Northman 2022 1080p BluRay DD5.1 x265-10bit-HDS

  12. Encoded date : UTC 2022-05-30 06:56:56

  13. Writing application : mkvmerge v38.0.0 ('The Silent Type') 64-bit

  14. Writing library : libebml v1.3.9 + libmatroska v1.5.2

  15. Video

  16. ID : 1

  17. Format : HEVC

  18. Format/Info : High Efficiency Video Coding

  19. Format profile : Main [email protected]@High

  20. Codec ID : V_MPEGH/ISO/HEVC

  21. Duration : 2 h 16 min

  22. Bit rate : 11.2 Mb/s

  23. Width : 1 920 pixels

  24. Height : 960 pixels

  25. Display aspect ratio : 2.000

  26. Frame rate mode : Constant

  27. Frame rate : 23.976 (24000/1001/53354) FPS

  28. Color space : YUV

  29. Chroma subsampling : 4:2:0

  30. Bit depth : 10 bits

  31. Bits/(Pixel*Frame) : 0.254

  32. Stream size : 10.7 GiB (69%)

  33. Title : [email protected]

  34. Writing library : x265 - H.265/HEVC codec

  35. Default : Yes

  36. Forced : No

  37. Audio

  38. ID : 2

  39. Format : MLP FBA 16-ch

  40. Format/Info : Meridian Lossless Packing FBA with 16-channel presentation

  41. Commercial name : Dolby TrueHD with Dolby Atmos

  42. Codec ID : A_TRUEHD

  43. Duration : 2 h 16 min

  44. Bit rate mode : Variable

  45. Bit rate : 4 847 kb/s

  46. Maximum bit rate : 7 383 kb/s

  47. Channel(s) : 8 channels

  48. Channel layout : L R C LFE Ls Rs Lb Rb

  49. Sampling rate : 48.0 kHz

  50. Frame rate : 1 200.000 FPS (40 SPF)

  51. Compression mode : Lossless

  52. Stream size : 4.63 GiB (30%)

  53. Title : English

  54. Language : English

  55. Default : Yes

  56. Forced : No

  57. Number of dynamic objects : 11

  58. Bed channel count : 1 channel

  59. Bed channel configuration : LFE

  60. Text #1

  61. ID : 3

  62. Format : PGS

  63. Muxing mode : zlib

  64. Codec ID : S_HDMV/PGS

  65. Codec ID/Info : Picture based subtitle format used on BDs/HD-DVDs

  66. Duration : 2 h 7 min

  67. Bit rate : 25.4 kb/s

  68. Count of elements : 1610

  69. Stream size : 23.2 MiB (0%)

  70. Title : CHS&ENG

  71. Language : Chinese

  72. Default : Yes

  73. Forced : No

  74. Text #2

  75. ID : 4

  76. Format : PGS

  77. Muxing mode : zlib

  78. Codec ID : S_HDMV/PGS

  79. Codec ID/Info : Picture based subtitle format used on BDs/HD-DVDs

  80. Duration : 2 h 7 min

  81. Bit rate : 15.3 kb/s

  82. Count of elements : 1609

  83. Stream size : 14.0 MiB (0%)

  84. Title : CHS

  85. Language : Chinese

  86. Default : No

  87. Forced : No

  88. Text #3

  89. ID : 5

  90. Format : PGS

  91. Muxing mode : zlib

  92. Codec ID : S_HDMV/PGS

  93. Codec ID/Info : Picture based subtitle format used on BDs/HD-DVDs

  94. Duration : 2 h 7 min

  95. Bit rate : 25.9 kb/s

  96. Count of elements : 1610

  97. Stream size : 23.7 MiB (0%)

  98. Title : CHT&ENG

  99. Language : Chinese

  100. Default : No

  101. Forced : No

  102. Text #4

  103. ID : 6

  104. Format : PGS

  105. Muxing mode : zlib

  106. Codec ID : S_HDMV/PGS

  107. Codec ID/Info : Picture based subtitle format used on BDs/HD-DVDs

  108. Duration : 2 h 7 min

  109. Bit rate : 15.8 kb/s

  110. Count of elements : 1609

  111. Stream size : 14.4 MiB (0%)

  112. Title : CHT

  113. Language : Chinese

  114. Default : No

  115. Forced : No

  116. Text #5

  117. ID : 7

  118. Format : PGS

  119. Muxing mode : zlib

  120. Codec ID : S_HDMV/PGS

  121. Codec ID/Info : Picture based subtitle format used on BDs/HD-DVDs

  122. Duration : 2 h 7 min

  123. Bit rate : 30.9 kb/s

  124. Count of elements : 3098

  125. Stream size : 28.3 MiB (0%)

  126. Title : ENG

  127. Language : English

  128. Default : No

  129. Forced : No

  130. Menu

  131. 00:00:00.000 : en:Chapter 01

  132. 00:08:53.992 : en:Chapter 02

  133. 00:15:47.613 : en:Chapter 03

  134. 00:22:04.615 : en:Chapter 04

  135. 00:30:23.697 : en:Chapter 05

  136. 00:39:44.340 : en:Chapter 06

  137. 00:46:18.401 : en:Chapter 07

  138. 00:51:43.267 : en:Chapter 08

  139. 00:58:14.032 : en:Chapter 09

  140. 01:05:22.335 : en:Chapter 10

  141. 01:11:55.019 : en:Chapter 11

  142. 01:16:49.563 : en:Chapter 12

  143. 01:23:36.094 : en:Chapter 13

  144. 01:27:16.690 : en:Chapter 14

  145. 01:35:42.862 : en:Chapter 15

  146. 01:41:02.390 : en:Chapter 16

  147. 01:46:38.225 : en:Chapter 17

  148. 01:55:44.855 : en:Chapter 18

  149. 02:01:06.968 : en:Chapter 19

  150. 02:08:41.255 : en:Chapter 20


复制代码



文件下载


除非特别注明,本文『北欧人[简繁英字幕].The.Northman.2022.1080p.BluRay.TrueHD.7.1.Atmos.x265-10bit-ENTHD 15.48GB』来源于互联网机器人自动抓取,非本站原创。 浮游电影网不对本文拥有版权,如有侵犯,请联系邮箱:fuyouu#yandex.com[#换成@]投诉。我们会在15个工作日内删除。 但烦请转载时请标明出处:“本文转载于『浮游电影网』,原文地址:https://www.fuyouu.com/22407.html

评论吧骚年!

发表你的见解   

昵称*

E-mail*(建议输入,以便收到博主回复的提示邮件)

验证码*

您可以使用eMule或eMule Mod(Windows)、aMule(Win、Linux、Mac)等软件下载eD2k链接。。
eMule收藏集(.emulecollection)文件是您选中的所有链接的列表文件。eMule可以直接下载它们。
按住SHIFT键选择可以选中多个选择框。
可用文件名和大小选择器来选择文件。
文件名选择器帮您根据文件名称或后缀来选择文件。不分大小写。
符号使用:
和:空格( )、+
不包含:-
或:|
转义:一对英文引号("");
匹配开头:^
匹配结尾:$
例如:
选中所有名称中包含有“eMule”或“0.49c”字眼,但不包含有“exe”字眼的:emule|0.49c -exe
选中所有名称的开头是“eMule”,结尾是“0.49c”的:^emule 0.49c$
选中所有名称中带有“eMule 0.49c”的(必须是“eMule 0.49c”,中间没有别的字符,不能是“eMule fake 0.49c”),需要转义:"emule 0.49c"
大小选择器帮您根据文件大小选择文件。