当前位置: 首页 >> 港台电影 >> 新上海滩[国粤英多音轨/繁英字幕].Shanghai.Grand.1996.BluRay.1080p.2Audio.TrueHD.7.1.x265.10bit-ALT 11.41GB >> 正文

新上海滩[国粤英多音轨/繁英字幕].Shanghai.Grand.1996.BluRay.1080p.2Audio.TrueHD.7.1.x265.10bit-ALT 11.41GB

2022年05月31日 22:43:10     电影发布:来源于网络     电影分类:港台电影     评论(0)    

◎译 名 新上海滩 / Shanghai Grand

◎片 名 新上海灘

◎年 代 1996

◎产 地 中国香港

◎类 别 动作 / 惊悚 / 犯罪

◎语 言 粤语 / 汉语普通话 / 英语

◎上映日期 1996-07-13(中国香港)

◎IMDb链接 https://www.imdb.com/title/tt0117619/

◎豆瓣评分 7.7/10 (51252人评价)

◎豆瓣链接 https://movie.douban.com/subject/1293142/

◎片 长 96分钟

◎导 演 潘文杰 Man Kit Poon (id:1294725)

◎编 剧 邹凯光 Matt Chow (id:1275121)

潘文杰 Man Kit Poon (id:1294725)

邵丽琼 Sandy Shaw (id:1321540)

◎演 员 张国荣 Leslie Cheung (id:1003494)

刘德华 Andy Lau (id:1054424)

宁静 Jing Ning (id:1046132)

李蕙敏 Amanda Lee (id:1103819)

吴兴国 Hsing-kuo Wu (id:1301324)

刘洵 Shun Lau (id:1274304)

黄佩霞 Almen Wong Pui-Ha (id:1165716)

李健仁 Kin-Yan Lee (id:1315575)

郑雨盛 Woo-sung Jung (id:1032365)

张济平 Jiping Zhang (id:1329827)

陈健一 Kin-Yat Chan (id:1389327)

叶进 Chun Yip (id:1345684)

曹秋根 Qiugen Cao (id:1274774)

韩冬青 (id:1470910)

向华强 Charles Heung (id:1037691)

徐克 Hark Tsui (id:1007152)

馮鳳珍 Rita Fung (id:1441554)

胡伟立 Wai Lap Wu (id:1275249)

李厚襄 Hao Hsiang Li (id:1363111)

黄英华 Ying-Wah Wong (id:1301204)

马楚成 Jingle Ma (id:1280599)

潘恒生 Hang-Sang Poon (id:1294721)

萧楠 Nan Hsiao (id:1377596)

麦子善 Marco Mak (id:1280638)

余家安 Bruce Yu (id:1301555)

张世宏 Silver Cheung (id:1318916)

余家安 Bruce Yu (id:1301555)

邓汝好 Pat Tang Yu-Ho (id:1403989)

田启文 Kai Man Tin (id:1315882)

聂春申 Chunshen Nie (id:1396549)

麦启光 Albert Kai-kwong Mak (id:1349070)

周惠坤 Thomas Chow (id:1330717)

董玮 Wai Tung (id:1299617)

罗礼贤 Bruce Law (id:1289542)

白光 Guang Bai (id:1317326)

◎简 介

年轻军官许文强(张国荣)逃往路上被日本特务伏击堕海,漂浮到外滩岸上时身体不支晕倒,丁力(刘德华)路过欲将其救却遭其下意识的武力,两人一番打斗后结为好友。丁力偶然救下上海大亨冯敬尧(吴兴国)的千金冯程程(宁静)后,许下心愿要娶其为妻,但襄王有梦神女却心另有所属,冯程程只把他当好朋友,爱的恰是某次旅途中在火车上结识的他的好兄弟许文强,而许文强也因她的勇敢善良机智对她产生了好感。

许文强再次遇上冯程程时,激情没能控制,与丁力的交情画上句号。而当许文强与冯程程谈婚论嫁时,许文强意外发现冯敬尧正是追杀他和同僚的幕后黑手,他的身份也被对方认出,火药味顿时弥漫房间。

◎获奖情况 (共4项)

第16届香港电影金像奖 (1997)

最佳摄影(提名)

└──潘恒生 (id:1294721)

最佳美术指导(提名)

└──余家安 (id:1301555)

最佳服装造型设计(提名)

└──余家安 (id:1301555)

最佳动作设计(提名)

└──董玮 (id:1299617)

  1. ##### MediaInfo ######

  2. General

  3. Unique ID : 37693108143965320110844692830693161521 (0x1C5B6DB693A0BFE29D10982A27C0FA31)

  4. Complete name : Shanghai.Grand.1996.BluRay.1080p.2Audio.TrueHD.7.1.x265.10bit-ALT.mkv

  5. Format : Matroska

  6. Format version : Version 4

  7. File size : 11.4 GiB

  8. Duration : 1 h 35 min

  9. Overall bit rate mode : Variable

  10. Overall bit rate : 17.0 Mb/s

  11. Encoded date : UTC 2022-05-30 06:08:05

  12. Writing application : mkvmerge v49.0.0 ('Sick Of Losing Soulmates') 64-bit

  13. Writing library : libebml v1.4.0 + libmatroska v1.6.1

  14. Video

  15. ID : 1

  16. Format : HEVC

  17. Format/Info : High Efficiency Video Coding

  18. Format profile : Main [email protected]@High

  19. Codec ID : V_MPEGH/ISO/HEVC

  20. Duration : 1 h 35 min

  21. Bit rate : 11.0 Mb/s

  22. Width : 1 920 pixels

  23. Height : 1 080 pixels

  24. Display aspect ratio : 16:9

  25. Frame rate mode : Constant

  26. Frame rate : 24.000 FPS

  27. Color space : YUV

  28. Chroma subsampling : 4:2:0

  29. Bit depth : 10 bits

  30. Bits/(Pixel*Frame) : 0.221

  31. Stream size : 7.37 GiB (65%)

  32. Title : HEVC, [email protected]@High, 24 fps @ 11007 kbps

  33. Writing library : x265 3.5+36-1f2c8da77:[Windows][GCC 11.2.0][64 bit] 10bit

  34. Encoding settings : cpuid=533541049583 / frame-threads=2 / numa-pools=4 / wpp / no-pmode / no-pme / no-psnr / no-ssim / log-level=2 / input-csp=1 / input-res=1920x1080 / interlace=0 / total-frames=138062 / level-idc=51 / high-tier=1 / uhd-bd=0 / ref=5 / no-allow-non-conformance / no-repeat-headers / annexb / no-aud / no-eob / no-eos / no-hrd / info / hash=0 / no-temporal-layers / open-gop / min-keyint=24 / keyint=240 / gop-lookahead=0 / bframes=6 / b-adapt=2 / b-pyramid / bframe-bias=0 / rc-lookahead=40 / lookahead-slices=0 / NTMzNTQ=uuDQuD2mJt9fsCf / scenecut=40 / no-hist-scenecut / radl=0 / no-splice / no-intra-refresh / ctu=32 / min-cu-size=8 / no-rect / no-amp / max-tu-size=32 / tu-inter-depth=3 / tu-intra-depth=3 / limit-tu=4 / rdoq-level=2 / dynamic-rd=0.00 / no-ssim-rd / signhide / no-tskip / nr-intra=0 / nr-inter=0 / no-constrained-intra / no-strong-intra-smoothing / max-merge=4 / limit-refs=1 / limit-modes / me=3 / subme=4 / merange=25 / temporal-mvp / no-frame-dup / no-hme / weightp / weightb / no-analyze-src-pics / deblock=-3:-3 / no-sao / no-sao-non-deblock / rd=6 / selective-sao=0 / no-early-skip / rskip / no-fast-intra / no-tskip-fast / no-cu-lossless / b-intra / no-splitrd-skip / rdpenalty=0 / psy-rd=2.00 / psy-rdoq=1.00 / no-rd-refine / no-lossless / cbqpoffs=-2 / crqpoffs=-2 / rc=crf / crf=17.0 / qcomp=0.65 / qpstep=4 / stats-write=0 / stats-read=0 / vbv-maxrate=80000 / vbv-bufsize=80000 / vbv-init=0.9 / min-vbv-fullness=50.0 / max-vbv-fullness=80.0 / crf-max=0.0 / crf-min=0.0 / ipratio=1.40 / pbratio=1.30 / aq-mode=2 / aq-strength=0.85 / cutree / zone-count=0 / no-strict-cbr / qg-size=32 / no-rc-grain / qpmax=69 / qpmin=0 / no-const-vbv / sar=1 / overscan=0 / videoformat=5 / range=0 / colorprim=1 / transfer=1 / colormatrix=1 / chromaloc=0 / display-window=0 / cll=0,0 / min-luma=0 / max-luma=1023 / log2-max-poc-lsb=8 / vui-timing-info / vui-hrd-info / slices=1 / no-opt-qp-pps / no-opt-ref-list-length-pps / no-multi-pass-opt-rps / scenecut-bias=0.05 / hist-threshold=0.03 / no-opt-cu-delta-qp / no-aq-motion / no-hdr10 / no-hdr10-opt / no-dhdr10-opt / no-idr-recovery-sei / analysis-reuse-level=0 / analysis-save-reuse-level=0 / analysis-load-reuse-level=0 / scale-factor=0 / refine-intra=0 / refine-inter=0 / refine-mv=1 / refine-ctu-distortion=0 / no-limit-sao / ctu-info=0 / no-lowpass-dct / refine-analysis-type=0 / copy-pic=1 / max-ausize-factor=1.0 / no-dynamic-refine / no-single-sei / no-hevc-aq / no-svt / no-field / qp-adaptation-range=1.00 / scenecut-aware-qp=0conformance-window-offsets / right=0 / bottom=0 / NTMzNTQ= / decoder-max-rate=0 / no-vbv-live-multi-pass

  35. Language : English

  36. Default : Yes

  37. Forced : No

  38. Color range : Limited

  39. Color primaries : BT.709

  40. Transfer characteristics : BT.709

  41. Matrix coefficients : BT.709

  42. Audio #1

  43. ID : 2

  44. Format : MLP FBA

  45. Format/Info : Meridian Lossless Packing FBA

  46. Commercial name : Dolby TrueHD

  47. Codec ID : A_TRUEHD

  48. Duration : 1 h 35 min

  49. Bit rate mode : Variable

  50. Bit rate : 4 627 kb/s

  51. Maximum bit rate : 6 357 kb/s

  52. Channel(s) : 8 channels

  53. Channel layout : L R C LFE Ls Rs Lb Rb

  54. Sampling rate : 48.0 kHz

  55. Frame rate : 1 200.000 FPS (40 SPF)

  56. Compression mode : Lossless

  57. Stream size : 3.09 GiB (27%)

  58. Title : Cantonese Dolby TrueHD 7.1 @ 4619 kbps

  59. Language : Chinese

  60. Default : Yes

  61. Forced : No

  62. Audio #2

  63. ID : 3

  64. Format : AC-3

  65. Format/Info : Audio Coding 3

  66. Commercial name : Dolby Digital

  67. Codec ID : A_AC3

  68. Duration : 1 h 35 min

  69. Bit rate mode : Constant

  70. Bit rate : 640 kb/s

  71. Channel(s) : 6 channels

  72. Channel layout : L R C LFE Ls Rs

  73. Sampling rate : 48.0 kHz

  74. Frame rate : 31.250 FPS (1536 SPF)

  75. Compression mode : Lossy

  76. Stream size : 438 MiB (4%)

  77. Title : Cantonese Dolby Digital Audio 5.1 @ 640 kbps

  78. Language : Chinese

  79. Service kind : Complete Main

  80. Default : No

  81. Forced : No

  82. Audio #3

  83. ID : 4

  84. Format : AC-3

  85. Format/Info : Audio Coding 3

  86. Commercial name : Dolby Digital

  87. Codec ID : A_AC3

  88. Duration : 1 h 35 min

  89. Bit rate mode : Constant

  90. Bit rate : 640 kb/s

  91. Channel(s) : 6 channels

  92. Channel layout : L R C LFE Ls Rs

  93. Sampling rate : 48.0 kHz

  94. Frame rate : 31.250 FPS (1536 SPF)

  95. Compression mode : Lossy

  96. Stream size : 438 MiB (4%)

  97. Title : Mandarin Dolby Digital Audio 5.1 @ 640 kbps

  98. Language : Chinese

  99. Service kind : Complete Main

  100. Default : No

  101. Forced : No

  102. Text #1

  103. ID : 5

  104. Format : PGS

  105. Codec ID : S_HDMV/PGS

  106. Codec ID/Info : Picture based subtitle format used on BDs/HD-DVDs

  107. Duration : 1 h 31 min

  108. Bit rate : 30.3 kb/s

  109. Count of elements : 1808

  110. Stream size : 19.9 MiB (0%)

  111. Title : Cht/SUP 原盘繁体

  112. Language : Chinese

  113. Default : Yes

  114. Forced : No

  115. Text #2

  116. ID : 6

  117. Format : PGS

  118. Codec ID : S_HDMV/PGS

  119. Codec ID/Info : Picture based subtitle format used on BDs/HD-DVDs

  120. Duration : 1 h 31 min

  121. Bit rate : 27.7 kb/s

  122. Count of elements : 1808

  123. Stream size : 18.2 MiB (0%)

  124. Title : Eng/SUP

  125. Language : English

  126. Default : No

  127. Forced : No

  128. Menu

  129. 00:00:00.000 : en:第 01 章

  130. 00:07:22.042 : en:第 02 章

  131. 00:10:01.333 : en:第 03 章

  132. 00:15:47.000 : en:第 04 章

  133. 00:20:45.500 : en:第 05 章

  134. 00:26:16.000 : en:第 06 章

  135. 00:28:16.042 : en:第 07 章

  136. 00:33:43.542 : en:第 08 章

  137. 00:38:28.958 : en:第 09 章

  138. 00:42:57.083 : en:第 10 章

  139. 00:47:29.917 : en:第 11 章

  140. 00:51:23.292 : en:第 12 章

  141. 00:55:42.000 : en:第 13 章

  142. 01:02:31.000 : en:第 14 章

  143. 01:07:50.667 : en:第 15 章

  144. 01:11:44.042 : en:第 16 章

  145. 01:15:51.917 : en:第 17 章

  146. 01:20:21.250 : en:第 18 章

  147. 01:24:14.083 : en:第 19 章

  148. 01:29:11.667 : en:第 20 章


复制代码



文件下载


除非特别注明,本文『新上海滩[国粤英多音轨/繁英字幕].Shanghai.Grand.1996.BluRay.1080p.2Audio.TrueHD.7.1.x265.10bit-ALT 11.41GB』来源于互联网机器人自动抓取,非本站原创。 浮游电影网不对本文拥有版权,如有侵犯,请联系邮箱:fuyouu#yandex.com[#换成@]投诉。我们会在15个工作日内删除。 但烦请转载时请标明出处:“本文转载于『浮游电影网』,原文地址:https://www.fuyouu.com/22403.html

评论吧骚年!

发表你的见解   

昵称*

E-mail*(建议输入,以便收到博主回复的提示邮件)

验证码*

您可以使用eMule或eMule Mod(Windows)、aMule(Win、Linux、Mac)等软件下载eD2k链接。。
eMule收藏集(.emulecollection)文件是您选中的所有链接的列表文件。eMule可以直接下载它们。
按住SHIFT键选择可以选中多个选择框。
可用文件名和大小选择器来选择文件。
文件名选择器帮您根据文件名称或后缀来选择文件。不分大小写。
符号使用:
和:空格( )、+
不包含:-
或:|
转义:一对英文引号("");
匹配开头:^
匹配结尾:$
例如:
选中所有名称中包含有“eMule”或“0.49c”字眼,但不包含有“exe”字眼的:emule|0.49c -exe
选中所有名称的开头是“eMule”,结尾是“0.49c”的:^emule 0.49c$
选中所有名称中带有“eMule 0.49c”的(必须是“eMule 0.49c”,中间没有别的字符,不能是“eMule fake 0.49c”),需要转义:"emule 0.49c"
大小选择器帮您根据文件大小选择文件。