当前位置: 首页 >> 欧美电影 >> 四十七浪人[中文字幕].47.Ronin.2013.2160p.HDR.UHD.BluRay.DTS.x265-10bit-ENTHD 7.32GB >> 正文

四十七浪人[中文字幕].47.Ronin.2013.2160p.HDR.UHD.BluRay.DTS.x265-10bit-ENTHD 7.32GB

2022年05月31日 22:19:26     电影发布:来源于网络     电影分类:欧美电影     评论(0)    

◎译 名 四十七浪人 / 浪人四十七 / 浪魂 47(港)

◎片 名 47 Ronin

◎年 代 2013

◎产 地 美国

◎类 别 剧情 / 动作 / 奇幻

◎语 言 英语 / 日语

◎上映日期 2013-12-06(日本) / 2013-12-25(美国)

◎IMDb链接 https://www.imdb.com/title/tt1335975/

◎豆瓣评分 5.7/10 (16690人评价)

◎豆瓣链接 https://movie.douban.com/subject/3326730/

◎片 长 119分钟

◎导 演 卡尔·瑞奇 Carl Rinsch (id:1331891)

◎编 剧 卡尔·瑞奇 Carl Rinsch (id:1331891)

霍辛·阿米尼 Hossein Amini (id:1277162)

克里斯·摩根 Chris Morgan (id:1347624)

◎演 员 基努·里维斯 Keanu Reeves (id:1008070)

真田广之 Hiroyuki Sanada (id:1027879)

柴崎幸 Kou Shibasaki (id:1141865)

浅野忠信 Tadanobu Asano (id:1036630)

田中泯 Min Tanaka (id:1298890)

赤西仁 Jin Akanishi (id:1010762)

羽田正义 Masayoshi Haneda (id:1340067)

中岛书 Sh? Nakajima (id:1389589)

田川洋行 Cary-Hiroyuki Tagawa (id:1149250)

尼尔·芬格尔顿 Neil Fingleton (id:1242769)

菊地凛子 Rinko Kikuchi (id:1014006)

国元夏希 Natsuki Kunimoto (id:1423286)

伊川东吾 Togo Igawa (id:1027483)

塔洛·艾什达 Tanroh Ishida (id:1354895)

出合正幸 Masayuki Deai (id:1008922)

约里克·范·韦杰宁根 Yorick van Wageningen (id:1000669)

梶冈润一 Junichi Kajioka (id:1233386)

克莱德·草津 Clyde Kusatsu (id:1103253)

安部春香 Haruka Abe (id:1253645)

小家山晃 Akira Koieyama (id:1318158)

藤本正史 Masashi Fujimoto (id:1196734)

渡边戈登 Gedde Watanabe (id:1162629)

瑞克·格内斯特 Rick Genest (id:1331845)

罗恩·博蒂塔 Ron Bottitta (id:1172334)

维多利亚·格蕾丝 Victoria Grace (id:1438057)

Raiden Integra Raiden Integra (id:1346037)

李镇男 Aaron Lee (id:1384221)

斯蒂芬·斯坦顿 Stephen Stanton (id:1336403)

希·伍辛 Hiu Woong-Sin (id:1371114)

彼得·奥索·斯内尔 Peter Oso Snell (id:1338068)

安德鲁·西尔弗 Andrew Silver (id:1338067)

扬·鲁洛尔夫斯 Jan Roelfs (id:1295893)

莱斯利·汤姆金斯 Leslie Tomkins (id:1299377)

大卫·R·艾里斯 David R. Ellis (id:1050082)

张鹏 Peng Zhang (id:1307141)

杨亮 Liang Yang (id:1398252)

张鹏 Peng Zhang (id:1307141)

◎简 介

古老的日本进入江户时代,德川幕府闭关锁国,维持着与世隔绝的和平和将军家的绝对统治。五代将军纲吉(田川洋行 饰)在吉良上野介(浅野忠信 饰)的陪同下造访浅野内匠头(田中泯 饰)所领导的播州赤穗藩。吉良阴险狭隘,野心勃勃,他利用妖女美月(菊地凛子 饰)迷惑浅野藩主,令其对吉良挥刀相向。震怒的将军责令浅野切腹,并严禁赤穗藩的家老大石内藏助(真田广之 饰)挟私报复。高傲的武士们一瞬间沦为浪人,而藩主自由收养的混血儿魁(基努·李维斯 Keanu Reeves 饰)更遭到不公的对待。经过一段时间的忍辱负重,大石将四十六位忠勇的赤穗藩武士集结麾下,暗中展开针对吉良的复仇。他辗转找到了魁,自幼爱慕藩主女儿美伽(柴崎幸 饰)的魁,为了防止心上人被吉良玷污,选择加入了复仇集团。

四十七浪人的经典故事,以别样的形式呈现出来……

◎获奖情况 (共1项)

第61届美国音效剪辑协会奖 (2014)

金卷轴奖 最佳配乐剪辑(提名)

  1. ##### MediaInfo ######

  2. General

  3. Unique ID : 278315660669815659606362240628488395740 (0xD161A58035F6B5BEAFDE69D9DBDBDBDC)

  4. Complete name : 47.Ronin.2013.2160p.HDR.UHD.BluRay.DTS.x265-10bit-ENTHD.mkv

  5. Format : Matroska

  6. Format version : Version 4

  7. File size : 7.32 GiB

  8. Duration : 1 h 58 min

  9. Overall bit rate : 8 838 kb/s

  10. Movie name : 47 Ronin 2013 2160p HDR UHD BluRay DTS x265-10bit-HDS

  11. Encoded date : UTC 2022-05-30 00:37:59

  12. Writing application : mkvmerge v67.0.0 ('Under Stars') 64-bit

  13. Writing library : libebml v1.4.2 + libmatroska v1.6.4

  14. Video

  15. ID : 1

  16. Format : HEVC

  17. Format/Info : High Efficiency Video Coding

  18. Format profile : Main [email protected]@High

  19. HDR format : SMPTE ST 2086, HDR10 compatible

  20. Codec ID : V_MPEGH/ISO/HEVC

  21. Duration : 1 h 58 min

  22. Bit rate : 7 296 kb/s

  23. Width : 3 840 pixels

  24. Height : 1 600 pixels

  25. Display aspect ratio : 2.40:1

  26. Frame rate mode : Constant

  27. Frame rate : 23.976 (24000/1001/53354) FPS

  28. Color space : YUV

  29. Chroma subsampling : 4:2:0

  30. Bit depth : 10 bits

  31. Bits/(Pixel*Frame) : 0.050

  32. Stream size : 6.04 GiB (83%)

  33. Title : @HDSky

  34. Writing library : x265 - H.265/HEVC codec

  35. Default : Yes

  36. Forced : No

  37. Color range : Limited

  38. Color primaries : BT.2020

  39. Transfer characteristics : PQ

  40. Matrix coefficients : BT.2020 non-constant

  41. Mastering display color primaries : Display P3

  42. Mastering display luminance : min: 0.0020 cd/m2, max: 1000 cd/m2

  43. Maximum Content Light Level : 739 cd/m2

  44. Maximum Frame-Average Light Level : 331 cd/m2

  45. Audio

  46. ID : 2

  47. Format : DTS

  48. Format/Info : Digital Theater Systems

  49. Codec ID : A_DTS

  50. Duration : 1 h 58 min

  51. Bit rate mode : Constant

  52. Bit rate : 1 509 kb/s

  53. Channel(s) : 6 channels

  54. Channel layout : C L R Ls Rs LFE

  55. Sampling rate : 48.0 kHz

  56. Frame rate : 93.750 FPS (512 SPF)

  57. Bit depth : 24 bits

  58. Compression mode : Lossy

  59. Stream size : 1.25 GiB (17%)

  60. Title : English

  61. Language : English

  62. Default : Yes

  63. Forced : No

  64. Text #1

  65. ID : 3

  66. Format : PGS

  67. Muxing mode : zlib

  68. Codec ID : S_HDMV/PGS

  69. Codec ID/Info : Picture based subtitle format used on BDs/HD-DVDs

  70. Duration : 1 h 47 min

  71. Bit rate : 12.7 kb/s

  72. Count of elements : 1168

  73. Stream size : 9.76 MiB (0%)

  74. Title : CHS

  75. Language : Chinese

  76. Default : Yes

  77. Forced : No

  78. Text #2

  79. ID : 4

  80. Format : PGS

  81. Muxing mode : zlib

  82. Codec ID : S_HDMV/PGS

  83. Codec ID/Info : Picture based subtitle format used on BDs/HD-DVDs

  84. Duration : 1 h 47 min

  85. Bit rate : 12.9 kb/s

  86. Count of elements : 1168

  87. Stream size : 9.94 MiB (0%)

  88. Title : CHT

  89. Language : Chinese

  90. Default : Yes

  91. Forced : No

  92. Text #3

  93. ID : 5

  94. Format : PGS

  95. Muxing mode : zlib

  96. Codec ID : S_HDMV/PGS

  97. Codec ID/Info : Picture based subtitle format used on BDs/HD-DVDs

  98. Duration : 1 h 47 min

  99. Bit rate : 21.2 kb/s

  100. Count of elements : 1169

  101. Stream size : 16.4 MiB (0%)

  102. Title : CHS&ENG

  103. Language : Chinese

  104. Default : Yes

  105. Forced : No

  106. Text #4

  107. ID : 6

  108. Format : PGS

  109. Muxing mode : zlib

  110. Codec ID : S_HDMV/PGS

  111. Codec ID/Info : Picture based subtitle format used on BDs/HD-DVDs

  112. Duration : 1 h 47 min

  113. Bit rate : 21.5 kb/s

  114. Count of elements : 1169

  115. Stream size : 16.5 MiB (0%)

  116. Title : CHT&ENG

  117. Language : Chinese

  118. Default : Yes

  119. Forced : No

  120. Menu

  121. 00:00:00.000 : en:第 01 章

  122. 00:04:27.559 : en:第 02 章

  123. 00:11:12.088 : en:第 03 章

  124. 00:16:27.820 : en:第 04 章

  125. 00:20:11.836 : en:第 05 章

  126. 00:26:52.319 : en:第 06 章

  127. 00:31:02.944 : en:第 07 章

  128. 00:36:10.627 : en:第 08 章

  129. 00:43:36.614 : en:第 09 章

  130. 00:50:14.511 : en:第 10 章

  131. 00:54:59.421 : en:第 11 章

  132. 00:59:54.049 : en:第 12 章

  133. 01:09:57.735 : en:第 13 章

  134. 01:13:59.018 : en:第 14 章

  135. 01:19:12.247 : en:第 15 章

  136. 01:24:17.386 : en:第 16 章

  137. 01:33:00.825 : en:第 17 章

  138. 01:38:55.555 : en:第 18 章

  139. 01:44:41.609 : en:第 19 章

  140. 01:48:38.303 : en:第 20 章


复制代码



文件下载


除非特别注明,本文『四十七浪人[中文字幕].47.Ronin.2013.2160p.HDR.UHD.BluRay.DTS.x265-10bit-ENTHD 7.32GB』来源于互联网机器人自动抓取,非本站原创。 浮游电影网不对本文拥有版权,如有侵犯,请联系邮箱:fuyouu#yandex.com[#换成@]投诉。我们会在15个工作日内删除。 但烦请转载时请标明出处:“本文转载于『浮游电影网』,原文地址:https://www.fuyouu.com/22387.html

评论吧骚年!

发表你的见解   

昵称*

E-mail*(建议输入,以便收到博主回复的提示邮件)

验证码*

您可以使用eMule或eMule Mod(Windows)、aMule(Win、Linux、Mac)等软件下载eD2k链接。。
eMule收藏集(.emulecollection)文件是您选中的所有链接的列表文件。eMule可以直接下载它们。
按住SHIFT键选择可以选中多个选择框。
可用文件名和大小选择器来选择文件。
文件名选择器帮您根据文件名称或后缀来选择文件。不分大小写。
符号使用:
和:空格( )、+
不包含:-
或:|
转义:一对英文引号("");
匹配开头:^
匹配结尾:$
例如:
选中所有名称中包含有“eMule”或“0.49c”字眼,但不包含有“exe”字眼的:emule|0.49c -exe
选中所有名称的开头是“eMule”,结尾是“0.49c”的:^emule 0.49c$
选中所有名称中带有“eMule 0.49c”的(必须是“eMule 0.49c”,中间没有别的字符,不能是“eMule fake 0.49c”),需要转义:"emule 0.49c"
大小选择器帮您根据文件大小选择文件。