当前位置: 首页 >> 欧美电影 >> 神奇动物:邓布利多之谜[简繁英字幕].Fantastic.Beasts.The.Secrets.of.Dumbledore.2022.2160p.HMAX.WEB-DL.HDR.HEVC.Atmos. >> 正文

神奇动物:邓布利多之谜[简繁英字幕].Fantastic.Beasts.The.Secrets.of.Dumbledore.2022.2160p.HMAX.WEB-DL.HDR.HEVC.Atmos.

2022年05月31日 22:17:23     电影发布:来源于网络     电影分类:欧美电影     评论(0)    

神奇动物:邓布利多之谜[简繁英字幕].Fantastic.Beasts.The.Secrets.of.Dumbledore.2022.2160p.HMAX.WEB-DL.HDR.HEVC.Atmos.DDP5.1-OPT 18.01GB

◎译 名 神奇动物:邓布利多之谜 / 神奇动物在哪里3:邓布利多之谜 / 神奇生物在哪里3 / 怪兽与邓不利多的秘密(港 / 台)

◎片 名 Fantastic Beasts: The Secrets of Dumbledore

◎年 代 2022

◎产 地 英国 / 美国

◎类 别 奇幻 / 冒险

◎语 言 英语 / 德语

◎上映日期 2022-04-08(英国/中国大陆) / 2022-04-15(美国)

◎IMDb链接 https://www.imdb.com/title/tt4123432/

◎豆瓣评分 6.0/10 (135831人评价)

◎豆瓣链接 https://movie.douban.com/subject/26147418/

◎片 长 142分钟

◎导 演 大卫·叶茨 David Yates (id:1275147)

◎编 剧 J. K. 罗琳 J. K. Rowling (id:1022772)

史蒂夫·克洛夫斯 Steve Kloves (id:1107737)

◎演 员 埃迪·雷德梅恩 Eddie Redmayne (id:1010503)

裘德·洛 Jude Law (id:1010510)

麦斯·米科尔森 Mads Mikkelsen (id:1040529)

丹·福勒 Dan Fogler (id:1027317)

艾莉森·萨多尔 Alison Sudol (id:1350625)

凯瑟琳·沃特斯顿 Katherine Waterston (id:1316589)

埃兹拉·米勒 Ezra Miller (id:1313037)

卡勒姆·特纳 Callum Turner (id:1328007)

杰西卡·威廉姆斯 Jessica Williams (id:1189267)

理查德·柯伊尔 Richard Coyle (id:1031846)

波佩·科比-特曲 Poppy Corby-Tuech (id:1337282)

维多利亚·耶茨 Victoria Yeates (id:1397745)

威廉·纳迪兰 William Nadylam (id:1361420)

奥利弗·马苏奇 Oliver Masucci (id:1356578)

瓦莱丽·帕赫纳 Valerie Pachner (id:1376990)

亚历山大·库兹涅佐夫 Aleksandr Kuznetsov (id:1400621)

拉莫娜·库泽-莉比诺 Ramona Kunze-Libnow (id:1371863)

马丽娅·费尔南达·康基多 Maria Fernanda Candido (id:1069306)

戴夫·王 Dave Wong (id:1468526)

维尔夫·斯科尔丁 Wilf Scolding (id:1422221)

卢卡斯·英格兰德 Lucas Englander (id:1420361)

菲奥娜·格拉斯科特 Fiona Glascott (id:1094753)

马提亚斯·布伦纳 Matthias Brenner (id:1068895)

彼得·西蒙尼舍克 Peter Simonischek (id:1155835)

雅基·波特斯万 Jacqui Boatswain (id:1278852)

赫柏·贝尔德索尔 Hebe Beardsall (id:1315461)

曼努埃尔·克莱因 Manuel Klein (id:1107683)

凯文·格思里 Kevin Guthrie (id:1335226)

詹姆斯·纽顿·霍华德 James Newton Howard (id:1019135)

乔治·瑞奇蒙 George Richmond (id:1434359)

柯琳·阿特伍德 Colleen Atwood (id:1277560)

◎简 介

阿不思·邓布利多教授(裘德·洛 饰)意识到强大的黑巫师盖勒特·格林德沃(麦斯·米科尔森 饰)正试图夺取魔法世界的控制权。邓布利多了解仅凭他一人之力,将无法阻止格林德沃,于是他委托魔法动物学家纽特·斯卡曼德(埃迪·雷德梅恩 饰)带领一支精良的团队——成员包括男巫、女巫及一位勇敢的麻瓜面包师,来共同执行这项危险任务。一路上他们会遇到各式各样的神奇动物,既有老朋友,也有前所未见的神秘生物;同时他们也随时会与格林德沃不断壮大的追随者发生冲突。这次行动的风险是如此之高……邓布利多还能袖手旁观多久?

  1. ##### MediaInfo ######

  2. General

  3. Unique ID : 144098987151340038988402361900199798940 (0x6C68749721545160FCC9CB3CB23F689C)

  4. Complete name : Fantastic.Beasts.The.Secrets.of.Dumbledore.2022.2160p.HMAX.WEB-DL.HDR.HEVC.Atmos.DDP5.1-OPT.mkv

  5. Format : Matroska

  6. Format version : Version 4

  7. File size : 18.0 GiB

  8. Duration : 2 h 22 min

  9. Overall bit rate : 18.1 Mb/s

  10. Movie name : Fantastic Beasts The Secrets of Dumbledore

  11. Encoded date : UTC 2022-05-31 00:51:18

  12. Writing application : mkvmerge v61.0.0 ('So') 64-bit

  13. Writing library : libebml v1.4.2 + libmatroska v1.6.4

  14. Cover : Yes

  15. Attachments : Cover.jpg

  16. Video

  17. ID : 1

  18. Format : HEVC

  19. Format/Info : High Efficiency Video Coding

  20. Format profile : Main [email protected]@Main

  21. HDR format : SMPTE ST 2086, HDR10 compatible

  22. Codec ID : V_MPEGH/ISO/HEVC

  23. Duration : 2 h 22 min

  24. Bit rate : 17.2 Mb/s

  25. Width : 3 840 pixels

  26. Height : 2 160 pixels

  27. Display aspect ratio : 16:9

  28. Frame rate mode : Constant

  29. Frame rate : 23.976 (24000/1001/53354) FPS

  30. Color space : YUV

  31. Chroma subsampling : 4:2:0

  32. Bit depth : 10 bits

  33. Bits/(Pixel*Frame) : 0.087

  34. Stream size : 17.2 GiB (95%)

  35. Writing library : x265 3.4hy:[Linux][GCC 7.5.0][64 bit] 10bit

  36. Encoding settings : cpuid=533541111039 / frame-threads=1 / wpp / no-pmode / no-pme / no-psnr / no-ssim / log-level=2 / input-csp=1 / input-res=3840x2160 / interlace=0 / total-frames=0 / level-idc=0 / high-tier=1 / uhd-bd=0 / ref=4 / no-allow-non-conformance / repeat-headers / annexb / no-aud / no-hrd / info / hash=0 / no-temporal-layers / no-open-gop / min-keyint=96 / keyint=96 / gop-lookahead=0 / bframes=3 / b-adapt=2 / b-pyramid / bframe-bias=0 / rc-lookahead=25 / lookahead-slices=4 / NTMzNTQ=uuDQuD2mJt9fsCf / scenecut=40 / hist-scenecut=0 / radl=0 / no-splice / no-intra-refresh / ctu=64 / min-cu-size=8 / rect / no-amp / max-tu-size=32 / tu-inter-depth=1 / tu-intra-depth=1 / limit-tu=0 / rdoq-level=2 / dynamic-rd=0.00 / no-ssim-rd / signhide / no-tskip / nr-intra=0 / nr-inter=0 / no-constrained-intra / strong-intra-smoothing / max-merge=3 / limit-refs=3 / limit-modes / me=3 / subme=3 / merange=57 / temporal-mvp / no-frame-dup / no-hme / weightp / no-weightb / no-analyze-src-pics / deblock=0:0 / sao / no-sao-non-deblock / rd=4 / selective-sao=4 / no-early-skip / rskip / no-fast-intra / no-tskip-fast / no-cu-lossless / no-b-intra / no-splitrd-skip / rdpenalty=0 / psy-rd=2.00 / psy-rdoq=1.00 / no-rd-refine / no-lossless / cbqpoffs=0 / crqpoffs=0 / rc=abr / bitrate=18000 / qcomp=0.60 / qpstep=4 / stats-write=0 / stats-read=2 / cplxblur=20.0 / qblur=0.5 / vbv-maxrate=24500 / vbv-bufsize=24500 / vbv-init=0.6 / vbv-end=0.6 / vbv-end-fr-adj=0.0 / ipratio=1.40 / pbratio=1.30 / aq-mode=2 / aq-strength=1.00 / cutree / zone-count=0 / no-strict-cbr / qg-size=32 / no-rc-grain / qpmax=69 / qpmin=0 / no-const-vbv / sar=0 / overscan=0 / videoformat=5 / range=0 / colorprim=9 / transfer=16 / colormatrix=9 / chromaloc=0 / display-window=0 / master-display=G(13250,34500)B(7500,3000)R(34000,16000)WP(15635,16450)L(10000000,1) / cll=500,54 / min-luma=0 / max-luma=1023 / log2-max-poc-lsb=8 / vui-timing-info / vui-hrd-info / no-concatenation / slices=1 / no-opt-qp-pps / no-opt-ref-list-length-pps / no-multi-pass-opt-rps / scenecut-bias=0.05 / hist-threshold=0.01 / no-opt-cu-delta-qp / no-aq-motion / hdr10 / no-hdr10-opt / no-dhdr10-opt / no-idr-recovery-sei / analysis-reuse-level=0 / analysis-save-reuse-level=0 / analysis-load-reuse-level=0 / scale-factor=0 / refine-intra=0 / refine-inter=0 / refine-mv=1 / refine-ctu-distortion=0 / no-limit-sao / ctu-info=0 / no-lowpass-dct / refine-analysis-type=0 / copy-pic=1 / max-ausize-factor=1.0 / no-dynamic-refine / no-single-sei / no-hevc-aq / no-svt / no-field / qp-adaptation-range=1.00 / no-scenecut-aware-qpconformance-window-offsets / right=0 / bottom=0 / NTMzNTQ= / decoder-max-rate=0

  37. Language : English

  38. Default : Yes

  39. Forced : No

  40. Color range : Limited

  41. Color primaries : BT.2020

  42. Transfer characteristics : PQ

  43. Matrix coefficients : BT.2020 non-constant

  44. Mastering display color primaries : Display P3

  45. Mastering display luminance : min: 0.0001 cd/m2, max: 1000 cd/m2

  46. Maximum Content Light Level : 500 cd/m2

  47. Maximum Frame-Average Light Level : 54 cd/m2

  48. Audio

  49. ID : 2

  50. Format : E-AC-3 JOC

  51. Format/Info : Enhanced AC-3 with Joint Object Coding

  52. Commercial name : Dolby Digital Plus with Dolby Atmos

  53. Codec ID : A_EAC3

  54. Duration : 2 h 22 min

  55. Bit rate mode : Constant

  56. Bit rate : 768 kb/s

  57. Channel(s) : 6 channels

  58. Channel layout : L R C LFE Ls Rs

  59. Sampling rate : 48.0 kHz

  60. Frame rate : 31.250 FPS (1536 SPF)

  61. Compression mode : Lossy

  62. Stream size : 784 MiB (4%)

  63. Language : English

  64. Service kind : Complete Main

  65. Default : Yes

  66. Forced : No

  67. Complexity index : 16

  68. Number of dynamic objects : 15

  69. Bed channel count : 1 channel

  70. Bed channel configuration : LFE

  71. Text #1

  72. ID : 3

  73. Format : UTF-8

  74. Codec ID : S_TEXT/UTF8

  75. Codec ID/Info : UTF-8 Plain Text

  76. Duration : 2 h 11 min

  77. Bit rate : 35 b/s

  78. Count of elements : 1347

  79. Stream size : 34.4 KiB (0%)

  80. Language : English

  81. Default : No

  82. Forced : No

  83. Text #2

  84. ID : 4

  85. Format : UTF-8

  86. Codec ID : S_TEXT/UTF8

  87. Codec ID/Info : UTF-8 Plain Text

  88. Duration : 2 h 20 min

  89. Bit rate : 44 b/s

  90. Count of elements : 1868

  91. Stream size : 46.0 KiB (0%)

  92. Title : SDH

  93. Language : English

  94. Default : No

  95. Forced : No

  96. Text #3

  97. ID : 5

  98. Format : UTF-8

  99. Codec ID : S_TEXT/UTF8

  100. Codec ID/Info : UTF-8 Plain Text

  101. Duration : 2 h 21 min

  102. Bit rate : 31 b/s

  103. Count of elements : 1229

  104. Stream size : 32.2 KiB (0%)

  105. Language : Spanish

  106. Default : No

  107. Forced : No

  108. Text #4

  109. ID : 6

  110. Format : UTF-8

  111. Codec ID : S_TEXT/UTF8

  112. Codec ID/Info : UTF-8 Plain Text

  113. Duration : 2 h 12 min

  114. Bit rate : 30 b/s

  115. Count of elements : 1154

  116. Stream size : 29.3 KiB (0%)

  117. Title : 简体中字

  118. Language : Chinese

  119. Default : Yes

  120. Forced : No

  121. Text #5

  122. ID : 7

  123. Format : UTF-8

  124. Codec ID : S_TEXT/UTF8

  125. Codec ID/Info : UTF-8 Plain Text

  126. Duration : 2 h 12 min

  127. Bit rate : 30 b/s

  128. Count of elements : 1154

  129. Stream size : 29.3 KiB (0%)

  130. Title : 繁体中字

  131. Language : Chinese

  132. Default : Yes

  133. Forced : No

  134. Text #6

  135. ID : 8

  136. Format : PGS

  137. Muxing mode : zlib

  138. Codec ID : S_HDMV/PGS

  139. Codec ID/Info : Picture based subtitle format used on BDs/HD-DVDs

  140. Duration : 2 h 12 min

  141. Bit rate : 23.9 kb/s

  142. Count of elements : 2307

  143. Stream size : 22.6 MiB (0%)

  144. Title : 简体中字

  145. Language : Chinese

  146. Default : Yes

  147. Forced : No

  148. Text #7

  149. ID : 9

  150. Format : PGS

  151. Muxing mode : zlib

  152. Codec ID : S_HDMV/PGS

  153. Codec ID/Info : Picture based subtitle format used on BDs/HD-DVDs

  154. Duration : 2 h 12 min

  155. Bit rate : 24.6 kb/s

  156. Count of elements : 2307

  157. Stream size : 23.2 MiB (0%)

  158. Title : 繁体中字

  159. Language : Chinese

  160. Default : Yes

  161. Forced : No

  162. Text #8

  163. ID : 10

  164. Format : PGS

  165. Muxing mode : zlib

  166. Codec ID : S_HDMV/PGS

  167. Codec ID/Info : Picture based subtitle format used on BDs/HD-DVDs

  168. Duration : 2 h 11 min

  169. Bit rate : 35.6 kb/s

  170. Count of elements : 2413

  171. Stream size : 33.6 MiB (0%)

  172. Title : 简英双语

  173. Language : Chinese

  174. Default : Yes

  175. Forced : No

  176. Text #9

  177. ID : 11

  178. Format : PGS

  179. Muxing mode : zlib

  180. Codec ID : S_HDMV/PGS

  181. Codec ID/Info : Picture based subtitle format used on BDs/HD-DVDs

  182. Duration : 2 h 11 min

  183. Bit rate : 36.0 kb/s

  184. Count of elements : 2413

  185. Stream size : 33.9 MiB (0%)

  186. Title : 繁英双语

  187. Language : Chinese

  188. Default : Yes

  189. Forced : No

  190. Menu

  191. 00:00:00.000 : Promo

  192. 00:00:31.031 : Promo End

  193. 02:13:19.000 : Credits



文件下载


除非特别注明,本文『神奇动物:邓布利多之谜[简繁英字幕].Fantastic.Beasts.The.Secrets.of.Dumbledore.2022.2160p.HMAX.WEB-DL.HDR.HEVC.Atmos.』来源于互联网机器人自动抓取,非本站原创。 浮游电影网不对本文拥有版权,如有侵犯,请联系邮箱:fuyouu#yandex.com[#换成@]投诉。我们会在15个工作日内删除。 但烦请转载时请标明出处:“本文转载于『浮游电影网』,原文地址:https://www.fuyouu.com/22386.html

评论吧骚年!

发表你的见解   

昵称*

E-mail*(建议输入,以便收到博主回复的提示邮件)

验证码*

您可以使用eMule或eMule Mod(Windows)、aMule(Win、Linux、Mac)等软件下载eD2k链接。。
eMule收藏集(.emulecollection)文件是您选中的所有链接的列表文件。eMule可以直接下载它们。
按住SHIFT键选择可以选中多个选择框。
可用文件名和大小选择器来选择文件。
文件名选择器帮您根据文件名称或后缀来选择文件。不分大小写。
符号使用:
和:空格( )、+
不包含:-
或:|
转义:一对英文引号("");
匹配开头:^
匹配结尾:$
例如:
选中所有名称中包含有“eMule”或“0.49c”字眼,但不包含有“exe”字眼的:emule|0.49c -exe
选中所有名称的开头是“eMule”,结尾是“0.49c”的:^emule 0.49c$
选中所有名称中带有“eMule 0.49c”的(必须是“eMule 0.49c”,中间没有别的字符,不能是“eMule fake 0.49c”),需要转义:"emule 0.49c"
大小选择器帮您根据文件大小选择文件。