当前位置: 首页 >> 港台电影 >> 一个复杂故事[国语音轨/中文字幕].A.Complicated.Story.2013.CHINESE.1080p.NF.WEBRip.DDP5.1.x264-MiON 3.79GB >> 正文

一个复杂故事[国语音轨/中文字幕].A.Complicated.Story.2013.CHINESE.1080p.NF.WEBRip.DDP5.1.x264-MiON 3.79GB

2022年05月30日 21:55:11     电影发布:来源于网络     电影分类:港台电影     评论(0)    

一个复杂故事[国语音轨/中文字幕].A.Complicated.Story.2013.CHINESE.1080p.NF.WEBRip.DDP5.1.x264 MiON 3.79GB  港台电影  第1张

一个复杂故事[国语音轨/中文字幕].A.Complicated.Story.2013.CHINESE.1080p.NF.WEBRip.DDP5.1.x264 MiON 3.79GB  港台电影  第2张

◎标 题 一个复杂故事

◎译 名 A Complicated Story

◎片 名 一傃}雜故事

◎年 代 2013

◎产 地 中国香港

◎类 别 剧情

◎语 言 粤语 / 汉语普通话

◎上映日期 2014年1月16日

◎IMDb评分 5.7/10 (77人评价)

◎IMDb链接 https://www.imdb.com/title/tt3503902/

◎豆瓣评分 5.7/10 (1600人评价)

◎豆瓣链接 https://movie.douban.com/subject/19897517/

◎片 长 108 分钟

◎导 演 周冠威 Kiwi Chow

◎编 剧 舒琪 Kei Shu

◎演 员 朱芷莹

张学友

车婉婉

卢海鹏

叶德娴

金燕玲

王紫逸

◎简 介

刘雅子(朱芷莹 饰)千里迢迢来到香港念书,希望能够在这里觅得自己的远大前程。然而,哥哥的重病令刘雅子不得不开始操心起巨额的医疗费用,在律师欧锦怡(车婉婉 饰)的牵线搭桥下,刘雅子决定成为代孕妈妈,很快,她的腹中就怀上了阔太太陶家诗(应采儿 饰)的孩子。

然而,就在等待生产之时,陶家诗竟然改变了注意不想要孩子了,她逼迫刘雅子堕胎,已经对腹中孩子产生感情的刘雅子偷偷的躲在了离岛中。而陶家诗的丈夫郁彰(张学友 饰)居然寻得了她的踪迹,来到了刘雅子的身旁。在相处的这段日子里,两人渐渐无法控制彼此之间产生的热烈感情。

  1. Video

  2. ID : 1

  3. Format : AVC

  4. Format/Info : Advanced Video Codec

  5. Format profile : [email protected]

  6. Format settings : CABAC / 3 Ref Frames

  7. Format settings, CABAC : Yes

  8. Format settings, Reference frames : 3 frames

  9. Codec ID : V_MPEG4/ISO/AVC

  10. Duration : 1 h 48 min

  11. Bit rate mode : Variable

  12. Bit rate : 4 420 kb/s

  13. Maximum bit rate : 6 630 kb/s

  14. Width : 1 920 pixels

  15. Height : 1 080 pixels

  16. Display aspect ratio : 16:9

  17. Frame rate mode : Constant

  18. Frame rate : 24.000 FPS

  19. Color space : YUV

  20. Chroma subsampling : 4:2:0

  21. Bit depth : 8 bits

  22. Scan type : Progressive

  23. Bits/(Pixel*Frame) : 0.089

  24. Stream size : 3.30 GiB (87%)

  25. Writing library : x264 core 148 r2724 dbe0335

  26. Encoding settings : cabac=1 / ref=3 / deblock=1:0:0 / analyse=0x1:0x111 / me=umh / subme=10 / psy=1 / psy_rd=1.00:0.00 / mixed_ref=1 / me_range=24 / chroma_me=1 / trellis=2 / 8x8dct=0 / cqm=0 / deadzone=21,11 / fast_pskip=1 / chroma_qp_offset=-2 / threads=8 / lookahead_threads=1 / sliced_threads=0 / nr=0 / decimate=1 / interlaced=0 / NTMzNTQ= / bluray_compat=0 / stitchable=1 / constrained_intra=0 / bframes=2 / b_pyramid=0 / b_adapt=2 / b_bias=0 / direct=3 / weightb=1 / open_gop=0 / weightp=2 / keyint=48 / keyint_min=25 / scenecut=0 / intra_refresh=0 / rc_lookahead=48 / rc=2pass / mbtree=1 / bitrate=4420 / ratetol=1.0 / qcomp=0.50 / qpmin=6 / qpmax=51 / qpstep=4 / cplxblur=20.0 / qblur=0.5 / vbv_maxrate=6630 / vbv_bufsize=8840 / nal_hrd=vbr / filler=0 / NTMzNTQ=LmsMAP37EqsCpk / ip_ratio=1.40 / aq=1:1.00

  27. Language : Chinese

  28. Default : Yes

  29. Forced : No


  30. Audio

  31. ID : 2

  32. Format : E-AC-3

  33. Format/Info : Enhanced AC-3

  34. Commercial name : Dolby Digital Plus

  35. Codec ID : A_EAC3

  36. Duration : 1 h 48 min

  37. Bit rate mode : Constant

  38. Bit rate : 640 kb/s

  39. Channel(s) : 6 channels

  40. Channel layout : L R C LFE Ls Rs

  41. Sampling rate : 48.0 kHz

  42. Frame rate : 31.250 FPS (1536 SPF)

  43. Compression mode : Lossy

  44. Stream size : 495 MiB (13%)

  45. Language : Chinese

  46. Service kind : Complete Main

  47. Default : Yes

  48. Forced : No


  49. Text #1

  50. ID : 3

  51. Format : UTF-8

  52. Codec ID : S_TEXT/UTF8

  53. Codec ID/Info : UTF-8 Plain Text

  54. Duration : 1 h 41 min

  55. Bit rate : 37 b/s

  56. Count of elements : 839

  57. Stream size : 27.8 KiB (0%)

  58. Language : English

  59. Default : Yes

  60. Forced : No


  61. Text #2

  62. ID : 4

  63. Format : UTF-8

  64. Codec ID : S_TEXT/UTF8

  65. Codec ID/Info : UTF-8 Plain Text

  66. Duration : 1 h 47 min

  67. Bit rate : 28 b/s

  68. Count of elements : 924

  69. Stream size : 22.5 KiB (0%)

  70. Language : Japanese

  71. Default : No

  72. Forced : No


  73. Text #3

  74. ID : 5

  75. Format : UTF-8

  76. Codec ID : S_TEXT/UTF8

  77. Codec ID/Info : UTF-8 Plain Text

  78. Duration : 1 h 47 min

  79. Bit rate : 41 b/s

  80. Count of elements : 884

  81. Stream size : 32.6 KiB (0%)

  82. Language : Korean

  83. Default : No

  84. Forced : No


  85. Text #4

  86. ID : 6

  87. Format : UTF-8

  88. Codec ID : S_TEXT/UTF8

  89. Codec ID/Info : UTF-8 Plain Text

  90. Duration : 1 h 47 min

  91. Bit rate : 44 b/s

  92. Count of elements : 885

  93. Stream size : 35.2 KiB (0%)

  94. Language : Vietnamese

  95. Default : No

  96. Forced : No


  97. Text #5

  98. ID : 7

  99. Format : UTF-8

  100. Codec ID : S_TEXT/UTF8

  101. Codec ID/Info : UTF-8 Plain Text

  102. Duration : 1 h 41 min

  103. Bit rate : 33 b/s

  104. Count of elements : 862

  105. Stream size : 24.8 KiB (0%)

  106. Title : Simplified

  107. Language : Chinese

  108. Default : No

  109. Forced : No


  110. Text #6

  111. ID : 8

  112. Format : UTF-8

  113. Codec ID : S_TEXT/UTF8

  114. Codec ID/Info : UTF-8 Plain Text

  115. Duration : 1 h 41 min

  116. Bit rate : 34 b/s

  117. Count of elements : 862

  118. Stream size : 25.4 KiB (0%)

  119. Title : Traditional

  120. Language : Chinese

  121. Default : No

  122. Forced : No

复制代码

一个复杂故事[国语音轨/中文字幕].A.Complicated.Story.2013.CHINESE.1080p.NF.WEBRip.DDP5.1.x264 MiON 3.79GB  港台电影  第3张 一个复杂故事[国语音轨/中文字幕].A.Complicated.Story.2013.CHINESE.1080p.NF.WEBRip.DDP5.1.x264 MiON 3.79GB  港台电影  第4张 一个复杂故事[国语音轨/中文字幕].A.Complicated.Story.2013.CHINESE.1080p.NF.WEBRip.DDP5.1.x264 MiON 3.79GB  港台电影  第5张



文件下载


除非特别注明,本文『一个复杂故事[国语音轨/中文字幕].A.Complicated.Story.2013.CHINESE.1080p.NF.WEBRip.DDP5.1.x264-MiON 3.79GB』来源于互联网机器人自动抓取,非本站原创。 浮游电影网不对本文拥有版权,如有侵犯,请联系邮箱:fuyouu#yandex.com[#换成@]投诉。我们会在15个工作日内删除。 但烦请转载时请标明出处:“本文转载于『浮游电影网』,原文地址:https://www.fuyouu.com/22379.html

评论吧骚年!

发表你的见解   

昵称*

E-mail*(建议输入,以便收到博主回复的提示邮件)

验证码*

您可以使用eMule或eMule Mod(Windows)、aMule(Win、Linux、Mac)等软件下载eD2k链接。。
eMule收藏集(.emulecollection)文件是您选中的所有链接的列表文件。eMule可以直接下载它们。
按住SHIFT键选择可以选中多个选择框。
可用文件名和大小选择器来选择文件。
文件名选择器帮您根据文件名称或后缀来选择文件。不分大小写。
符号使用:
和:空格( )、+
不包含:-
或:|
转义:一对英文引号("");
匹配开头:^
匹配结尾:$
例如:
选中所有名称中包含有“eMule”或“0.49c”字眼,但不包含有“exe”字眼的:emule|0.49c -exe
选中所有名称的开头是“eMule”,结尾是“0.49c”的:^emule 0.49c$
选中所有名称中带有“eMule 0.49c”的(必须是“eMule 0.49c”,中间没有别的字符,不能是“eMule fake 0.49c”),需要转义:"emule 0.49c"
大小选择器帮您根据文件大小选择文件。