当前位置: 首页 >> 海外电影 >> 安德烈·卢布廖夫[中英字幕].Andrei.Rublev.1966.BluRay.1080p.x265.10bit-MiniHD 10.90GB >> 正文

安德烈·卢布廖夫[中英字幕].Andrei.Rublev.1966.BluRay.1080p.x265.10bit-MiniHD 10.90GB

2022年05月30日 21:50:44     电影发布:来源于网络     电影分类:海外电影     评论(0)    

◎译 名 安德烈·卢布廖夫 / 安德鲁卢布列夫(台) / 安德烈·鲁勃廖夫 / 安德烈·卢布耶夫 / 昂德烈柳布烈夫 / Andrey Rublyov / Andrei Rublev

◎片 名 Андрей Рублёв

◎年 代 1966

◎产 地 苏联

◎类 别 剧情 / 传记 / 历史 / 战争

◎语 言 俄语 / 意大利语 / 鞑靼语

◎上映日期 1966-12(苏联部分放映) / 1969-05(戛纳电影节) / 1971-12-24(苏联)

◎IMDb链接 https://www.imdb.com/title/tt0060107/

◎豆瓣评分 9.0/10 (12287人评价)

◎豆瓣链接 https://movie.douban.com/subject/1298248/

◎片 长 145分钟(英国)

◎导 演 安德烈·塔可夫斯基 Andrei Tarkovsky (id:1027778)

◎编 剧 安德烈·康查洛夫斯基 Andrey Konchalovskiy (id:1103766)

安德烈·塔可夫斯基 Andrei Tarkovsky (id:1027778)

◎演 员 安纳托利·索洛尼岑 Anatoliy Solonitsyn (id:1050626)

伊万·拉皮科夫 Ivan Lapikov (id:1011335)

尼古拉·格林科 Nikolai Grinko (id:1019480)

尼古拉·谢尔盖耶夫 Nikolai Sergeyev (id:1038871)

伊尔玛·拉乌什 Irina Tarkovskaya (id:1148452)

尼古拉·布尔里亚耶夫 Nikolay Burlyaev (id:1067513)

尤里·纳扎罗夫 Yuriy Nazarov (id:1126568)

尤里·尼库林 Yuri Nikulin (id:1136812)

罗兰·贝科夫 Rolan Bykov (id:1042175)

伊琳娜·米罗什尼琴科 Irina Miroshnichenko (id:1116811)

德米特里·奥洛夫斯基 Dmitri Orlovsky (id:1129930)

穆拉特贝克·里斯库洛夫 Muratbek Ryskulov (id:1141727)

尼古拉·库图佐夫 Nikolai Kutuzov (id:1110244)

米哈伊尔·科诺诺夫 Mikhail Kononov (id:1104396)

斯捷潘·克雷洛夫 Stepan Krylov (id:1103132)

Nikolai Grabbe Nikolai Grabbe (id:1101162)

博洛特·贝舍纳利耶夫 Bolot Bejshenaliyev (id:1061170)

Nikolai Glazkov Nikolai Glazkov (id:1095233)

维亚斯拉夫·奥夫奇尼科夫 Vyacheslav Ovchinnikov (id:1020914)

维迪·尤索夫 Vadim Yusov (id:1001712)

Olga Shevkunenko Olga Shevkunenko (id:1013541)

Ippolit Novoderyozhkin Ippolit Novoderyozhkin (id:1127610)

Sergei Voronkov Sergei Voronkov (id:1166120)

Yevgeni Chernyayev Yevgeni Chernyayev (id:1070963)

Bagrat Oganesyan Bagrat Oganesyan (id:1024752)

◎简 介

15世纪初,俄罗斯动荡时期。著名圣像画家安德烈·卢布廖夫(安纳托里·索洛尼岑 Anatoli Solonitsyn饰)在大公的邀请下前往莫斯科为教堂作画,受到了贵族式的服务与对待。然而,卢布廖夫却身处在一个饱受鞑靼人铁蹄践踏和充满灾难残杀的悲惨时代。目睹了黎民百姓在大公暴政下的水深火热,卢布廖夫毅然离开教堂返回修道院。不久,卢布廖夫被迫再度回到莫斯科进行圣像创作。然而面对居民被无辜的残杀,教堂在战火中被无情的摧毁,卢布廖夫再次陷入艺术与现实巨大反差的质疑之中,拒绝继续作画。1423年,鞑靼人的军队终于被赶出俄罗斯的大地。在经历了炮火、鲜血的锤炼洗礼后的卢布廖夫,终于完成了传世名作《三位一体》的创作。

由苏联电影大师安德烈·塔科夫斯基执导的旷世史诗巨作《安德烈·卢布廖夫》,用塔式特有的诗化电影语言和如历史壁画一般的浓重画笔,呈现了15世纪俄罗斯著名圣像...

◎获奖情况 (共1项)

第22届戛纳电影节 (1969)

费比西奖

└──安德烈·塔可夫斯基 (id:1027778)

  1. ##### MediaInfo ######

  2. General

  3. Unique ID : 193718420317939911965400357053683586959 (0x91BCCF868F566B24952F7D6D8A75D78F)

  4. Complete name : Andrei.Rublev.1966.BluRay.1080p.x265.10bit-MiniHD.mkv

  5. Format : Matroska

  6. Format version : Version 4

  7. File size : 10.9 GiB

  8. Duration : 3 h 2 min

  9. Overall bit rate : 8 531 kb/s

  10. Encoded date : UTC 2017-08-31 04:42:13

  11. Writing application : mkvmerge v11.0.0 ('Alive') 64bit

  12. Writing library : libebml v1.3.4 + libmatroska v1.4.5

  13. Video

  14. ID : 1

  15. Format : HEVC

  16. Format/Info : High Efficiency Video Coding

  17. Codec ID : V_MPEGH/ISO/HEVC

  18. Duration : 3 h 2 min

  19. Bit rate : 8 175 kb/s

  20. Width : 1 920 pixels

  21. Height : 836 pixels

  22. Display aspect ratio : 2.25:1

  23. Frame rate mode : Constant

  24. Frame rate : 23.976 (24000/1001/53354) FPS

  25. Bits/(Pixel*Frame) : 0.212

  26. Stream size : 10.4 GiB (96%)

  27. Default : Yes

  28. Forced : No

  29. Audio

  30. ID : 2

  31. Format : AC-3

  32. Format/Info : Audio Coding 3

  33. Commercial name : Dolby Digital

  34. Codec ID : A_AC3

  35. Duration : 3 h 2 min

  36. Bit rate mode : Constant

  37. Bit rate : 320 kb/s

  38. Channel(s) : 2 channels

  39. Channel layout : L R

  40. Sampling rate : 48.0 kHz

  41. Frame rate : 31.250 FPS (1536 SPF)

  42. Compression mode : Lossy

  43. Stream size : 419 MiB (4%)

  44. Language : Russian

  45. Service kind : Complete Main

  46. Default : Yes

  47. Forced : No

  48. Text #1

  49. ID : 3

  50. Format : PGS

  51. Muxing mode : zlib

  52. Codec ID : S_HDMV/PGS

  53. Codec ID/Info : Picture based subtitle format used on BDs/HD-DVDs

  54. Duration : 2 h 52 min

  55. Bit rate : 6 705 b/s

  56. Count of elements : 2426

  57. Stream size : 8.29 MiB (0%)

  58. Language : English

  59. Default : Yes

  60. Forced : No

  61. Text #2

  62. ID : 4

  63. Format : PGS

  64. Muxing mode : zlib

  65. Codec ID : S_HDMV/PGS

  66. Codec ID/Info : Picture based subtitle format used on BDs/HD-DVDs

  67. Duration : 2 h 52 min

  68. Bit rate : 7 090 b/s

  69. Count of elements : 2506

  70. Stream size : 8.76 MiB (0%)

  71. Language : Chinese

  72. Default : No

  73. Forced : No

  74. Text #3

  75. ID : 5

  76. Format : PGS

  77. Muxing mode : zlib

  78. Codec ID : S_HDMV/PGS

  79. Codec ID/Info : Picture based subtitle format used on BDs/HD-DVDs

  80. Duration : 2 h 52 min

  81. Bit rate : 7 356 b/s

  82. Count of elements : 2506

  83. Stream size : 9.09 MiB (0%)

  84. Language : Chinese

  85. Default : No

  86. Forced : No

  87. Text #4

  88. ID : 6

  89. Format : PGS

  90. Muxing mode : zlib

  91. Codec ID : S_HDMV/PGS

  92. Codec ID/Info : Picture based subtitle format used on BDs/HD-DVDs

  93. Duration : 2 h 52 min

  94. Bit rate : 7 091 b/s

  95. Count of elements : 2506

  96. Stream size : 8.76 MiB (0%)

  97. Language : Chinese

  98. Default : No

  99. Forced : No

  100. Text #5

  101. ID : 7

  102. Format : PGS

  103. Muxing mode : zlib

  104. Codec ID : S_HDMV/PGS

  105. Codec ID/Info : Picture based subtitle format used on BDs/HD-DVDs

  106. Duration : 2 h 52 min

  107. Bit rate : 7 357 b/s

  108. Count of elements : 2506

  109. Stream size : 9.09 MiB (0%)

  110. Language : Chinese

  111. Default : No

  112. Forced : No

  113. Menu

  114. 00:00:00.000 : en:Chapter 01

  115. 00:07:34.328 : en:Chapter 02

  116. 00:26:54.321 : en:Chapter 03

  117. 00:37:59.193 : en:Chapter 04

  118. 00:58:34.010 : en:Chapter 05

  119. 01:15:40.536 : en:Chapter 06

  120. 01:40:24.268 : en:Chapter 07

  121. 01:57:27.707 : en:Chapter 08

  122. 02:18:48.570 : en:Chapter 09

  123. 02:39:40.571 : en:Chapter 10

  124. 02:53:38.658 : en:Chapter 11

  125. 03:01:59.742 : en:Chapter 12


复制代码


文件下载


除非特别注明,本文『安德烈·卢布廖夫[中英字幕].Andrei.Rublev.1966.BluRay.1080p.x265.10bit-MiniHD 10.90GB』来源于互联网机器人自动抓取,非本站原创。 浮游电影网不对本文拥有版权,如有侵犯,请联系邮箱:fuyouu#yandex.com[#换成@]投诉。我们会在15个工作日内删除。 但烦请转载时请标明出处:“本文转载于『浮游电影网』,原文地址:https://www.fuyouu.com/22375.html

评论吧骚年!

发表你的见解   

昵称*

E-mail*(建议输入,以便收到博主回复的提示邮件)

验证码*

您可以使用eMule或eMule Mod(Windows)、aMule(Win、Linux、Mac)等软件下载eD2k链接。。
eMule收藏集(.emulecollection)文件是您选中的所有链接的列表文件。eMule可以直接下载它们。
按住SHIFT键选择可以选中多个选择框。
可用文件名和大小选择器来选择文件。
文件名选择器帮您根据文件名称或后缀来选择文件。不分大小写。
符号使用:
和:空格( )、+
不包含:-
或:|
转义:一对英文引号("");
匹配开头:^
匹配结尾:$
例如:
选中所有名称中包含有“eMule”或“0.49c”字眼,但不包含有“exe”字眼的:emule|0.49c -exe
选中所有名称的开头是“eMule”,结尾是“0.49c”的:^emule 0.49c$
选中所有名称中带有“eMule 0.49c”的(必须是“eMule 0.49c”,中间没有别的字符,不能是“eMule fake 0.49c”),需要转义:"emule 0.49c"
大小选择器帮您根据文件大小选择文件。