当前位置: 首页 >> 欧美电影 >> 安娜·卡列尼娜[简繁英字幕].Anna.Karenina.2012.BluRay.1080p.x265.10bit.2Audio-MiniHD 5.60GB >> 正文

安娜·卡列尼娜[简繁英字幕].Anna.Karenina.2012.BluRay.1080p.x265.10bit.2Audio-MiniHD 5.60GB

2022年05月30日 21:49:00     电影发布:来源于网络     电影分类:欧美电影     评论(0)    

◎译 名 安娜·卡列尼娜 / 贵族孽缘:安娜·卡列尼娜(港)

◎片 名 Anna Karenina

◎年 代 2012

◎产 地 英国

◎类 别 剧情 / 爱情

◎语 言 英语

◎上映日期 2012-10-16(中国大陆) / 2012-09-07(英国)

◎IMDb链接 https://www.imdb.com/title/tt1781769/

◎豆瓣评分 7.2/10 (75619人评价)

◎豆瓣链接 https://movie.douban.com/subject/6110546/

◎片 长 130分钟

◎导 演 乔·赖特 Joe Wright (id:1275041)

◎编 剧 汤姆·斯托帕德 Tom Stoppard (id:1010739)

列夫·托尔斯泰 Leo Tolstoy (id:1050280)

◎演 员 凯拉·奈特莉 Keira Knightley (id:1054448)

裘德·洛 Jude Law (id:1010510)

米歇尔·道克瑞 Michelle Dockery (id:1036721)

凯莉·麦克唐纳 Kelly Macdonald (id:1031922)

亚伦·泰勒-约翰逊 Aaron Taylor-Johnson (id:1017887)

艾米丽·沃森 Emily Watson (id:1013814)

马修·麦克费登 Matthew Macfadyen (id:1025138)

奥莉维亚·威廉姆斯 Olivia Williams (id:1022627)

露丝·威尔森 Ruth Wilson (id:1013841)

艾丽西亚·维坎德 Alicia Vikander (id:1233154)

多姆纳尔·格里森 Domhnall Gleeson (id:1313116)

海拉·西尔玛 Hera Hilmar (id:1311394)

奥斯卡·麦克纳马拉 Oskar McNamara (id:1328488)

埃罗斯·维拉霍斯 Eros Vlahos (id:1329599)

凯尔·索列尔 Kyle Soller (id:1335502)

马克斯·班内特 Max Bennett (id:1336562)

皮普·托伦斯 Pip Torrens (id:1336328)

大卫·威尔莫特 David Wilmot (id:1301030)

塔妮莎·查特吉 Tannishtha Chatterjee (id:1305739)

荷丽黛·格兰杰 Holliday Grainger (id:1314352)

迈克尔·谢弗 Michael Shaeffer (id:1378922)

杰米·比米什 Jamie Beamish (id:1190547)

约瑟夫·麦克纳布 Joseph Macnab (id:1436981)

莎琳·索菲尔 Sarine Sofair (id:1414785)

斯蒂夫·艾弗茨 Steve Evets (id:1328761)

亚历山德拉·罗奇 Alexandra Roach (id:1317772)

苏珊娜·洛塔尔 Susanne Lothar (id:1041415)

比尔·斯卡斯加德 Bill Skarsg?rd (id:1022798)

卢克·纽伯里 Luke Newberry (id:1127176)

卡拉·迪瓦伊 Cara Delevingne (id:1326177)

亨利·劳埃德-休斯 Henry Lloyd-Hughes (id:1326125)

詹姆斯·诺斯科特 James Northcote (id:1319973)

拉斐尔·佩尔索纳 Rapha?l Personnaz (id:1312778)

托马斯·豪斯 Thomas Howes (id:1319139)

雪莉·亨德森 Shirley Henderson (id:1036426)

达里奥·马里安奈利 Dario Marianelli (id:1018392)

吉娜·杰 Jina Jay (id:1395105)

Thomas Brown Thomas Brown (id:1336588)

汤姆·莎缇拉 Tom Still (id:1336589)

杰奎琳·杜兰 Jacqueline Durran (id:1282857)

苏珊娜·莱顿 Susanna Lenton (id:1450297)

◎简 介

为了说和花心的哥哥奥布朗斯基(马修·麦克费登 Matthew Macfadyen 饰)和嫂子多丽(凯莉·麦克唐纳 Kelly Macdonald 饰)濒临破败的婚姻,美丽贵妇安娜·卡列尼娜(凯拉·耐特丽 Keira Knightley 饰)乘坐火车来到莫斯科。她在当地邂逅骑兵军官渥伦斯基(亚伦·约翰逊 Aaron Johnson 饰),后者风度翩翩,英俊迷人,令多丽的妹妹凯蒂(艾丽西卡·维坎德 Alicia Vikander 饰)神魂颠倒,也让已为人妇的安娜心中若有所动。忌惮周遭的风言风语,安娜压抑内心的情感,乘夜返回彼得堡的家中。醉心名利的丈夫亚历山大·卡列宁(裘德·洛 Jude Law 饰),似乎全然无法体恤妻子心中的苦闷。未过多久,渥伦斯基尾随来至彼得堡,安娜再也无法闭锁那充满爱火和渴望的心门……

本片根据文豪列夫·托尔斯泰的同名经典名作改编,...

◎获奖情况 (共25项)

第85届奥斯卡金像奖 (2013)

最佳摄影(提名)

└──西穆斯·迈克加维 (id:1009786)

最佳艺术指导(提名)

最佳服装设计

└──杰奎琳·杜兰 (id:1282857)

最佳原创配乐(提名)

└──达里奥·马里安奈利 (id:1018392)

第70届金球奖 (2013)

电影类 最佳原创配乐(提名)

└──达里奥·马里安奈利 (id:1018392)

第26届欧洲电影奖 (2013)

观众选择奖(提名)

└──乔·赖特 (id:1275041)

最佳女主角(提名)

└──凯拉·奈特莉 (id:1054448)

最佳男主角(提名)

└──裘德·洛 (id:1010510)

最佳编剧(提名)

└──汤姆·斯托帕德 (id:1010739)

最佳美术设计

└──莎拉·格林伍德 (id:1285412)

第57届意大利大卫奖 (2013)

最佳欧洲电影(提名)

└──乔·赖特 (id:1275041)

第18届美国评论家选择电影奖 (2013)

最佳美术指导

最佳服装设计

└──杰奎琳·杜兰 (id:1282857)

第17届金卫星奖 (2012)

电影部门 剧情片最佳女主角(提名)

└──凯拉·奈特莉 (id:1054448)

电影部门 最佳改编剧本(提名)

└──汤姆·斯托帕德 (id:1010739)

电影部门 最佳原创配乐(提名)

└──达里奥·马里安奈利 (id:1018392)

电影部门 最佳摄影(提名)

└──西穆斯·迈克加维 (id:1009786)

电影部门 最佳美术指导(提名)

电影部门 最佳服装设计(提名)

└──杰奎琳·杜兰 (id:1282857)

第11届华盛顿影评人协会奖 (2012)

最佳艺术指导(提名)

第17届圣地亚哥影评人协会奖 (2012)

最佳艺术指导(提名)

└──莎拉·格林伍德 (id:1285412)

第25届芝加哥影评人协会奖 (2012)

最佳艺术指导(提名)

第12届凤凰城影评人协会奖 (2012)

最佳服装设计

└──杰奎琳·杜兰 (id:1282857)

最佳艺术指导(提名)

└──莎拉·格林伍德 (id:1285412)

第3届豆瓣电影鑫像奖 (2013)

鑫豆单元 最佳视觉效果(提名)

  1. ##### MediaInfo ######

  2. General

  3. Unique ID : 175858934587620829938055465397304608582 (0x844D32E547A705FFAB8170C4CC32C746)

  4. Complete name : Anna.Karenina.2012.BluRay.1080p.x265.10bit.2Audio-MiniHD.mkv

  5. Format : Matroska

  6. Format version : Version 4

  7. File size : 5.60 GiB

  8. Duration : 2 h 9 min

  9. Overall bit rate : 6 188 kb/s

  10. Encoded date : UTC 2017-12-04 12:28:57

  11. Writing application : mkvmerge v18.0.0 ('Apricity') 64-bit

  12. Writing library : libebml v1.3.5 + libmatroska v1.4.8

  13. Video

  14. ID : 1

  15. Format : HEVC

  16. Format/Info : High Efficiency Video Coding

  17. Format profile : Main [email protected]@Main

  18. Codec ID : V_MPEGH/ISO/HEVC

  19. Duration : 2 h 9 min

  20. Bit rate : 5 233 kb/s

  21. Width : 1 920 pixels

  22. Height : 804 pixels

  23. Display aspect ratio : 2.40:1

  24. Frame rate mode : Constant

  25. Frame rate : 23.976 (24000/1001/53354) FPS

  26. Color space : YUV

  27. Chroma subsampling : 4:2:0

  28. Bit depth : 10 bits

  29. Bits/(Pixel*Frame) : 0.141

  30. Stream size : 4.73 GiB (85%)

  31. Writing library : x265 2.5+47-6a882a9300c2:[Windows][GCC 7.2.0][64 bit] 10bit

  32. Encoding settings : cpuid=533541173503 / frame-threads=3 / numa-pools=8 / wpp / no-pmode / no-pme / no-psnr / no-ssim / log-level=2 / csvfn=Y:\encode\00002.log / csv-log-level=0 / input-csp=1 / input-res=1920x804 / interlace=0 / total-frames=186356 / level-idc=0 / high-tier=1 / uhd-bd=0 / ref=5 / no-allow-non-conformance / no-repeat-headers / annexb / no-aud / no-hrd / info / hash=0 / no-temporal-layers / no-open-gop / min-keyint=1 / keyint=360 / bframes=9 / b-adapt=2 / b-pyramid / bframe-bias=0 / rc-lookahead=60 / lookahead-slices=4 / NTMzNTQ=uuDQuD2mJt9fsCf / scenecut=40 / no-intra-refresh / ctu=32 / min-cu-size=8 / rect / no-amp / max-tu-size=16 / tu-inter-depth=2 / tu-intra-depth=2 / limit-tu=4 / rdoq-level=1 / dynamic-rd=0.00 / ssim-rd / signhide / no-tskip / nr-intra=0 / nr-inter=0 / no-constrained-intra / no-strong-intra-smoothing / max-merge=3 / limit-refs=2 / limit-modes / me=3 / subme=5 / merange=25 / temporal-mvp / weightp / weightb / no-analyze-src-pics / deblock=-1:-1 / no-sao / no-sao-non-deblock / rd=4 / no-early-skip / rskip / no-fast-intra / no-tskip-fast / no-cu-lossless / b-intra / no-splitrd-skip / rdpenalty=1 / psy-rd=0.00 / psy-rdoq=5.00 / no-rd-refine / analysis-reuse-mode=0 / no-lossless / cbqpoffs=-2 / crqpoffs=-2 / rc=crf / crf=19.0 / qcomp=0.65 / qpstep=4 / stats-write=0 / stats-read=0 / ipratio=1.40 / pbratio=1.30 / aq-mode=2 / aq-strength=0.80 / cutree / zone-count=0 / no-strict-cbr / qg-size=16 / no-rc-grain / qpmax=69 / qpmin=0 / no-const-vbv / sar=0 / overscan=0 / videoformat=5 / range=0 / colorprim=1 / transfer=2 / colormatrix=2 / chromaloc=0 / display-window=0 / max-cll=0,0 / min-luma=0 / max-luma=1023 / log2-max-poc-lsb=8 / vui-timing-info / vui-hrd-info / slices=1 / opt-qp-pps / opt-ref-list-length-pps / no-multi-pass-opt-rps / scenecut-bias=0.05 / no-opt-cu-delta-qp / no-aq-motion / no-hdr / no-hdr-opt / no-dhdr10-opt / analysis-reuse-level=5 / scale-factor=0 / refine-intra=0 / refine-inter=0 / refine-mv=0 / no-limit-sao / ctu-info=0 / no-lowpass-dct / refine-mv-type=0

  33. Default : Yes

  34. Forced : No

  35. Color range : Limited

  36. Color primaries : BT.709

  37. Audio #1

  38. ID : 2

  39. Format : AC-3

  40. Format/Info : Audio Coding 3

  41. Commercial name : Dolby Digital

  42. Codec ID : A_AC3

  43. Duration : 2 h 9 min

  44. Bit rate mode : Constant

  45. Bit rate : 640 kb/s

  46. Channel(s) : 6 channels

  47. Channel layout : L R C LFE Ls Rs

  48. Sampling rate : 48.0 kHz

  49. Frame rate : 31.250 FPS (1536 SPF)

  50. Compression mode : Lossy

  51. Stream size : 593 MiB (10%)

  52. Title : 英语

  53. Language : English

  54. Service kind : Complete Main

  55. Default : Yes

  56. Forced : No

  57. Audio #2

  58. ID : 3

  59. Format : AC-3

  60. Format/Info : Audio Coding 3

  61. Commercial name : Dolby Digital

  62. Codec ID : A_AC3

  63. Duration : 2 h 9 min

  64. Bit rate mode : Constant

  65. Bit rate : 192 kb/s

  66. Channel(s) : 2 channels

  67. Channel layout : L R

  68. Sampling rate : 48.0 kHz

  69. Frame rate : 31.250 FPS (1536 SPF)

  70. Compression mode : Lossy

  71. Stream size : 178 MiB (3%)

  72. Title : 导演评论

  73. Language : English

  74. Service kind : Complete Main

  75. Default : No

  76. Forced : No

  77. Text #1

  78. ID : 4

  79. Format : PGS

  80. Muxing mode : zlib

  81. Codec ID : S_HDMV/PGS

  82. Codec ID/Info : Picture based subtitle format used on BDs/HD-DVDs

  83. Title : 简体中文

  84. Language : Chinese

  85. Default : Yes

  86. Forced : No

  87. Text #2

  88. ID : 5

  89. Format : PGS

  90. Muxing mode : zlib

  91. Codec ID : S_HDMV/PGS

  92. Codec ID/Info : Picture based subtitle format used on BDs/HD-DVDs

  93. Title : 英文

  94. Language : English

  95. Default : No

  96. Forced : No

  97. Text #3

  98. ID : 6

  99. Format : PGS

  100. Muxing mode : zlib

  101. Codec ID : S_HDMV/PGS

  102. Codec ID/Info : Picture based subtitle format used on BDs/HD-DVDs

  103. Title : 繁体中文

  104. Language : Chinese

  105. Default : No

  106. Forced : No

  107. Text #4

  108. ID : 7

  109. Format : PGS

  110. Muxing mode : zlib

  111. Codec ID : S_HDMV/PGS

  112. Codec ID/Info : Picture based subtitle format used on BDs/HD-DVDs

  113. Title : 导演评论

  114. Language : English

  115. Default : No

  116. Forced : No

  117. Menu

  118. 00:00:00.000 : en:Chapter 01

  119. 00:05:36.294 : en:Chapter 02

  120. 00:11:42.076 : en:Chapter 03

  121. 00:19:59.156 : en:Chapter 04

  122. 00:25:26.900 : en:Chapter 05

  123. 00:32:40.750 : en:Chapter 06

  124. 00:39:52.056 : en:Chapter 07

  125. 00:46:59.107 : en:Chapter 08

  126. 00:54:00.362 : en:Chapter 09

  127. 01:00:36.257 : en:Chapter 10

  128. 01:07:13.529 : en:Chapter 11

  129. 01:14:52.070 : en:Chapter 12

  130. 01:22:30.070 : en:Chapter 13

  131. 01:27:00.548 : en:Chapter 14

  132. 01:31:49.378 : en:Chapter 15

  133. 01:36:12.975 : en:Chapter 16

  134. 01:42:42.906 : en:Chapter 17

  135. 01:47:57.971 : en:Chapter 18

  136. 01:55:04.522 : en:Chapter 19

  137. 02:01:45.923 : en:Chapter 20


复制代码



文件下载


除非特别注明,本文『安娜·卡列尼娜[简繁英字幕].Anna.Karenina.2012.BluRay.1080p.x265.10bit.2Audio-MiniHD 5.60GB』来源于互联网机器人自动抓取,非本站原创。 浮游电影网不对本文拥有版权,如有侵犯,请联系邮箱:fuyouu#yandex.com[#换成@]投诉。我们会在15个工作日内删除。 但烦请转载时请标明出处:“本文转载于『浮游电影网』,原文地址:https://www.fuyouu.com/22373.html

评论吧骚年!

发表你的见解   

昵称*

E-mail*(建议输入,以便收到博主回复的提示邮件)

验证码*

您可以使用eMule或eMule Mod(Windows)、aMule(Win、Linux、Mac)等软件下载eD2k链接。。
eMule收藏集(.emulecollection)文件是您选中的所有链接的列表文件。eMule可以直接下载它们。
按住SHIFT键选择可以选中多个选择框。
可用文件名和大小选择器来选择文件。
文件名选择器帮您根据文件名称或后缀来选择文件。不分大小写。
符号使用:
和:空格( )、+
不包含:-
或:|
转义:一对英文引号("");
匹配开头:^
匹配结尾:$
例如:
选中所有名称中包含有“eMule”或“0.49c”字眼,但不包含有“exe”字眼的:emule|0.49c -exe
选中所有名称的开头是“eMule”,结尾是“0.49c”的:^emule 0.49c$
选中所有名称中带有“eMule 0.49c”的(必须是“eMule 0.49c”,中间没有别的字符,不能是“eMule fake 0.49c”),需要转义:"emule 0.49c"
大小选择器帮您根据文件大小选择文件。