当前位置: 首页 >> 欧美电影 >> 太阳帝国[国英多音轨/中英字幕].Empire.of.the.Sun.1987.BluRay.1080p.x265.10bit.3Audio-MiniHD 8.83GB >> 正文

太阳帝国[国英多音轨/中英字幕].Empire.of.the.Sun.1987.BluRay.1080p.x265.10bit.3Audio-MiniHD 8.83GB

2022年05月30日 21:44:30     电影发布:来源于网络     电影分类:欧美电影     评论(0)    

◎译 名 太阳帝国 / 太陽の帝国

◎片 名 Empire of the Sun

◎年 代 1987

◎产 地 美国

◎类 别 剧情 / 动作 / 战争

◎语 言 英语 / 日语 / 汉语普通话

◎上映日期 1987-12-25(美国)

◎IMDb链接 https://www.imdb.com/title/tt0092965/

◎豆瓣评分 7.7/10 (22523人评价)

◎豆瓣链接 https://movie.douban.com/subject/1299811/

◎片 长 152分钟

◎导 演 史蒂文·斯皮尔伯格 Steven Spielberg (id:1054440)

◎编 剧 汤姆·斯托帕德 Tom Stoppard (id:1010739)

J·G·巴拉德 J.G. Ballard (id:1041658)

门诺·迈依杰斯 Menno Meyjes (id:1291952)

◎演 员 克里斯蒂安·贝尔 Christian Bale (id:1005773)

约翰·马尔科维奇 John Malkovich (id:1041013)

米兰达·理查森 Miranda Richardson (id:1031812)

奈杰尔·哈弗斯 Nigel Havers (id:1098321)

乔·潘托里亚诺 Joe Pantoliano (id:1049557)

本·斯蒂勒 Ben Stiller (id:1054412)

Paula Hamilton Paula Hamilton (id:1099375)

保罗·麦甘恩 Paul McGann (id:1041213)

片冈孝太郎 Takatar? Kataoka (id:1316804)

拉尔夫·塞莫 Ralph Seymour (id:1339367)

詹姆斯·格林 James Greene (id:1098923)

罗切尔·罗斯 Rochelle Rose (id:1319317)

詹姆斯·格林尼 James Greene (id:1101177)

石松葛兹 Guts Ishimatsu (id:1020086)

郭弼 Burt Kwouk (id:1012540)

罗伯特·斯蒂芬斯 Robert Stephens (id:1010720)

莱斯利·菲利普斯 Leslie Phillips (id:1002828)

J·G·巴拉德 J.G. Ballard (id:1041658)

拉夫·迈克尔 Ralph Michael (id:1120319)

Frank Duncan Frank Duncan (id:1085161)

Emily Richard Emily Richard (id:1140471)

Anna Turner Anna Turner (id:1156661)

保罗·雷诺兹 Paul Reynolds (id:1209950)

马克德容 Marc de Jonge (id:1084540)

妮娜·阿姆斯特朗 Nina Armstrong (id:1277065)

鲁珀特·弗雷泽 Rupert Frazer (id:1083144)

Eric Flynn Eric Flynn (id:1080244)

彼得·科普利 Peter Copley (id:1069500)

Hiro Arai Hiro Arai (id:1057107)

伊武雅刀 Masat? Ibu (id:1003500)

弗兰克·马歇尔 Frank Marshall (id:1049939)

凯瑟琳·肯尼迪 Kathleen Kennedy (id:1019168)

Robert Shapiro Robert Shapiro (id:1276539)

约翰·威廉姆斯 John Williams (id:1054692)

艾伦·达维奥 Allen Daviau (id:1018648)

迈克尔·卡恩 Michael Kahn (id:1037019)

诺曼·雷诺兹 Norman Reynolds (id:1295528)

迈克尔·福特 Michael Ford (id:1283972)

哈里·科德维尔 Harry Cordwell (id:1281273)

瑞克·卡特 Rick Carter (id:1280172)

弗雷德·侯尔 Fred Hole (id:1286795)

鲍勃·林伍德 Bob Ringwood (id:1295678)

王正荣 Zhengrong Wang (id:1423342)

Betty Glasow Betty Glasow (id:1284950)

Lynda Armstrong Lynda Armstrong (id:1277406)

丹尼尔·帕克 Daniel Parker (id:1293974)

保罗·恩杰伦 Paul Engelen (id:1087830)

大卫·汤布林 David Tomblin (id:1028731)

Ken Shane Ken Shane (id:1140102)

弗兰克·马歇尔 Frank Marshall (id:1049939)

史蒂夫·高利 Steve Gawley (id:1284643)

保罗·哈特森 Paul Huston (id:1287204)

克莱格·巴朗 Craig Barron (id:1277981)

Michael Pangrazio Michael Pangrazio (id:1293881)

丹尼斯·穆伦 Dennis Muren (id:1041635)

Ned Gorman Ned Gorman (id:1285204)

约翰·埃利斯 John Ellis (id:1305506)

宋宁奇 Ningqi Song (id:1372174)

朱今明 Jinming Zhu (id:1366227)

◎简 介

1941年上海,中国抗日战争已经历时四年,随着太平洋战争的爆发,英美加入战局,上海外租界的西方人的生活也经历了巨大的动荡,11岁的Jamie就是其中之一。

在逃难的途中,Jamie和父母走失,他遇到美国人贝希和弗兰克,差点被他们卖掉,三人辗转到了闸北集中营。在集中营,J amie明白了战争的残酷,学会了“为了吃饭什么事都能干”的生存哲学,还认识了和他一样喜欢飞机的日本小孩。但是,在他内心深处,一直渴望着和父母团聚的一天。

◎获奖情况 (共6项)

第60届奥斯卡金像奖 (1988)

最佳摄影(提名)

└──艾伦·达维奥 (id:1018648)

最佳剪辑(提名)

└──迈克尔·卡恩 (id:1037019)

最佳音响(提名)

最佳艺术指导(提名)

最佳服装设计(提名)

└──鲍勃·林伍德 (id:1295678)

最佳原创配乐(提名)

└──约翰·威廉姆斯 (id:1054692)

  1. ##### MediaInfo ######

  2. General

  3. Unique ID : 206892936254001433188783730145776899467 (0x9BA6214FA277699586CC959495DC158B)

  4. Complete name : Empire.of.the.Sun.1987.BluRay.1080p.x265.10bit.3Audio-MiniHD.mkv

  5. Format : Matroska

  6. Format version : Version 4

  7. File size : 8.83 GiB

  8. Duration : 2 h 32 min

  9. Overall bit rate : 8 270 kb/s

  10. Movie name : www.mysilu.com

  11. Encoded date : UTC 2017-04-20 07:34:34

  12. Writing application : mkvmerge v9.7.1 ('Pandemonium') 64bit

  13. Writing library : libebml v1.3.4 + libmatroska v1.4.5

  14. Video

  15. ID : 1

  16. Format : HEVC

  17. Format/Info : High Efficiency Video Coding

  18. Format profile : Main [email protected]@Main

  19. Codec ID : V_MPEGH/ISO/HEVC

  20. Duration : 2 h 32 min

  21. Bit rate : 6 889 kb/s

  22. Width : 1 920 pixels

  23. Height : 1 080 pixels

  24. Display aspect ratio : 16:9

  25. Frame rate mode : Constant

  26. Frame rate : 23.976 (24000/1001/53354) FPS

  27. Color space : YUV

  28. Chroma subsampling : 4:2:0

  29. Bit depth : 10 bits

  30. Bits/(Pixel*Frame) : 0.139

  31. Stream size : 7.35 GiB (83%)

  32. Writing library : x265 2.3+24-a0eee4b41185:[Windows][GCC 6.3.0][64 bit] 10bit

  33. Encoding settings : cpuid=533541173503 / frame-threads=6 / numa-pools=36 / wpp / no-pmode / no-pme / no-psnr / no-ssim / log-level=2 / input-csp=1 / input-res=1920x1080 / interlace=0 / total-frames=219841 / level-idc=0 / high-tier=1 / uhd-bd=0 / ref=5 / no-allow-non-conformance / no-repeat-headers / annexb / no-aud / no-hrd / info / hash=0 / no-temporal-layers / no-open-gop / min-keyint=1 / keyint=360 / bframes=8 / b-adapt=2 / b-pyramid / bframe-bias=0 / rc-lookahead=60 / lookahead-slices=4 / NTMzNTQ=uuDQuD2mJt9fsCf / scenecut=40 / no-intra-refresh / ctu=32 / min-cu-size=8 / rect / no-amp / max-tu-size=16 / tu-inter-depth=2 / tu-intra-depth=2 / limit-tu=4 / rdoq-level=2 / dynamic-rd=0.00 / signhide / no-tskip / nr-intra=0 / nr-inter=0 / no-constrained-intra / no-strong-intra-smoothing / max-merge=3 / limit-refs=1 / limit-modes / me=3 / subme=5 / merange=25 / temporal-mvp / weightp / weightb / no-analyze-src-pics / deblock=-1:-1 / no-sao / no-sao-non-deblock / rd=4 / no-early-skip / rskip / no-fast-intra / no-tskip-fast / no-cu-lossless / b-intra / rdpenalty=1 / psy-rd=0.00 / psy-rdoq=5.00 / no-rd-refine / analysis-mode=0 / no-lossless / cbqpoffs=-2 / crqpoffs=-2 / rc=crf / crf=21.0 / qcomp=0.65 / qpstep=4 / stats-write=0 / stats-read=0 / ipratio=1.40 / pbratio=1.30 / aq-mode=2 / aq-strength=0.70 / cutree / zone-count=0 / no-strict-cbr / qg-size=16 / no-rc-grain / qpmax=69 / qpmin=0 / sar=0 / overscan=0 / videoformat=5 / range=0 / colorprim=1 / transfer=2 / colormatrix=2 / chromaloc=0 / display-window=0 / max-cll=0,0 / min-luma=0 / max-luma=1023 / log2-max-poc-lsb=8 / vui-timing-info / vui-hrd-info / slices=1 / opt-qp-pps / opt-ref-list-length-pps / no-multi-pass-opt-rps / scenecut-bias=0.05 / no-opt-cu-delta-qp / no-aq-motion / no-hdr / no-hdr-opt / refine-level=5

  34. Default : Yes

  35. Forced : No

  36. Color range : Limited

  37. Color primaries : BT.709

  38. Audio #1

  39. ID : 2

  40. Format : AC-3

  41. Format/Info : Audio Coding 3

  42. Commercial name : Dolby Digital

  43. Codec ID : A_AC3

  44. Duration : 2 h 32 min

  45. Bit rate mode : Constant

  46. Bit rate : 640 kb/s

  47. Channel(s) : 6 channels

  48. Channel layout : L R C LFE Ls Rs

  49. Sampling rate : 48.0 kHz

  50. Frame rate : 31.250 FPS (1536 SPF)

  51. Compression mode : Lossy

  52. Stream size : 700 MiB (8%)

  53. Language : English

  54. Service kind : Complete Main

  55. Default : Yes

  56. Forced : No

  57. Audio #2

  58. ID : 3

  59. Format : AC-3

  60. Format/Info : Audio Coding 3

  61. Commercial name : Dolby Digital

  62. Codec ID : A_AC3

  63. Duration : 2 h 32 min

  64. Bit rate mode : Constant

  65. Bit rate : 384 kb/s

  66. Channel(s) : 6 channels

  67. Channel layout : L R C LFE Ls Rs

  68. Sampling rate : 48.0 kHz

  69. Frame rate : 31.250 FPS (1536 SPF)

  70. Compression mode : Lossy

  71. Stream size : 420 MiB (5%)

  72. Language : Chinese

  73. Service kind : Complete Main

  74. Default : No

  75. Forced : No

  76. Audio #3

  77. ID : 4

  78. Format : AC-3

  79. Format/Info : Audio Coding 3

  80. Commercial name : Dolby Digital

  81. Codec ID : A_AC3

  82. Duration : 2 h 32 min

  83. Bit rate mode : Constant

  84. Bit rate : 192 kb/s

  85. Channel(s) : 2 channels

  86. Channel layout : L R

  87. Sampling rate : 48.0 kHz

  88. Frame rate : 31.250 FPS (1536 SPF)

  89. Compression mode : Lossy

  90. Stream size : 210 MiB (2%)

  91. Language : Chinese

  92. Service kind : Complete Main

  93. Default : No

  94. Forced : No

  95. Text #1

  96. ID : 5

  97. Format : PGS

  98. Muxing mode : zlib

  99. Codec ID : S_HDMV/PGS

  100. Codec ID/Info : Picture based subtitle format used on BDs/HD-DVDs

  101. Language : English

  102. Default : Yes

  103. Forced : No

  104. Text #2

  105. ID : 6

  106. Format : PGS

  107. Muxing mode : zlib

  108. Codec ID : S_HDMV/PGS

  109. Codec ID/Info : Picture based subtitle format used on BDs/HD-DVDs

  110. Language : Chinese

  111. Default : No

  112. Forced : No

  113. Menu

  114. 00:00:00.000 : en:Chapter 01

  115. 00:01:14.574 : en:Chapter 02

  116. 00:04:19.717 : en:Chapter 03

  117. 00:07:44.380 : en:Chapter 04

  118. 00:09:22.520 : en:Chapter 05

  119. 00:13:19.215 : en:Chapter 06

  120. 00:15:32.222 : en:Chapter 07

  121. 00:20:46.286 : en:Chapter 08

  122. 00:23:34.996 : en:Chapter 09

  123. 00:28:02.764 : en:Chapter 10

  124. 00:32:15.141 : en:Chapter 11

  125. 00:36:41.240 : en:Chapter 12

  126. 00:41:46.253 : en:Chapter 13

  127. 00:43:50.044 : en:Chapter 14

  128. 00:49:00.854 : en:Chapter 15

  129. 00:52:23.932 : en:Chapter 16

  130. 00:54:19.256 : en:Chapter 17

  131. 01:01:03.910 : en:Chapter 18

  132. 01:05:38.392 : en:Chapter 19

  133. 01:08:21.097 : en:Chapter 20

  134. 01:09:55.858 : en:Chapter 21

  135. 01:13:44.837 : en:Chapter 22

  136. 01:16:20.701 : en:Chapter 23

  137. 01:20:20.315 : en:Chapter 24

  138. 01:24:16.509 : en:Chapter 25

  139. 01:26:56.586 : en:Chapter 26

  140. 01:30:19.455 : en:Chapter 27

  141. 01:37:04.902 : en:Chapter 28

  142. 01:39:23.958 : en:Chapter 29

  143. 01:42:58.839 : en:Chapter 30

  144. 01:47:11.007 : en:Chapter 31

  145. 01:48:50.440 : en:Chapter 32

  146. 01:52:21.234 : en:Chapter 33

  147. 01:57:23.411 : en:Chapter 34

  148. 01:59:08.641 : en:Chapter 35

  149. 02:01:27.571 : en:Chapter 36

  150. 02:03:14.428 : en:Chapter 37

  151. 02:05:00.451 : en:Chapter 38

  152. 02:07:16.003 : en:Chapter 39

  153. 02:09:11.910 : en:Chapter 40

  154. 02:12:12.007 : en:Chapter 41

  155. 02:16:22.299 : en:Chapter 42

  156. 02:20:10.276 : en:Chapter 43

  157. 02:22:10.772 : en:Chapter 44

  158. 02:26:17.810 : en:Chapter 45


复制代码



文件下载


除非特别注明,本文『太阳帝国[国英多音轨/中英字幕].Empire.of.the.Sun.1987.BluRay.1080p.x265.10bit.3Audio-MiniHD 8.83GB』来源于互联网机器人自动抓取,非本站原创。 浮游电影网不对本文拥有版权,如有侵犯,请联系邮箱:fuyouu#yandex.com[#换成@]投诉。我们会在15个工作日内删除。 但烦请转载时请标明出处:“本文转载于『浮游电影网』,原文地址:https://www.fuyouu.com/22368.html

评论吧骚年!

发表你的见解   

昵称*

E-mail*(建议输入,以便收到博主回复的提示邮件)

验证码*

您可以使用eMule或eMule Mod(Windows)、aMule(Win、Linux、Mac)等软件下载eD2k链接。。
eMule收藏集(.emulecollection)文件是您选中的所有链接的列表文件。eMule可以直接下载它们。
按住SHIFT键选择可以选中多个选择框。
可用文件名和大小选择器来选择文件。
文件名选择器帮您根据文件名称或后缀来选择文件。不分大小写。
符号使用:
和:空格( )、+
不包含:-
或:|
转义:一对英文引号("");
匹配开头:^
匹配结尾:$
例如:
选中所有名称中包含有“eMule”或“0.49c”字眼,但不包含有“exe”字眼的:emule|0.49c -exe
选中所有名称的开头是“eMule”,结尾是“0.49c”的:^emule 0.49c$
选中所有名称中带有“eMule 0.49c”的(必须是“eMule 0.49c”,中间没有别的字符,不能是“eMule fake 0.49c”),需要转义:"emule 0.49c"
大小选择器帮您根据文件大小选择文件。