当前位置: 首页 >> 欧美电影 >> 太空旅客[国英多音轨/简繁英特效字幕].Passengers.2016.BluRay.1080p.x265.10bit.HDR10-MiniHD 2.79GB >> 正文

太空旅客[国英多音轨/简繁英特效字幕].Passengers.2016.BluRay.1080p.x265.10bit.HDR10-MiniHD 2.79GB

2022年05月30日 21:42:48     电影发布:来源于网络     电影分类:欧美电影     评论(0)    

◎译 名 太空旅客 / 太空潜航者(港) / 星际过客(台) / 旅客 / 乘客

◎片 名 Passengers

◎年 代 2016

◎产 地 美国

◎类 别 科幻 / 冒险

◎语 言 英语 / 汉语普通话

◎上映日期 2017-01-13(中国大陆) / 2016-12-21(美国)

◎IMDb链接 https://www.imdb.com/title/tt1355644/

◎豆瓣评分 6.9/10 (197991人评价)

◎豆瓣链接 https://movie.douban.com/subject/3434070/

◎片 长 116分钟

◎导 演 莫滕·泰杜姆 Morten Tyldum (id:1299674)

◎编 剧 乔·斯派茨 Jon Spaihts (id:1320120)

◎演 员 詹妮弗·劳伦斯 Jennifer Lawrence (id:1022616)

克里斯·帕拉特 Chris Pratt (id:1017967)

麦克·辛 Michael Sheen (id:1004566)

劳伦斯·菲什伯恩 Laurence Fishburne (id:1022596)

安迪·加西亚 Andy Garcia (id:1002695)

因德尔·库马尔 Inder Kumar (id:1349630)

奥罗拉·佩里诺 Aurora Perrineau (id:1350594)

文斯·福斯特 Vince Foster (id:1385277)

马特·科博伊 Matt Corboy (id:1076353)

弗雷德·迈拉麦德 Fred Melamed (id:1045154)

吉米·索瑞茜莉 Jamie Soricelli (id:1363083)

史蒂芬·哈梅尔 Stephen Hamel (id:1365301)

丹·雷诺斯 Dan Reynolds (id:1389479)

托马斯·纽曼 Thomas Newman (id:1027939)

罗德里戈·普列托 Rodrigo Prieto (id:1276623)

玛丽安·布兰登 Maryann Brandon (id:1279187)

简妮·特米姆 Jany Temime (id:1299039)

卡洛斯·华达德 Carlos Ciudad (id:1414095)

艾米丽·皮德 Emily Pead (id:1411061)

雷妮·莫尼梅克 Renae Moneymaker (id:1399656)

◎简 介

吉姆(克里斯·普拉特 Chris Pratt 饰)是阿瓦隆号飞船上的一位工薪阶层旅客,在飞船前往太空殖民地家园2号的120年旅途中,因一次意外,他从冷冻睡眠中醒来。发现自己有可能要在这艘巨船上独自度过89年,吉姆试着重新入睡,但最终只能在安置了5000个同行人员的睡眠舱中孤独生活,处于自杀边缘的吉姆绝望中孤注一掷,于是,他唤醒了一名女乘客奥罗拉(詹妮弗·劳伦斯 Jennifer Lawrence 饰),两人在相处的期间产生了爱情的火花。而当飞船的操作系统瘫痪,这对情侣面临着更大的问题,生命受到威胁的不仅仅是他们自己,也包括同行的旅伴,和航行本身。

◎获奖情况 (共4项)

第89届奥斯卡金像奖 (2017)

最佳艺术指导(提名)

最佳原创配乐(提名)

└──托马斯·纽曼 (id:1027939)

第21届美国艺术指导工会奖 (2017)

电影奖 最佳幻想电影艺术指导

第4届豆瓣电影年度榜单 (2017)

1月最受关注电影(提名)

  1. ##### MediaInfo ######

  2. General

  3. Unique ID : 244928063001975493544425772082978397543 (0xB8436DD7E678A4A59903B2B066D49D67)

  4. Complete name : Passengers.2016.BluRay.1080p.x265.10bit.HDR10-MiniHD.mkv

  5. Format : Matroska

  6. Format version : Version 4

  7. File size : 2.79 GiB

  8. Duration : 1 h 56 min

  9. Overall bit rate : 3 436 kb/s

  10. Encoded date : UTC 2017-12-14 15:14:21

  11. Writing application : mkvmerge v18.0.0 ('Apricity') 64-bit

  12. Writing library : libebml v1.3.5 + libmatroska v1.4.8

  13. Video

  14. ID : 1

  15. Format : HEVC

  16. Format/Info : High Efficiency Video Coding

  17. Format profile : Main [email protected]@Main

  18. HDR format : SMPTE ST 2086, HDR10 compatible

  19. Codec ID : V_MPEGH/ISO/HEVC

  20. Duration : 1 h 56 min

  21. Bit rate : 2 164 kb/s

  22. Width : 1 920 pixels

  23. Height : 804 pixels

  24. Display aspect ratio : 2.40:1

  25. Frame rate mode : Constant

  26. Frame rate : 23.976 (24000/1001/53354) FPS

  27. Color space : YUV

  28. Chroma subsampling : 4:2:0 (Type 2)

  29. Bit depth : 10 bits

  30. Bits/(Pixel*Frame) : 0.058

  31. Stream size : 1.76 GiB (63%)

  32. Writing library : x265 2.5+47-6a882a9300c2:[Windows][GCC 7.2.0][64 bit] 10bit

  33. Encoding settings : cpuid=533541173503 / frame-threads=3 / numa-pools=8 / wpp / no-pmode / no-pme / no-psnr / no-ssim / log-level=2 / csvfn=Y:\encode\p.log / csv-log-level=0 / input-csp=1 / input-res=1920x804 / interlace=0 / total-frames=0 / level-idc=51 / high-tier=1 / uhd-bd=0 / ref=5 / no-allow-non-conformance / repeat-headers / annexb / aud / hrd / info / hash=0 / no-temporal-layers / no-open-gop / min-keyint=1 / keyint=360 / bframes=8 / b-adapt=2 / b-pyramid / bframe-bias=0 / rc-lookahead=60 / lookahead-slices=4 / NTMzNTQ=uuDQuD2mJt9fsCf / scenecut=40 / no-intra-refresh / ctu=32 / min-cu-size=8 / no-rect / no-amp / max-tu-size=32 / tu-inter-depth=2 / tu-intra-depth=2 / limit-tu=4 / rdoq-level=2 / dynamic-rd=0.00 / ssim-rd / signhide / no-tskip / nr-intra=0 / nr-inter=0 / no-constrained-intra / no-strong-intra-smoothing / max-merge=3 / limit-refs=2 / limit-modes / me=3 / subme=5 / merange=25 / temporal-mvp / weightp / weightb / no-analyze-src-pics / deblock=-1:-1 / no-sao / no-sao-non-deblock / rd=4 / no-early-skip / no-rskip / no-fast-intra / no-tskip-fast / no-cu-lossless / b-intra / no-splitrd-skip / rdpenalty=1 / psy-rd=0.00 / psy-rdoq=5.00 / no-rd-refine / analysis-reuse-mode=0 / no-lossless / cbqpoffs=-3 / crqpoffs=-3 / rc=crf / crf=18.0 / qcomp=0.75 / qpstep=4 / stats-write=0 / stats-read=0 / vbv-maxrate=40000 / vbv-bufsize=40000 / vbv-init=0.9 / crf-max=0.0 / crf-min=0.0 / ipratio=1.40 / pbratio=1.30 / aq-mode=3 / aq-strength=0.90 / cutree / zone-count=0 / no-strict-cbr / qg-size=32 / no-rc-grain / qpmax=69 / qpmin=0 / no-const-vbv / sar=0 / overscan=0 / videoformat=5 / range=0 / colorprim=9 / transfer=16 / colormatrix=9 / chromaloc=1 / chromaloc-top=2 / chromaloc-bottom=2 / display-window=0 / master-display=G(13250,34500)B(7500,3000)R(34000,16000)WP(15635,16450)L(40000000,50) / max-cll=1529,380 / min-luma=0 / max-luma=1023 / log2-max-poc-lsb=8 / vui-timing-info / vui-hrd-info / slices=1 / opt-qp-pps / opt-ref-list-length-pps / no-multi-pass-opt-rps / scenecut-bias=0.05 / no-opt-cu-delta-qp / no-aq-motion / hdr / hdr-opt / no-dhdr10-opt / analysis-reuse-level=5 / scale-factor=0 / refine-intra=0 / refine-inter=0 / refine-mv=0 / no-limit-sao / ctu-info=0 / no-lowpass-dct / refine-mv-type=0

  34. Default : Yes

  35. Forced : No

  36. Color range : Limited

  37. Color primaries : BT.2020

  38. Transfer characteristics : PQ

  39. Matrix coefficients : BT.2020 non-constant

  40. Mastering display color primaries : Display P3

  41. Mastering display luminance : min: 0.0050 cd/m2, max: 4000 cd/m2

  42. Maximum Content Light Level : 1529 cd/m2

  43. Maximum Frame-Average Light Level : 380 cd/m2

  44. Audio #1

  45. ID : 2

  46. Format : AC-3

  47. Format/Info : Audio Coding 3

  48. Commercial name : Dolby Digital

  49. Codec ID : A_AC3

  50. Duration : 1 h 56 min

  51. Bit rate mode : Constant

  52. Bit rate : 640 kb/s

  53. Channel(s) : 6 channels

  54. Channel layout : L R C LFE Ls Rs

  55. Sampling rate : 48.0 kHz

  56. Frame rate : 31.250 FPS (1536 SPF)

  57. Compression mode : Lossy

  58. Stream size : 532 MiB (19%)

  59. Title : 英语

  60. Language : English

  61. Service kind : Complete Main

  62. Default : Yes

  63. Forced : No

  64. Audio #2

  65. ID : 3

  66. Format : AC-3

  67. Format/Info : Audio Coding 3

  68. Commercial name : Dolby Digital

  69. Codec ID : A_AC3

  70. Duration : 1 h 56 min

  71. Bit rate mode : Constant

  72. Bit rate : 448 kb/s

  73. Channel(s) : 6 channels

  74. Channel layout : L R C LFE Ls Rs

  75. Sampling rate : 48.0 kHz

  76. Frame rate : 31.250 FPS (1536 SPF)

  77. Compression mode : Lossy

  78. Stream size : 372 MiB (13%)

  79. Title : 国语

  80. Language : Chinese

  81. Service kind : Complete Main

  82. Default : No

  83. Forced : No

  84. Text #1

  85. ID : 4

  86. Format : PGS

  87. Muxing mode : zlib

  88. Codec ID : S_HDMV/PGS

  89. Codec ID/Info : Picture based subtitle format used on BDs/HD-DVDs

  90. Duration : 1 h 48 min

  91. Bit rate : 45.9 kb/s

  92. Count of elements : 3239

  93. Stream size : 35.6 MiB (1%)

  94. Title : 英文

  95. Language : English

  96. Default : Yes

  97. Forced : No

  98. Text #2

  99. ID : 5

  100. Format : PGS

  101. Muxing mode : zlib

  102. Codec ID : S_HDMV/PGS

  103. Codec ID/Info : Picture based subtitle format used on BDs/HD-DVDs

  104. Duration : 1 h 43 min

  105. Bit rate : 36.4 kb/s

  106. Count of elements : 2474

  107. Stream size : 26.8 MiB (1%)

  108. Title : 英文

  109. Language : English

  110. Default : No

  111. Forced : No

  112. Text #3

  113. ID : 6

  114. Format : PGS

  115. Muxing mode : zlib

  116. Codec ID : S_HDMV/PGS

  117. Codec ID/Info : Picture based subtitle format used on BDs/HD-DVDs

  118. Duration : 1 h 47 min

  119. Bit rate : 33.6 kb/s

  120. Count of elements : 3189

  121. Stream size : 25.7 MiB (1%)

  122. Title : 国配简中

  123. Language : Chinese

  124. Default : No

  125. Forced : No

  126. Text #4

  127. ID : 7

  128. Format : PGS

  129. Muxing mode : zlib

  130. Codec ID : S_HDMV/PGS

  131. Codec ID/Info : Picture based subtitle format used on BDs/HD-DVDs

  132. Duration : 1 h 47 min

  133. Bit rate : 34.9 kb/s

  134. Count of elements : 3192

  135. Stream size : 26.7 MiB (1%)

  136. Title : 国配繁中

  137. Language : Chinese

  138. Default : No

  139. Forced : No

  140. Text #5

  141. ID : 8

  142. Format : PGS

  143. Muxing mode : zlib

  144. Codec ID : S_HDMV/PGS

  145. Codec ID/Info : Picture based subtitle format used on BDs/HD-DVDs

  146. Duration : 1 h 54 min

  147. Bit rate : 25.1 kb/s

  148. Count of elements : 2408

  149. Stream size : 20.6 MiB (1%)

  150. Title : 原盘繁中

  151. Language : Chinese

  152. Default : No

  153. Forced : No

  154. Text #6

  155. ID : 9

  156. Format : PGS

  157. Muxing mode : zlib

  158. Codec ID : S_HDMV/PGS

  159. Codec ID/Info : Picture based subtitle format used on BDs/HD-DVDs

  160. Duration : 1 h 54 min

  161. Bit rate : 26.2 kb/s

  162. Count of elements : 2570

  163. Stream size : 21.5 MiB (1%)

  164. Title : 原盘简中

  165. Language : Chinese

  166. Default : No

  167. Forced : No

  168. Text #7

  169. ID : 10

  170. Format : PGS

  171. Muxing mode : zlib

  172. Codec ID : S_HDMV/PGS

  173. Codec ID/Info : Picture based subtitle format used on BDs/HD-DVDs

  174. Duration : 1 h 54 min

  175. Bit rate : 24.2 kb/s

  176. Count of elements : 2402

  177. Stream size : 19.9 MiB (1%)

  178. Title : 原盘繁中

  179. Language : Chinese

  180. Default : No

  181. Forced : No

  182. Text #8

  183. ID : 11

  184. Format : PGS

  185. Muxing mode : zlib

  186. Codec ID : S_HDMV/PGS

  187. Codec ID/Info : Picture based subtitle format used on BDs/HD-DVDs

  188. Duration : 1 h 47 min

  189. Bit rate : 59.0 kb/s

  190. Count of elements : 3505

  191. Stream size : 45.4 MiB (2%)

  192. Title : 简英特效

  193. Language : Chinese

  194. Default : No

  195. Forced : No

  196. Text #9

  197. ID : 12

  198. Format : PGS

  199. Muxing mode : zlib

  200. Codec ID : S_HDMV/PGS

  201. Codec ID/Info : Picture based subtitle format used on BDs/HD-DVDs

  202. Duration : 1 h 47 min

  203. Bit rate : 61.0 kb/s

  204. Count of elements : 3505

  205. Stream size : 46.9 MiB (2%)

  206. Title : 繁英特效

  207. Language : Chinese

  208. Default : No

  209. Forced : No

  210. Menu

  211. 00:00:00.000 : en:Chapter 01

  212. 00:07:04.674 : en:Chapter 02

  213. 00:14:38.210 : en:Chapter 03

  214. 00:20:33.649 : en:Chapter 04

  215. 00:25:06.338 : en:Chapter 05

  216. 00:30:30.662 : en:Chapter 06

  217. 00:40:47.987 : en:Chapter 07

  218. 00:50:23.020 : en:Chapter 08

  219. 00:57:28.945 : en:Chapter 09

  220. 01:02:54.812 : en:Chapter 10

  221. 01:10:47.159 : en:Chapter 11

  222. 01:17:48.664 : en:Chapter 12

  223. 01:25:17.028 : en:Chapter 13

  224. 01:31:45.041 : en:Chapter 14

  225. 01:37:53.242 : en:Chapter 15

  226. 01:42:18.549 : en:Chapter 16


复制代码



文件下载


除非特别注明,本文『太空旅客[国英多音轨/简繁英特效字幕].Passengers.2016.BluRay.1080p.x265.10bit.HDR10-MiniHD 2.79GB』来源于互联网机器人自动抓取,非本站原创。 浮游电影网不对本文拥有版权,如有侵犯,请联系邮箱:fuyouu#yandex.com[#换成@]投诉。我们会在15个工作日内删除。 但烦请转载时请标明出处:“本文转载于『浮游电影网』,原文地址:https://www.fuyouu.com/22366.html

评论吧骚年!

发表你的见解   

昵称*

E-mail*(建议输入,以便收到博主回复的提示邮件)

验证码*

您可以使用eMule或eMule Mod(Windows)、aMule(Win、Linux、Mac)等软件下载eD2k链接。。
eMule收藏集(.emulecollection)文件是您选中的所有链接的列表文件。eMule可以直接下载它们。
按住SHIFT键选择可以选中多个选择框。
可用文件名和大小选择器来选择文件。
文件名选择器帮您根据文件名称或后缀来选择文件。不分大小写。
符号使用:
和:空格( )、+
不包含:-
或:|
转义:一对英文引号("");
匹配开头:^
匹配结尾:$
例如:
选中所有名称中包含有“eMule”或“0.49c”字眼,但不包含有“exe”字眼的:emule|0.49c -exe
选中所有名称的开头是“eMule”,结尾是“0.49c”的:^emule 0.49c$
选中所有名称中带有“eMule 0.49c”的(必须是“eMule 0.49c”,中间没有别的字符,不能是“eMule fake 0.49c”),需要转义:"emule 0.49c"
大小选择器帮您根据文件大小选择文件。