当前位置: 首页 >> 欧美电影 >> 时间旅行者的妻子[简繁英字幕].The.Time.Travelers.Wife.2009.1080p.BluRay.DTS.x265-10bit-ENTHD 8.85GB >> 正文

时间旅行者的妻子[简繁英字幕].The.Time.Travelers.Wife.2009.1080p.BluRay.DTS.x265-10bit-ENTHD 8.85GB

2022年05月30日 21:35:18     电影发布:来源于网络     电影分类:欧美电影     评论(0)    

◎译 名 时间旅行者的妻子 / 时光旅的恋人(港) / 时空旅人之妻(台)

◎片 名 The Time Traveler's Wife

◎年 代 2009

◎产 地 美国

◎类 别 剧情 / 爱情 / 悬疑 / 奇幻

◎语 言 英语

◎上映日期 2009-08-14(美国)

◎IMDb链接 https://www.imdb.com/title/tt0452694/

◎豆瓣评分 7.7/10 (232647人评价)

◎豆瓣链接 https://movie.douban.com/subject/1885124/

◎片 长 107分钟

◎导 演 罗伯特·斯文克 Robert Schwentke (id:1297058)

◎编 剧 布鲁斯·乔尔·鲁宾 Bruce Joel Rubin (id:1032526)

奥黛丽·尼芬格 Audrey Niffenegger (id:1018566)

◎演 员 瑞秋·麦克亚当斯 Rachel McAdams (id:1053587)

艾瑞克·巴纳 Eric Bana (id:1016693)

阿莱克斯·费瑞斯 Alex Ferris (id:1045061)

艾利斯·霍华德 Arliss Howard (id:1027850)

米歇尔·诺尔顿 Michelle Nolden (id:1293249)

布鲁克琳·普劳克斯 Brooklynn Proulx (id:1045020)

朗·里维斯顿 Ron Livingston (id:1019023)

塔图姆·麦克凯恩 Tatum McCann (id:1307696)

海莉·麦坎 Hailey McCann (id:1027451)

斯蒂芬·托布罗斯基 Stephen Tobolowsky (id:1019062)

肖恩·斯托尔 Shawn Storer (id:1243874)

保罗·弗朗西斯 Paul Francis (id:1316278)

马特伯尔曼 Matt Birman (id:1061859)

Justin Peroff Justin Peroff (id:1127509)

玛吉·卡斯特 Maggie Castle (id:1274759)

Bryanna Hartung (id:1251967)

James Lafazanos (id:1223930)

乔纳森·尼科尔斯 Jonathan Nichols (id:1459012)

尼克·维克斯勒 Nick Wechsler (id:1300582)

克里斯汀·哈恩 Kristin Hahn (id:1354364)

布拉德·皮特 Brad Pitt (id:1054452)

迪·加德纳 Dede Gardner (id:1284552)

麦切尔·丹纳 Mychael Danna (id:1050402)

弗洛里安·巴尔豪斯 Florian Ballhaus (id:1420282)

汤姆·诺伯 Thom Noble (id:1293221)

玛丽·特里西亚·伍德 Mary Tricia Wood (id:1165846)

Jennifer L. Smith Jennifer L. Smith (id:1198453)

德博拉·阿奎拉 Deborah Aquila (id:1277347)

罗宾·D·库克 Robin D. Cook (id:1281195)

乔恩·赫特曼 Jon Hutman (id:1287219)

朱莉·维斯 Julie Weiss (id:1300651)

克里斯蒂安·汀斯利 Christien Tinsley (id:1299294)

Ann Brodie Ann Brodie (id:1279356)

Shane Christopher Wicklund (id:1226831)

Ben Taylor (id:1264644)

米奇·保尔森 Mitch Paulson (id:1247602)

帕特里克·克兰斯 Patrick Clancey (id:1071903)

David Jones David Jones (id:1303780)

Chris LeDoux Chris LeDoux (id:1037852)

Kelly Bumbarger Kelly Bumbarger (id:1302570)

◎简 介

一场车祸,母亲丧生,而孩子却奇迹般幸存,他赤裸着身体获救,然而救人者竟然是来自未来的自己。原来,这个名叫亨利(艾瑞克?巴纳 Eric Bana 饰)的图书管理员,患上慢性时间错位症,以至于每次发病都将穿越时空。而且,他每次穿越都赤身裸体,经常闹出笑话。久而久之,亨利习以为常。一个偶然的机会,他爱上了一个名叫克莱尔(瑞秋?麦克亚当斯 Rachel McAdams 饰)的女孩。为了追求克莱尔,他穿越时空对6岁的克莱尔表白,并许诺未来将娶她为妻。因此,当亨利在现实中出现时,两人迅速热恋、结婚,而且还生了一个女孩。但是,亨利的老毛病依旧无法改变,所以克莱尔必须适应这个穿越时空的老公,两人也因此历经磨难……

本片改编自美国作家奥黛丽?尼芬格(Audrey Niffenegger)创作的同名畅销小说。

◎获奖情况 (共2项)

第12届美国青少年选择奖 (2010)

最佳科幻电影(提名)

最佳科幻电影女演员(提名)

└──瑞秋·麦克亚当斯 (id:1053587)

  1. ##### MediaInfo ######

  2. General

  3. Unique ID : 134661617623507664311640926225431361055 (0x654EE2593B6AA8199B9C6018168D761F)

  4. Complete name : The.Time.Travelers.Wife.2009.1080p.BluRay.DTS.x265-10bit-ENTHD.mkv

  5. Format : Matroska

  6. Format version : Version 4

  7. File size : 8.85 GiB

  8. Duration : 1 h 47 min

  9. Overall bit rate : 11.8 Mb/s

  10. Movie name : The Time Travelers Wife 2009 1080p BluRay DTS x265-10bit-HDS

  11. Encoded date : UTC 2022-05-29 07:06:38

  12. Writing application : mkvmerge v67.0.0 ('Under Stars') 64-bit

  13. Writing library : libebml v1.4.2 + libmatroska v1.6.4

  14. Video

  15. ID : 1

  16. Format : HEVC

  17. Format/Info : High Efficiency Video Coding

  18. Format profile : Main [email protected]@High

  19. Codec ID : V_MPEGH/ISO/HEVC

  20. Duration : 1 h 47 min

  21. Bit rate : 10.2 Mb/s

  22. Width : 1 920 pixels

  23. Height : 800 pixels

  24. Display aspect ratio : 2.40:1

  25. Frame rate mode : Constant

  26. Frame rate : 23.976 (24000/1001/53354) FPS

  27. Color space : YUV

  28. Chroma subsampling : 4:2:0

  29. Bit depth : 10 bits

  30. Bits/(Pixel*Frame) : 0.278

  31. Stream size : 7.68 GiB (87%)

  32. Title : [email protected]

  33. Writing library : x265 - H.265/HEVC codec

  34. Default : Yes

  35. Forced : No

  36. Audio

  37. ID : 2

  38. Format : DTS

  39. Format/Info : Digital Theater Systems

  40. Codec ID : A_DTS

  41. Duration : 1 h 47 min

  42. Bit rate mode : Constant

  43. Bit rate : 1 509 kb/s

  44. Channel(s) : 6 channels

  45. Channel layout : C L R Ls Rs LFE

  46. Sampling rate : 48.0 kHz

  47. Frame rate : 93.750 FPS (512 SPF)

  48. Bit depth : 24 bits

  49. Compression mode : Lossy

  50. Stream size : 1.13 GiB (13%)

  51. Title : English

  52. Language : English

  53. Default : Yes

  54. Forced : No

  55. Text #1

  56. ID : 3

  57. Format : PGS

  58. Muxing mode : zlib

  59. Codec ID : S_HDMV/PGS

  60. Codec ID/Info : Picture based subtitle format used on BDs/HD-DVDs

  61. Duration : 1 h 38 min

  62. Bit rate : 33.7 kb/s

  63. Count of elements : 2044

  64. Stream size : 23.7 MiB (0%)

  65. Title : CHS&ENG

  66. Language : Chinese

  67. Default : Yes

  68. Forced : No

  69. Text #2

  70. ID : 4

  71. Format : PGS

  72. Muxing mode : zlib

  73. Codec ID : S_HDMV/PGS

  74. Codec ID/Info : Picture based subtitle format used on BDs/HD-DVDs

  75. Duration : 1 h 38 min

  76. Bit rate : 34.4 kb/s

  77. Count of elements : 2044

  78. Stream size : 24.2 MiB (0%)

  79. Title : CHT&ENG

  80. Language : Chinese

  81. Default : Yes

  82. Forced : No

  83. Text #3

  84. ID : 5

  85. Format : PGS

  86. Muxing mode : zlib

  87. Codec ID : S_HDMV/PGS

  88. Codec ID/Info : Picture based subtitle format used on BDs/HD-DVDs

  89. Duration : 1 h 47 min

  90. Bit rate : 24.4 kb/s

  91. Count of elements : 2188

  92. Stream size : 18.7 MiB (0%)

  93. Title : ENG

  94. Language : English

  95. Default : Yes

  96. Forced : No

  97. Menu

  98. 00:00:00.000 : en:第 01 章

  99. 00:05:11.144 : en:第 02 章

  100. 00:09:06.254 : en:第 03 章

  101. 00:13:23.469 : en:第 04 章

  102. 00:18:51.922 : en:第 05 章

  103. 00:23:13.475 : en:第 06 章

  104. 00:27:26.895 : en:第 07 章

  105. 00:29:57.963 : en:第 08 章

  106. 00:33:27.380 : en:第 09 章

  107. 00:35:27.292 : en:第 10 章

  108. 00:39:53.433 : en:第 11 章

  109. 00:43:51.212 : en:第 12 章

  110. 00:47:22.006 : en:第 13 章

  111. 00:49:54.241 : en:第 14 章

  112. 00:54:17.754 : en:第 15 章

  113. 00:57:06.256 : en:第 16 章

  114. 01:02:46.137 : en:第 17 章

  115. 01:08:03.621 : en:第 18 章

  116. 01:12:50.741 : en:第 19 章

  117. 01:16:26.832 : en:第 20 章

  118. 01:19:55.457 : en:第 21 章

  119. 01:23:23.290 : en:第 22 章

  120. 01:26:45.450 : en:第 23 章

  121. 01:32:47.145 : en:第 24 章

  122. 01:34:34.836 : en:第 25 章

  123. 01:39:15.199 : en:第 26 章


复制代码



文件下载


除非特别注明,本文『时间旅行者的妻子[简繁英字幕].The.Time.Travelers.Wife.2009.1080p.BluRay.DTS.x265-10bit-ENTHD 8.85GB』来源于互联网机器人自动抓取,非本站原创。 浮游电影网不对本文拥有版权,如有侵犯,请联系邮箱:fuyouu#yandex.com[#换成@]投诉。我们会在15个工作日内删除。 但烦请转载时请标明出处:“本文转载于『浮游电影网』,原文地址:https://www.fuyouu.com/22361.html

评论吧骚年!

发表你的见解   

昵称*

E-mail*(建议输入,以便收到博主回复的提示邮件)

验证码*

您可以使用eMule或eMule Mod(Windows)、aMule(Win、Linux、Mac)等软件下载eD2k链接。。
eMule收藏集(.emulecollection)文件是您选中的所有链接的列表文件。eMule可以直接下载它们。
按住SHIFT键选择可以选中多个选择框。
可用文件名和大小选择器来选择文件。
文件名选择器帮您根据文件名称或后缀来选择文件。不分大小写。
符号使用:
和:空格( )、+
不包含:-
或:|
转义:一对英文引号("");
匹配开头:^
匹配结尾:$
例如:
选中所有名称中包含有“eMule”或“0.49c”字眼,但不包含有“exe”字眼的:emule|0.49c -exe
选中所有名称的开头是“eMule”,结尾是“0.49c”的:^emule 0.49c$
选中所有名称中带有“eMule 0.49c”的(必须是“eMule 0.49c”,中间没有别的字符,不能是“eMule fake 0.49c”),需要转义:"emule 0.49c"
大小选择器帮您根据文件大小选择文件。