当前位置: 首页 >> 欧美电影 >> 壁花少年[中英字幕].The.Perks.of.Being.a.Wallflower.2012.BluRay.1080p.x265.10bit-MiniHD 6.38GB >> 正文

壁花少年[中英字幕].The.Perks.of.Being.a.Wallflower.2012.BluRay.1080p.x265.10bit-MiniHD 6.38GB

2022年05月30日 21:28:05     电影发布:来源于网络     电影分类:欧美电影     评论(0)    

◎译 名 壁花少年 / 少年自读日记(港) / 壁花男孩(台) / 壁花之巅

◎片 名 The Perks of Being a Wallflower

◎年 代 2012

◎产 地 美国

◎类 别 剧情 / 爱情

◎语 言 英语

◎上映日期 2012-09-08(多伦多电影节) / 2012-09-21(美国)

◎IMDb链接 https://www.imdb.com/title/tt1659337/

◎豆瓣评分 8.0/10 (187409人评价)

◎豆瓣链接 https://movie.douban.com/subject/4847665/

◎片 长 102分钟

◎导 演 斯蒂芬·卓博斯基 Stephen Chbosky (id:1070754)

◎编 剧 斯蒂芬·卓博斯基 Stephen Chbosky (id:1070754)

◎演 员 罗根·勒曼 Logan Lerman (id:1053583)

艾玛·沃森 Emma Watson (id:1053624)

埃兹拉·米勒 Ezra Miller (id:1313037)

妮娜·杜波夫 Nina Dobrev (id:1013763)

保罗·路德 Paul Rudd (id:1002667)

梅·惠特曼 Mae Whitman (id:1017892)

迪伦·麦克德莫特 Dylan McDermott (id:1040567)

凯特·沃什 Kate Walsh (id:1027806)

梅兰妮·林斯基 Melanie Lynskey (id:1044729)

约翰尼·西蒙斯 Johnny Simmons (id:1036412)

布莱恩·巴尔泽里尼 Brian Balzerini (id:1271412)

尼可拉斯·博朗 Nicholas Braun (id:1044923)

朱莉娅·加纳 Julia Garner (id:1327285)

汤姆·萨维尼 Tom Savini (id:1041207)

切尔西·张 Chelsea Zhang (id:1337082)

亚当·哈根布奇 Adam Hagenbuch (id:1354717)

埃林·维赫米 Erin Wilhelmi (id:1325940)

Jordan Paley (id:1228722)

里斯·汤普森 Reece Thompson (id:1040725)

赞恩·霍尔茨 Zane Holtz (id:1188997)

Atticus Cain Atticus Cain (id:1218022)

Dihlon McManne Dihlon McManne (id:1124198)

兰登·皮格 Landon Pigg (id:1245518)

珍妮弗·恩斯卡特 Jennifer Enskat (id:1375134)

琼·库萨克 Joan Cusack (id:1027139)

欧文·坎贝尔 Owen Campbell (id:1313218)

Rick Dawson (id:1266319)

Pat Frey (id:1265244)

威廉·卡尼亚 William Kania (id:1216458)

Brenden Meers (id:1230414)

杰瑞米·穆恩 Jeremy Moon (id:1267539)

布莱恩·穆勒 Brian Muller (id:1353058)

亚历山大·罗德斯 Alexander Rhodes (id:1324275)

约翰·马尔科维奇 John Malkovich (id:1041013)

斯蒂芬·卓博斯基 Stephen Chbosky (id:1070754)

利安妮·哈尔丰 Lianne Halfon (id:1023509)

罗素·史密斯 Russell Smith (id:1157667)

安巴尔·温伯格 Inbal Weinberg (id:1466716)

◎简 介

查理(罗根·勒曼 Logan Lerman 饰)是个害羞和孤独的高中新生,拥有超越年龄的敏感和泪腺,总是默默观察身边的家人和朋友,是个典型的「壁花少年」。他的青春期充满各种挫折,先后经历了阿姨为给他买生日礼物去世、最好朋友自杀、受同侪排挤欺负、单恋没有回应等各种事情。然而查理还不是最惨的,因为和他一样被生活逼入墙角罚站的人实在太多。他幸运的拥有一个开明的老师和两个高年级的好友:叛逆娇俏的少女珊(艾玛·沃森 Emma Watson 饰)和自信满满的同志男生帕特里克(埃兹拉·米勒 Ezra Miller 饰),他们让查理明白了有时候不能永远旁观,必须要参与进来才能拥有属于自己的精彩。

《壁花少年》改编自同名畅销原著,由作者史蒂芬·克伯斯基自编自导,《朱诺》原班监制倾力打造,集合90后一众人气偶像,在自杀、霸凌、性向、毒品等诸多敏感争议的话题中,书写一篇献...

◎获奖情况 (共30项)

第22届MTV电影奖 (2013)

MTV电影奖 最佳女演员(提名)

└──艾玛·沃森 (id:1053624)

MTV电影奖 突破表演奖(提名)

└──埃兹拉·米勒 (id:1313037)

MTV电影奖 最佳吻戏(提名)

MTV电影奖 最佳音乐场景(提名)

第84届美国国家评论协会奖 (2013)

年度佳片

第18届美国评论家选择电影奖 (2013)

最佳青少年演员(提名)

└──罗根·勒曼 (id:1053583)

最佳改编剧本(提名)

└──斯蒂芬·卓博斯基 (id:1070754)

第28届美国独立精神奖 (2013)

最佳处女作

第11届华盛顿影评人协会奖 (2012)

最佳改编剧本(提名)

└──斯蒂芬·卓博斯基 (id:1070754)

第33届波士顿影评人协会奖 (2012)

最佳男配角

└──埃兹拉·米勒 (id:1313037)

最佳女配角(提名)

└──艾玛·沃森 (id:1053624)

第17届圣地亚哥影评人协会奖 (2012)

最佳女配角

└──艾玛·沃森 (id:1053624)

最佳改编剧本(提名)

└──斯蒂芬·卓博斯基 (id:1070754)

最佳群像表演(提名)

第25届芝加哥影评人协会奖 (2012)

最佳改编剧本(提名)

└──斯蒂芬·卓博斯基 (id:1070754)

最具潜力导演(提名)

└──斯蒂芬·卓博斯基 (id:1070754)

第12届凤凰城影评人协会奖 (2012)

最佳男配角(提名)

└──埃兹拉·米勒 (id:1313037)

最佳女配角(提名)

└──艾玛·沃森 (id:1053624)

最佳改编剧本(提名)

└──斯蒂芬·卓博斯基 (id:1070754)

年度被忽略影片(提名)

最佳新人导演(提名)

└──斯蒂芬·卓博斯基 (id:1070754)

第15届美国青少年选择奖 (2013)

最佳剧情片

最佳剧情片男演员

└──罗根·勒曼 (id:1053583)

最佳剧情片女演员

└──艾玛·沃森 (id:1053624)

最佳突破表演电影新星(提名)

└──埃兹拉·米勒 (id:1313037)

最佳电影吻戏(提名)

第3届豆瓣电影鑫像奖 (2013)

鑫豆单元 最佳女演员(外语)(提名)

└──艾玛·沃森 (id:1053624)

鑫豆单元 最佳配乐(提名)

鑫豆单元 最佳歌曲(提名)

鑫豆单元 最佳落选影片

  1. ##### MediaInfo ######

  2. General

  3. Unique ID : 186766350429531942438710303445819907046 (0x8C81E4043C11A7D19E28BD774BACDBE6)

  4. Complete name : The.Perks.of.Being.a.Wallflower.2012.BluRay.1080p.x265.10bit-MiniHD.mkv

  5. Format : Matroska

  6. Format version : Version 4

  7. File size : 6.38 GiB

  8. Duration : 1 h 42 min

  9. Overall bit rate : 8 891 kb/s

  10. Encoded date : UTC 2017-10-20 11:41:20

  11. Writing application : mkvmerge v11.0.0 ('Alive') 64bit

  12. Writing library : libebml v1.3.4 + libmatroska v1.4.5

  13. Video

  14. ID : 1

  15. Format : HEVC

  16. Format/Info : High Efficiency Video Coding

  17. Codec ID : V_MPEGH/ISO/HEVC

  18. Duration : 1 h 42 min

  19. Bit rate : 8 112 kb/s

  20. Width : 1 920 pixels

  21. Height : 1 080 pixels

  22. Display aspect ratio : 16:9

  23. Frame rate mode : Constant

  24. Frame rate : 23.976 (24000/1001/53354) FPS

  25. Bits/(Pixel*Frame) : 0.163

  26. Stream size : 5.82 GiB (91%)

  27. Default : Yes

  28. Forced : No

  29. Audio

  30. ID : 2

  31. Format : AC-3

  32. Format/Info : Audio Coding 3

  33. Commercial name : Dolby Digital

  34. Codec ID : A_AC3

  35. Duration : 1 h 42 min

  36. Bit rate mode : Constant

  37. Bit rate : 640 kb/s

  38. Channel(s) : 6 channels

  39. Channel layout : L R C LFE Ls Rs

  40. Sampling rate : 48.0 kHz

  41. Frame rate : 31.250 FPS (1536 SPF)

  42. Compression mode : Lossy

  43. Stream size : 470 MiB (7%)

  44. Language : English

  45. Service kind : Complete Main

  46. Default : Yes

  47. Forced : No

  48. Text #1

  49. ID : 3

  50. Format : PGS

  51. Muxing mode : zlib

  52. Codec ID : S_HDMV/PGS

  53. Codec ID/Info : Picture based subtitle format used on BDs/HD-DVDs

  54. Duration : 1 h 36 min

  55. Bit rate : 25.4 kb/s

  56. Count of elements : 2939

  57. Stream size : 17.5 MiB (0%)

  58. Language : English

  59. Default : No

  60. Forced : No

  61. Text #2

  62. ID : 4

  63. Format : PGS

  64. Muxing mode : zlib

  65. Codec ID : S_HDMV/PGS

  66. Codec ID/Info : Picture based subtitle format used on BDs/HD-DVDs

  67. Duration : 1 h 42 min

  68. Bit rate : 27.2 kb/s

  69. Count of elements : 3347

  70. Stream size : 19.9 MiB (0%)

  71. Language : English

  72. Default : No

  73. Forced : No

  74. Text #3

  75. ID : 5

  76. Format : PGS

  77. Muxing mode : zlib

  78. Codec ID : S_HDMV/PGS

  79. Codec ID/Info : Picture based subtitle format used on BDs/HD-DVDs

  80. Duration : 1 h 41 min

  81. Bit rate : 17.1 kb/s

  82. Count of elements : 3148

  83. Stream size : 12.5 MiB (0%)

  84. Language : Chinese

  85. Default : No

  86. Forced : No

  87. Text #4

  88. ID : 6

  89. Format : PGS

  90. Muxing mode : zlib

  91. Codec ID : S_HDMV/PGS

  92. Codec ID/Info : Picture based subtitle format used on BDs/HD-DVDs

  93. Duration : 1 h 41 min

  94. Bit rate : 17.8 kb/s

  95. Count of elements : 3148

  96. Stream size : 12.9 MiB (0%)

  97. Language : Chinese

  98. Default : No

  99. Forced : No

  100. Text #5

  101. ID : 7

  102. Format : PGS

  103. Muxing mode : zlib

  104. Codec ID : S_HDMV/PGS

  105. Codec ID/Info : Picture based subtitle format used on BDs/HD-DVDs

  106. Duration : 1 h 41 min

  107. Bit rate : 25.3 kb/s

  108. Count of elements : 3148

  109. Stream size : 18.4 MiB (0%)

  110. Language : Chinese

  111. Default : No

  112. Forced : No

  113. Text #6

  114. ID : 8

  115. Format : PGS

  116. Muxing mode : zlib

  117. Codec ID : S_HDMV/PGS

  118. Codec ID/Info : Picture based subtitle format used on BDs/HD-DVDs

  119. Duration : 1 h 41 min

  120. Bit rate : 25.4 kb/s

  121. Count of elements : 3148

  122. Stream size : 18.5 MiB (0%)

  123. Language : Chinese

  124. Default : No

  125. Forced : No

  126. Menu

  127. 00:00:00.000 : en:Chapter 1

  128. 00:05:04.387 : en:Chapter 2

  129. 00:10:24.624 : en:Chapter 3

  130. 00:17:06.984 : en:Chapter 4

  131. 00:21:38.005 : en:Chapter 5

  132. 00:28:31.501 : en:Chapter 6

  133. 00:33:09.070 : en:Chapter 7

  134. 00:39:55.351 : en:Chapter 8

  135. 00:47:17.000 : en:Chapter 9

  136. 00:54:38.858 : en:Chapter 10

  137. 00:58:15.950 : en:Chapter 11

  138. 01:03:17.960 : en:Chapter 12

  139. 01:10:13.125 : en:Chapter 13

  140. 01:18:31.790 : en:Chapter 14

  141. 01:23:11.611 : en:Chapter 15

  142. 01:31:12.383 : en:Chapter 16

  143. 01:42:39.903 : en:


复制代码



文件下载


除非特别注明,本文『壁花少年[中英字幕].The.Perks.of.Being.a.Wallflower.2012.BluRay.1080p.x265.10bit-MiniHD 6.38GB』来源于互联网机器人自动抓取,非本站原创。 浮游电影网不对本文拥有版权,如有侵犯,请联系邮箱:fuyouu#yandex.com[#换成@]投诉。我们会在15个工作日内删除。 但烦请转载时请标明出处:“本文转载于『浮游电影网』,原文地址:https://www.fuyouu.com/22360.html

评论吧骚年!

发表你的见解   

昵称*

E-mail*(建议输入,以便收到博主回复的提示邮件)

验证码*

您可以使用eMule或eMule Mod(Windows)、aMule(Win、Linux、Mac)等软件下载eD2k链接。。
eMule收藏集(.emulecollection)文件是您选中的所有链接的列表文件。eMule可以直接下载它们。
按住SHIFT键选择可以选中多个选择框。
可用文件名和大小选择器来选择文件。
文件名选择器帮您根据文件名称或后缀来选择文件。不分大小写。
符号使用:
和:空格( )、+
不包含:-
或:|
转义:一对英文引号("");
匹配开头:^
匹配结尾:$
例如:
选中所有名称中包含有“eMule”或“0.49c”字眼,但不包含有“exe”字眼的:emule|0.49c -exe
选中所有名称的开头是“eMule”,结尾是“0.49c”的:^emule 0.49c$
选中所有名称中带有“eMule 0.49c”的(必须是“eMule 0.49c”,中间没有别的字符,不能是“eMule fake 0.49c”),需要转义:"emule 0.49c"
大小选择器帮您根据文件大小选择文件。