当前位置: 首页 >> 欧美电影 >> 黑寡妇[IMAX满屏版][简繁英字幕].Black.Widow.2021.IMAX.2160p.HDR.DSNP.WEB-DL.H.265.DDP5.1.Atmos-HDBWEB 16.09GB >> 正文

黑寡妇[IMAX满屏版][简繁英字幕].Black.Widow.2021.IMAX.2160p.HDR.DSNP.WEB-DL.H.265.DDP5.1.Atmos-HDBWEB 16.09GB

2022年05月29日 23:47:02     电影发布:来源于网络     电影分类:欧美电影     评论(0)    

◎译 名 黑寡妇 / The Black Widow

◎片 名 Black Widow

◎年 代 2021

◎产 地 美国

◎类 别 动作 / 科幻 / 冒险

◎语 言 英语 / 俄语 / 挪威语 / 匈牙利语 / 马其顿语 / 芬兰语

◎上映日期 2021-07-07(中国香港) / 2021-07-09(美国/美国网络)

◎IMDb链接 https://www.imdb.com/title/tt3480822/

◎豆瓣评分 6.2/10 (173106人评价)

◎豆瓣链接 https://movie.douban.com/subject/25828589/

◎片 长 133分钟

◎导 演 凯特·绍特兰 Cate Shortland (id:1023398)

◎编 剧 雅克·舍费尔 Jac Schaeffer (id:1314894)

内德·本森 Ned Benson (id:1000957)

埃里克·皮尔森 Eric Pearson (id:1383481)

斯坦·李 Stan Lee (id:1013888)

唐·赫克 Don Heck (id:1015145)

唐·里科 Don Rico (id:1412639)

◎演 员 斯嘉丽·约翰逊 Scarlett Johansson (id:1054453)

弗洛伦丝·皮尤 Florence Pugh (id:1378921)

蕾切尔·薇兹 Rachel Weisz (id:1018989)

大卫·哈伯 David Harbour (id:1225637)

艾尔·安德森 Ever Anderson (id:1367802)

维奥莱特·麦格劳 Violet McGraw (id:1402642)

欧嘉·柯瑞兰寇 Olga Kurylenko (id:1035654)

O·T·法格本 O.T. Fagbenle (id:1338901)

威廉·赫特 William Hurt (id:1031849)

雷·温斯顿 Ray Winstone (id:1006977)

赖恩·基拉·阿姆斯特朗 Ryan Kiera Armstrong (id:1421167)

米歇尔·李 Michelle Lee (id:1318105)

拉娜·布隆代尔 Nanna Blondell (id:1235341)

Claudia Heinz Claudia Heinz (id:1454076)

露西·詹·穆雷 Lucy Jayne Murray (id:1393953)

乔治亚·柯蒂斯 Georgia Curtis (id:1442792)

约恩·巴特勒 Ione Butler (id:1363756)

库尔特·岳 Kurt Yue (id:1374220)

奥利维尔·里希特斯 Olivier Richters (id:1421821)

安得烈·拜伦 Andrew Byron (id:1195416)

卡利·内勒 Cali Nelle (id:1346575)

罗伯特·普拉尔戈 Robert Pralgo (id:1174082)

贾辛特·布兰肯希普 Jacinte Blankenship (id:1430644)

乔希·亨利 Josh Henry (id:1194092)

阿里娅·布鲁克斯 Aria Brooks (id:1393080)

泰·赫尔利 Ty Hurley (id:1369268)

马里安·洛伦西克 Marian Lorencik (id:1397362)

茱莉亚·路易斯-德瑞弗斯 Julia Louis-Dreyfus (id:1055305)

亚当·普里克特 Adam Prickett (id:1332709)

史蒂芬·萨姆森 Stephen Samson (id:1145184)

乔基姆·斯卡利 Joakim Skarli (id:1432182)

利亚尼·塞缪尔 Liani Samuel (id:1459422)

西蒙娜·齐夫科夫斯卡 Simona Zivkovska (id:1459424)

刘易斯·扬 Lewis Young (id:1459423)

谢娜·韦斯特 Shaina West (id:1464846)

凯文·费奇 Kevin Feige (id:1340830)

斯嘉丽·约翰逊 Scarlett Johansson (id:1054453)

洛内·巴尔菲 Lorne Balfe (id:1032847)

加布里尔·贝瑞斯坦 Gabriel Beristain (id:1045610)

玛丽亚·朱科维克 Maria Djurkovic (id:1282498)

简妮·特米姆 Jany Temime (id:1299039)

◎简 介

一部充满动作戏的间谍惊悚片。娜塔莎·罗曼诺夫/黑寡妇遭遇与她的过去相关的一场危险阴谋,将直面自己那些更为黑暗的经历。一股不惜一切要击倒她的力量袭来,娜塔莎必须面对自己在成为复仇者的很久之前那作为间谍的过往,和曾远离的破碎关系。

◎获奖情况 (共3项)

第28届美国演员工会奖 (2022)

电影最佳特技群戏(提名)

第7届豆瓣电影年度榜单 (2020)

最值得期待的外语电影

第6届豆瓣电影年度榜单 (2019)

最值得期待的外语电影

  1. ##### MediaInfo ######

  2. General

  3. Unique ID : 256105799869197550132790599083000606842 (0xC0AC2ED1DFE9F1CA20E948402650307A)

  4. Complete name : Black.Widow.2021.IMAX.2160p.HDR.DSNP.WEB-DL.H.265.DDP5.1.Atmos-HDBWEB.mkv

  5. Format : Matroska

  6. Format version : Version 4

  7. File size : 16.1 GiB

  8. Duration : 2 h 13 min

  9. Overall bit rate : 17.2 Mb/s

  10. Encoded date : UTC 2022-05-24 00:27:05

  11. Writing application : mkvmerge v67.0.0 ('Under Stars') 64-bit

  12. Writing library : libebml v1.4.2 + libmatroska v1.6.4

  13. Video

  14. ID : 1

  15. Format : HEVC

  16. Format/Info : High Efficiency Video Coding

  17. Format profile : Main [email protected]@High

  18. HDR format : SMPTE ST 2086, HDR10 compatible

  19. Codec ID : V_MPEGH/ISO/HEVC

  20. Duration : 2 h 13 min

  21. Bit rate : 16.4 Mb/s

  22. Width : 3 840 pixels

  23. Height : 2 160 pixels

  24. Display aspect ratio : 16:9

  25. Frame rate mode : Constant

  26. Frame rate : 23.976 (24000/1001/53354) FPS

  27. Color space : YUV

  28. Chroma subsampling : 4:2:0

  29. Bit depth : 10 bits

  30. Bits/(Pixel*Frame) : 0.083

  31. Stream size : 15.4 GiB (96%)

  32. Language : English

  33. Default : Yes

  34. Forced : No

  35. Color range : Limited

  36. Color primaries : BT.2020

  37. Transfer characteristics : PQ

  38. Matrix coefficients : BT.2020 non-constant

  39. Mastering display color primaries : Display P3

  40. Mastering display luminance : min: 0.0000 cd/m2, max: 1000 cd/m2

  41. Audio

  42. ID : 2

  43. Format : E-AC-3 JOC

  44. Format/Info : Enhanced AC-3 with Joint Object Coding

  45. Commercial name : Dolby Digital Plus with Dolby Atmos

  46. Codec ID : A_EAC3

  47. Duration : 2 h 13 min

  48. Bit rate mode : Constant

  49. Bit rate : 768 kb/s

  50. Channel(s) : 6 channels

  51. Channel layout : L R C LFE Ls Rs

  52. Sampling rate : 48.0 kHz

  53. Frame rate : 31.250 FPS (1536 SPF)

  54. Compression mode : Lossy

  55. Stream size : 735 MiB (4%)

  56. Service kind : Complete Main

  57. Default : Yes

  58. Forced : No

  59. Complexity index : 16

  60. Number of dynamic objects : 15

  61. Bed channel count : 1 channel

  62. Bed channel configuration : LFE

  63. Text #1

  64. ID : 3

  65. Format : UTF-8

  66. Codec ID : S_TEXT/UTF8

  67. Codec ID/Info : UTF-8 Plain Text

  68. Duration : 2 h 13 min

  69. Bit rate : 46 b/s

  70. Count of elements : 1630

  71. Stream size : 45.7 KiB (0%)

  72. Title : SDH

  73. Language : English

  74. Default : No

  75. Forced : No

  76. Text #2

  77. ID : 4

  78. Format : UTF-8

  79. Codec ID : S_TEXT/UTF8

  80. Codec ID/Info : UTF-8 Plain Text

  81. Duration : 2 h 12 min

  82. Bit rate : 33 b/s

  83. Count of elements : 923

  84. Stream size : 32.4 KiB (0%)

  85. Language : Danish

  86. Default : No

  87. Forced : No

  88. Text #3

  89. ID : 5

  90. Format : UTF-8

  91. Codec ID : S_TEXT/UTF8

  92. Codec ID/Info : UTF-8 Plain Text

  93. Duration : 2 h 13 min

  94. Bit rate : 50 b/s

  95. Count of elements : 1502

  96. Stream size : 49.4 KiB (0%)

  97. Title : SDH

  98. Language : German

  99. Default : No

  100. Forced : No

  101. Text #4

  102. ID : 6

  103. Format : UTF-8

  104. Codec ID : S_TEXT/UTF8

  105. Codec ID/Info : UTF-8 Plain Text

  106. Duration : 2 h 12 min

  107. Bit rate : 35 b/s

  108. Count of elements : 1204

  109. Stream size : 34.8 KiB (0%)

  110. Language : German

  111. Default : No

  112. Forced : No

  113. Text #5

  114. ID : 7

  115. Format : UTF-8

  116. Codec ID : S_TEXT/UTF8

  117. Codec ID/Info : UTF-8 Plain Text

  118. Duration : 2 h 12 min

  119. Bit rate : 42 b/s

  120. Count of elements : 1288

  121. Stream size : 41.3 KiB (0%)

  122. Title : Latin America (SDH)

  123. Language : Spanish

  124. Default : No

  125. Forced : No

  126. Text #6

  127. ID : 8

  128. Format : UTF-8

  129. Codec ID : S_TEXT/UTF8

  130. Codec ID/Info : UTF-8 Plain Text

  131. Duration : 2 h 12 min

  132. Bit rate : 40 b/s

  133. Count of elements : 1302

  134. Stream size : 39.5 KiB (0%)

  135. Title : Latin America

  136. Language : Spanish

  137. Default : No

  138. Forced : No

  139. Text #7

  140. ID : 9

  141. Format : UTF-8

  142. Codec ID : S_TEXT/UTF8

  143. Codec ID/Info : UTF-8 Plain Text

  144. Duration : 2 h 12 min

  145. Bit rate : 36 b/s

  146. Count of elements : 1277

  147. Stream size : 35.1 KiB (0%)

  148. Language : Spanish

  149. Default : No

  150. Forced : No

  151. Text #8

  152. ID : 10

  153. Format : UTF-8

  154. Codec ID : S_TEXT/UTF8

  155. Codec ID/Info : UTF-8 Plain Text

  156. Duration : 2 h 12 min

  157. Bit rate : 39 b/s

  158. Count of elements : 1300

  159. Stream size : 38.3 KiB (0%)

  160. Language : Finnish

  161. Default : No

  162. Forced : No

  163. Text #9

  164. ID : 11

  165. Format : UTF-8

  166. Codec ID : S_TEXT/UTF8

  167. Codec ID/Info : UTF-8 Plain Text

  168. Duration : 2 h 12 min

  169. Bit rate : 43 b/s

  170. Count of elements : 1319

  171. Stream size : 42.7 KiB (0%)

  172. Title : Canada

  173. Language : French

  174. Default : No

  175. Forced : No

  176. Text #10

  177. ID : 12

  178. Format : UTF-8

  179. Codec ID : S_TEXT/UTF8

  180. Codec ID/Info : UTF-8 Plain Text

  181. Duration : 2 h 13 min

  182. Bit rate : 43 b/s

  183. Count of elements : 1494

  184. Stream size : 42.4 KiB (0%)

  185. Title : SDH

  186. Language : French

  187. Default : No

  188. Forced : No

  189. Text #11

  190. ID : 13

  191. Format : UTF-8

  192. Codec ID : S_TEXT/UTF8

  193. Codec ID/Info : UTF-8 Plain Text

  194. Duration : 2 h 12 min

  195. Bit rate : 33 b/s

  196. Count of elements : 1256

  197. Stream size : 32.4 KiB (0%)

  198. Language : French

  199. Default : No

  200. Forced : No

  201. Text #12

  202. ID : 14

  203. Format : UTF-8

  204. Codec ID : S_TEXT/UTF8

  205. Codec ID/Info : UTF-8 Plain Text

  206. Duration : 2 h 12 min

  207. Bit rate : 40 b/s

  208. Count of elements : 1278

  209. Stream size : 39.1 KiB (0%)

  210. Language : Italian

  211. Default : No

  212. Forced : No

  213. Text #13

  214. ID : 15

  215. Format : UTF-8

  216. Codec ID : S_TEXT/UTF8

  217. Codec ID/Info : UTF-8 Plain Text

  218. Duration : 2 h 12 min

  219. Bit rate : 32 b/s

  220. Count of elements : 1257

  221. Stream size : 31.7 KiB (0%)

  222. Language : Japanese

  223. Default : No

  224. Forced : No

  225. Text #14

  226. ID : 16

  227. Format : UTF-8

  228. Codec ID : S_TEXT/UTF8

  229. Codec ID/Info : UTF-8 Plain Text

  230. Duration : 2 h 12 min

  231. Bit rate : 36 b/s

  232. Count of elements : 1297

  233. Stream size : 35.8 KiB (0%)

  234. Language : Korean

  235. Default : No

  236. Forced : No

  237. Text #15

  238. ID : 17

  239. Format : UTF-8

  240. Codec ID : S_TEXT/UTF8

  241. Codec ID/Info : UTF-8 Plain Text

  242. Duration : 2 h 12 min

  243. Bit rate : 34 b/s

  244. Count of elements : 1299

  245. Stream size : 33.8 KiB (0%)

  246. Language : Norwegian Bokmal

  247. Default : No

  248. Forced : No

  249. Text #16

  250. ID : 18

  251. Format : UTF-8

  252. Codec ID : S_TEXT/UTF8

  253. Codec ID/Info : UTF-8 Plain Text

  254. Duration : 2 h 12 min

  255. Bit rate : 35 b/s

  256. Count of elements : 1114

  257. Stream size : 34.9 KiB (0%)

  258. Language : Dutch

  259. Default : No

  260. Forced : No

  261. Text #17

  262. ID : 19

  263. Format : UTF-8

  264. Codec ID : S_TEXT/UTF8

  265. Codec ID/Info : UTF-8 Plain Text

  266. Duration : 2 h 13 min

  267. Bit rate : 46 b/s

  268. Count of elements : 1473

  269. Stream size : 45.8 KiB (0%)

  270. Title : Brazil (SDH)

  271. Language : Portuguese

  272. Default : No

  273. Forced : No

  274. Text #18

  275. ID : 20

  276. Format : UTF-8

  277. Codec ID : S_TEXT/UTF8

  278. Codec ID/Info : UTF-8 Plain Text

  279. Duration : 2 h 12 min

  280. Bit rate : 39 b/s

  281. Count of elements : 1297

  282. Stream size : 38.5 KiB (0%)

  283. Title : Brazil

  284. Language : Portuguese

  285. Default : No

  286. Forced : No

  287. Text #19

  288. ID : 21

  289. Format : UTF-8

  290. Codec ID : S_TEXT/UTF8

  291. Codec ID/Info : UTF-8 Plain Text

  292. Duration : 2 h 12 min

  293. Bit rate : 38 b/s

  294. Count of elements : 1273

  295. Stream size : 37.7 KiB (0%)

  296. Language : Portuguese

  297. Default : No

  298. Forced : No

  299. Text #20

  300. ID : 22

  301. Format : UTF-8

  302. Codec ID : S_TEXT/UTF8

  303. Codec ID/Info : UTF-8 Plain Text

  304. Duration : 2 h 12 min

  305. Bit rate : 35 b/s

  306. Count of elements : 1080

  307. Stream size : 34.8 KiB (0%)

  308. Language : Swedish

  309. Default : No

  310. Forced : No

  311. Text #21

  312. ID : 23

  313. Format : UTF-8

  314. Codec ID : S_TEXT/UTF8

  315. Codec ID/Info : UTF-8 Plain Text

  316. Duration : 2 h 12 min

  317. Bit rate : 33 b/s

  318. Count of elements : 1369

  319. Stream size : 32.4 KiB (0%)

  320. Title : Simplified

  321. Language : Chinese

  322. Default : No

  323. Forced : No

  324. Text #22

  325. ID : 24

  326. Format : UTF-8

  327. Codec ID : S_TEXT/UTF8

  328. Codec ID/Info : UTF-8 Plain Text

  329. Duration : 2 h 12 min

  330. Bit rate : 30 b/s

  331. Count of elements : 1309

  332. Stream size : 30.1 KiB (0%)

  333. Title : Traditional

  334. Language : Chinese

  335. Default : No

  336. Forced : No

  337. Text #23

  338. ID : 25

  339. Format : UTF-8

  340. Codec ID : S_TEXT/UTF8

  341. Codec ID/Info : UTF-8 Plain Text

  342. Duration : 2 h 12 min

  343. Bit rate : 28 b/s

  344. Count of elements : 1309

  345. Stream size : 28.0 KiB (0%)

  346. Title : Traditional, Hong Kong

  347. Language : Chinese

  348. Default : No

  349. Forced : No


复制代码



文件下载


除非特别注明,本文『黑寡妇[IMAX满屏版][简繁英字幕].Black.Widow.2021.IMAX.2160p.HDR.DSNP.WEB-DL.H.265.DDP5.1.Atmos-HDBWEB 16.09GB』来源于互联网机器人自动抓取,非本站原创。 浮游电影网不对本文拥有版权,如有侵犯,请联系邮箱:fuyouu#yandex.com[#换成@]投诉。我们会在15个工作日内删除。 但烦请转载时请标明出处:“本文转载于『浮游电影网』,原文地址:https://www.fuyouu.com/22353.html

评论吧骚年!

发表你的见解   

昵称*

E-mail*(建议输入,以便收到博主回复的提示邮件)

验证码*

您可以使用eMule或eMule Mod(Windows)、aMule(Win、Linux、Mac)等软件下载eD2k链接。。
eMule收藏集(.emulecollection)文件是您选中的所有链接的列表文件。eMule可以直接下载它们。
按住SHIFT键选择可以选中多个选择框。
可用文件名和大小选择器来选择文件。
文件名选择器帮您根据文件名称或后缀来选择文件。不分大小写。
符号使用:
和:空格( )、+
不包含:-
或:|
转义:一对英文引号("");
匹配开头:^
匹配结尾:$
例如:
选中所有名称中包含有“eMule”或“0.49c”字眼,但不包含有“exe”字眼的:emule|0.49c -exe
选中所有名称的开头是“eMule”,结尾是“0.49c”的:^emule 0.49c$
选中所有名称中带有“eMule 0.49c”的(必须是“eMule 0.49c”,中间没有别的字符,不能是“eMule fake 0.49c”),需要转义:"emule 0.49c"
大小选择器帮您根据文件大小选择文件。