当前位置: 首页 >> 欧美电影 >> 美国队长3[IMAX满屏版][简繁英字幕].Captain.America.Civil.War.2016.IMAX.2160p.HDR.DSNP.WEB-DL.H.265.DDP5.1.Atmos-H >> 正文

美国队长3[IMAX满屏版][简繁英字幕].Captain.America.Civil.War.2016.IMAX.2160p.HDR.DSNP.WEB-DL.H.265.DDP5.1.Atmos-H

2022年05月29日 23:31:03     电影发布:来源于网络     电影分类:欧美电影     评论(0)    

◎译 名 美国队长3 / 美国队长3:内战 / 美国队长3:英雄内战(港 / 台) / 美队3 / Captain America 3

◎片 名 Captain America: Civil War

◎年 代 2016

◎产 地 美国

◎类 别 动作 / 科幻 / 冒险

◎语 言 科萨语 / 英语 / 德语 / 俄语 / 罗马尼亚语

◎上映日期 2016-05-06(中国大陆/美国) / 2016-04-12(加州首映)

◎IMDb链接 https://www.imdb.com/title/tt3498820/

◎豆瓣评分 7.9/10 (434362人评价)

◎豆瓣链接 https://movie.douban.com/subject/25820460/

◎片 长 148分钟(中国大陆)

◎导 演 安东尼·罗素 Anthony Russo (id:1321812)

乔·罗素 Joe Russo (id:1320870)

◎编 剧 克里斯托弗·马库斯 Christopher Markus (id:1276125)

斯蒂芬·麦克菲利 Stephen McFeely (id:1276126)

杰克·科比 Jack Kirby (id:1050183)

乔·西蒙 Joe Simon (id:1154644)

◎演 员 克里斯·埃文斯 Chris Evans (id:1017885)

小罗伯特·唐尼 Robert Downey Jr. (id:1016681)

斯嘉丽·约翰逊 Scarlett Johansson (id:1054453)

塞巴斯蒂安·斯坦 Sebastian Stan (id:1021985)

安东尼·麦凯 Anthony Mackie (id:1027217)

唐·钱德尔 Don Cheadle (id:1053573)

杰瑞米·雷纳 Jeremy Renner (id:1013770)

查德维克·博斯曼 Chadwick Boseman (id:1327680)

保罗·贝坦尼 Paul Bettany (id:1003482)

伊丽莎白·奥尔森 Elizabeth Olsen (id:1129847)

保罗·路德 Paul Rudd (id:1002667)

艾米丽·万凯普 Emily VanCamp (id:1044902)

汤姆·赫兰德 Tom Holland (id:1325351)

丹尼尔·布鲁赫 Daniel Brühl (id:1053566)

弗兰克·格里罗 Frank Grillo (id:1100321)

威廉·赫特 William Hurt (id:1031849)

马丁·弗瑞曼 Martin Freeman (id:1049612)

霍普·戴维斯 Hope Davis (id:1000111)

玛丽莎·托梅 Marisa Tomei (id:1047974)

吉姆·拉什 Jim Rash (id:1313633)

金世佳 Shijia Jin (id:1313839)

斯坦·李 Stan Lee (id:1013888)

约翰·斯拉特里 John Slattery (id:1022661)

凯瑞·康顿 Kerry Condon (id:1013874)

朱丽安娜·古尔 Julianna Guill (id:1009307)

吴靖萱 Jane Wu (id:1318914)

阿尔法·伍达德 Alfre Woodard (id:1041159)

杨天翔 Tianxiang Yang (id:1341265)

弗洛伦丝·卡松巴 Florence Kasumba (id:1357653)

吉恩·法贝尔 Gene Farber (id:1171477)

雷·萨亥塔彼 Ray Sahetapy (id:1341926)

约翰·卡尼 John Kani (id:1357828)

达米恩·波蒂埃 Damion Poitier (id:1306182)

布伦特·吉恩蒂尔 Brett Gentile (id:1198232)

郭易峰 Yifeng Guo (id:1341237)

威廉·吴 William Ngo (id:1336375)

凯蒂阿弥斯 Katie Amess (id:1272020)

布瑞恩舍费尔 Brian Schaefer (id:1254045)

尼科斯·马夫拉基斯 Nikos Mavrakis (id:1345439)

盖伊·费尔南德斯 Guy Fernandez (id:1426161)

一龙 Yi Long (id:1398760)

卡德罗莎·奥娜·卡罗尔 (id:1459808)

凯文·费奇 Kevin Feige (id:1340830)

亨利·杰克曼 Henry Jackman (id:1315635)

特伦特·欧派洛克 Trent Opaloch (id:1302480)

Jerad Marantz Jerad Marantz (id:1454186)

朱迪安娜·马科夫斯基 Judianna Makovsky (id:1290783)

劳拉·丹德里奇 Laura Dandridge (id:1341790)

大卫·雷奇 David Leitch (id:1289765)

查德·斯塔赫斯基 Chad Stahelski (id:1154486)

林童 Tong Jason Lin (id:1379623)

伊万·雅格布斯 Evan Jacobs (id:1042616)

埃蒙·巴特勒 Eamonn Butler (id:1279748)

内森·里奇 Nathan Rich (id:1407651)

托马斯·尼特曼 Thomas Nittmann (id:1414106)

米格尔·A·萨莱克 Miguel A. Salek (id:1414108)

拉斐尔·皮门特尔 Raphael A. Pimentel (id:1419122)

加斯顿·达尔莫 Gastón Dalmau (id:1200209)

迈克尔·狄龙 Michael Dillon (id:1230257)

拉塞尔·厄尔 Russell Earl (id:1282937)

丹·德里伍 Dan DeLeeuw (id:1388220)

丹尼尔·萨迪克 Daniel Sudick (id:1298615)

洛伊·齐默曼 Loic Zimmermann (id:1404957)

罗恩·安德达尔 Ron Underdahl (id:1414354)

◎简 介

美国队长史蒂夫·罗杰斯(克里斯·埃文斯 Chris Evans 饰)带领着全新组建的复仇者联盟,继续维护世界和平。然而,一次执行任务时联盟成员不小心造成大量平民伤亡,从而激发政治压力,政府决定通过一套监管系统来管理和领导复仇者联盟。联盟内部因此分裂为两派:一方由史蒂夫· 罗杰斯领导,他主张维护成员自由,在免受政府干扰的情况下保护世界;另一方则追随托尼·斯塔克(小罗伯特·唐尼 Robert Downey Jr. 饰),他令人意外地决定支持政府的监管和责任制体系。神秘莫测的巴基(塞巴斯蒂安·斯坦 Sebastian Stan 饰)似乎成为内战的关键人物……

◎获奖情况 (共8项)

第44届动画安妮奖 (2017)

最佳真人电影动画角色(提名)

第23届美国演员工会奖 (2017)

电影最佳特技群戏(提名)

第22届美国评论家选择电影奖 (2017)

最佳动作片(提名)

动作片最佳男主角(提名)

└──克里斯·埃文斯 (id:1017885)

动作片最佳女主角(提名)

└──斯嘉丽·约翰逊 (id:1054453)

第3届豆瓣电影年度榜单 (2016)

最受关注的院线电影(提名)

评分最高的科幻/动作片(提名)

5月最受关注电影

  1. ##### MediaInfo ######

  2. General

  3. Unique ID : 287583251811899040716517260774465918644 (0xD85A85059C9E412486B2A6241DF8D6B4)

  4. Complete name : Captain.America.Civil.War.2016.IMAX.2160p.HDR.DSNP.WEB-DL.H.265.DDP5.1.Atmos-HDBWEB.mkv

  5. Format : Matroska

  6. Format version : Version 4

  7. File size : 17.8 GiB

  8. Duration : 2 h 27 min

  9. Overall bit rate : 17.2 Mb/s

  10. Encoded date : UTC 2022-05-27 06:37:56

  11. Writing application : mkvmerge v67.0.0 ('Under Stars') 64-bit

  12. Writing library : libebml v1.4.2 + libmatroska v1.6.4

  13. Video

  14. ID : 1

  15. Format : HEVC

  16. Format/Info : High Efficiency Video Coding

  17. Format profile : Main [email protected]@High

  18. HDR format : SMPTE ST 2086, HDR10 compatible

  19. Codec ID : V_MPEGH/ISO/HEVC

  20. Duration : 2 h 27 min

  21. Bit rate : 16.5 Mb/s

  22. Width : 3 840 pixels

  23. Height : 2 160 pixels

  24. Display aspect ratio : 16:9

  25. Frame rate mode : Constant

  26. Frame rate : 23.976 (24000/1001/53354) FPS

  27. Color space : YUV

  28. Chroma subsampling : 4:2:0

  29. Bit depth : 10 bits

  30. Bits/(Pixel*Frame) : 0.083

  31. Stream size : 17.0 GiB (96%)

  32. Language : English

  33. Default : Yes

  34. Forced : No

  35. Color range : Limited

  36. Color primaries : BT.2020

  37. Transfer characteristics : PQ

  38. Matrix coefficients : BT.2020 non-constant

  39. Mastering display color primaries : Display P3

  40. Mastering display luminance : min: 0.0050 cd/m2, max: 4000 cd/m2

  41. Audio

  42. ID : 2

  43. Format : E-AC-3 JOC

  44. Format/Info : Enhanced AC-3 with Joint Object Coding

  45. Commercial name : Dolby Digital Plus with Dolby Atmos

  46. Codec ID : A_EAC3

  47. Duration : 2 h 27 min

  48. Bit rate mode : Constant

  49. Bit rate : 768 kb/s

  50. Channel(s) : 6 channels

  51. Channel layout : L R C LFE Ls Rs

  52. Sampling rate : 48.0 kHz

  53. Frame rate : 31.250 FPS (1536 SPF)

  54. Compression mode : Lossy

  55. Stream size : 811 MiB (4%)

  56. Language : English

  57. Service kind : Complete Main

  58. Default : Yes

  59. Forced : No

  60. Complexity index : 16

  61. Number of dynamic objects : 15

  62. Bed channel count : 1 channel

  63. Bed channel configuration : LFE

  64. Text #1

  65. ID : 3

  66. Format : UTF-8

  67. Codec ID : S_TEXT/UTF8

  68. Codec ID/Info : UTF-8 Plain Text

  69. Duration : 1 h 44 min

  70. Bit rate : 1 b/s

  71. Count of elements : 59

  72. Stream size : 1 016 Bytes (0%)

  73. Title : Forced

  74. Language : English

  75. Default : No

  76. Forced : Yes

  77. Text #2

  78. ID : 4

  79. Format : UTF-8

  80. Codec ID : S_TEXT/UTF8

  81. Codec ID/Info : UTF-8 Plain Text

  82. Duration : 2 h 26 min

  83. Bit rate : 53 b/s

  84. Count of elements : 2157

  85. Stream size : 57.5 KiB (0%)

  86. Title : SDH

  87. Language : English

  88. Default : No

  89. Forced : No

  90. Text #3

  91. ID : 5

  92. Format : UTF-8

  93. Codec ID : S_TEXT/UTF8

  94. Codec ID/Info : UTF-8 Plain Text

  95. Duration : 2 h 26 min

  96. Bit rate : 45 b/s

  97. Count of elements : 1281

  98. Stream size : 48.2 KiB (0%)

  99. Language : Danish

  100. Default : No

  101. Forced : No

  102. Text #4

  103. ID : 6

  104. Format : UTF-8

  105. Codec ID : S_TEXT/UTF8

  106. Codec ID/Info : UTF-8 Plain Text

  107. Duration : 2 h 25 min

  108. Bit rate : 50 b/s

  109. Count of elements : 1666

  110. Stream size : 54.0 KiB (0%)

  111. Language : German

  112. Default : No

  113. Forced : No

  114. Text #5

  115. ID : 7

  116. Format : UTF-8

  117. Codec ID : S_TEXT/UTF8

  118. Codec ID/Info : UTF-8 Plain Text

  119. Duration : 2 h 26 min

  120. Bit rate : 49 b/s

  121. Count of elements : 1705

  122. Stream size : 52.9 KiB (0%)

  123. Title : Latin America

  124. Language : Spanish

  125. Default : No

  126. Forced : No

  127. Text #6

  128. ID : 8

  129. Format : UTF-8

  130. Codec ID : S_TEXT/UTF8

  131. Codec ID/Info : UTF-8 Plain Text

  132. Duration : 2 h 26 min

  133. Bit rate : 47 b/s

  134. Count of elements : 1690

  135. Stream size : 50.5 KiB (0%)

  136. Language : Spanish

  137. Default : No

  138. Forced : No

  139. Text #7

  140. ID : 9

  141. Format : UTF-8

  142. Codec ID : S_TEXT/UTF8

  143. Codec ID/Info : UTF-8 Plain Text

  144. Duration : 2 h 26 min

  145. Bit rate : 44 b/s

  146. Count of elements : 1682

  147. Stream size : 47.6 KiB (0%)

  148. Language : Finnish

  149. Default : No

  150. Forced : No

  151. Text #8

  152. ID : 10

  153. Format : UTF-8

  154. Codec ID : S_TEXT/UTF8

  155. Codec ID/Info : UTF-8 Plain Text

  156. Duration : 2 h 26 min

  157. Bit rate : 44 b/s

  158. Count of elements : 1614

  159. Stream size : 47.7 KiB (0%)

  160. Language : French

  161. Default : No

  162. Forced : No

  163. Text #9

  164. ID : 11

  165. Format : UTF-8

  166. Codec ID : S_TEXT/UTF8

  167. Codec ID/Info : UTF-8 Plain Text

  168. Duration : 2 h 26 min

  169. Bit rate : 51 b/s

  170. Count of elements : 1678

  171. Stream size : 55.7 KiB (0%)

  172. Language : Icelandic

  173. Default : No

  174. Forced : No

  175. Text #10

  176. ID : 12

  177. Format : UTF-8

  178. Codec ID : S_TEXT/UTF8

  179. Codec ID/Info : UTF-8 Plain Text

  180. Duration : 2 h 26 min

  181. Bit rate : 49 b/s

  182. Count of elements : 1721

  183. Stream size : 52.9 KiB (0%)

  184. Language : Italian

  185. Default : No

  186. Forced : No

  187. Text #11

  188. ID : 13

  189. Format : UTF-8

  190. Codec ID : S_TEXT/UTF8

  191. Codec ID/Info : UTF-8 Plain Text

  192. Duration : 2 h 27 min

  193. Bit rate : 39 b/s

  194. Count of elements : 1537

  195. Stream size : 42.6 KiB (0%)

  196. Language : Japanese

  197. Default : No

  198. Forced : No

  199. Text #12

  200. ID : 14

  201. Format : UTF-8

  202. Codec ID : S_TEXT/UTF8

  203. Codec ID/Info : UTF-8 Plain Text

  204. Duration : 2 h 26 min

  205. Bit rate : 44 b/s

  206. Count of elements : 1679

  207. Stream size : 47.6 KiB (0%)

  208. Language : Korean

  209. Default : No

  210. Forced : No

  211. Text #13

  212. ID : 15

  213. Format : UTF-8

  214. Codec ID : S_TEXT/UTF8

  215. Codec ID/Info : UTF-8 Plain Text

  216. Duration : 2 h 26 min

  217. Bit rate : 46 b/s

  218. Count of elements : 1684

  219. Stream size : 49.7 KiB (0%)

  220. Language : Norwegian Bokmal

  221. Default : No

  222. Forced : No

  223. Text #14

  224. ID : 16

  225. Format : UTF-8

  226. Codec ID : S_TEXT/UTF8

  227. Codec ID/Info : UTF-8 Plain Text

  228. Duration : 2 h 26 min

  229. Bit rate : 47 b/s

  230. Count of elements : 1553

  231. Stream size : 50.5 KiB (0%)

  232. Language : Dutch

  233. Default : No

  234. Forced : No

  235. Text #15

  236. ID : 17

  237. Format : UTF-8

  238. Codec ID : S_TEXT/UTF8

  239. Codec ID/Info : UTF-8 Plain Text

  240. Duration : 2 h 27 min

  241. Bit rate : 41 b/s

  242. Count of elements : 1670

  243. Stream size : 44.9 KiB (0%)

  244. Language : Polish

  245. Default : No

  246. Forced : No

  247. Text #16

  248. ID : 18

  249. Format : UTF-8

  250. Codec ID : S_TEXT/UTF8

  251. Codec ID/Info : UTF-8 Plain Text

  252. Duration : 2 h 26 min

  253. Bit rate : 47 b/s

  254. Count of elements : 1691

  255. Stream size : 50.5 KiB (0%)

  256. Title : Brazil

  257. Language : Portuguese

  258. Default : No

  259. Forced : No

  260. Text #17

  261. ID : 19

  262. Format : UTF-8

  263. Codec ID : S_TEXT/UTF8

  264. Codec ID/Info : UTF-8 Plain Text

  265. Duration : 2 h 26 min

  266. Bit rate : 50 b/s

  267. Count of elements : 1709

  268. Stream size : 53.7 KiB (0%)

  269. Language : Portuguese

  270. Default : No

  271. Forced : No

  272. Text #18

  273. ID : 20

  274. Format : UTF-8

  275. Codec ID : S_TEXT/UTF8

  276. Codec ID/Info : UTF-8 Plain Text

  277. Duration : 2 h 26 min

  278. Bit rate : 43 b/s

  279. Count of elements : 1115

  280. Stream size : 46.3 KiB (0%)

  281. Language : Swedish

  282. Default : No

  283. Forced : No

  284. Text #19

  285. ID : 21

  286. Format : UTF-8

  287. Codec ID : S_TEXT/UTF8

  288. Codec ID/Info : UTF-8 Plain Text

  289. Duration : 2 h 27 min

  290. Bit rate : 40 b/s

  291. Count of elements : 1821

  292. Stream size : 44.1 KiB (0%)

  293. Title : Simplified

  294. Language : Chinese

  295. Default : No

  296. Forced : No

  297. Text #20

  298. ID : 22

  299. Format : UTF-8

  300. Codec ID : S_TEXT/UTF8

  301. Codec ID/Info : UTF-8 Plain Text

  302. Duration : 2 h 27 min

  303. Bit rate : 39 b/s

  304. Count of elements : 1766

  305. Stream size : 42.4 KiB (0%)

  306. Title : Traditional

  307. Language : Chinese

  308. Default : No

  309. Forced : No

  310. Text #21

  311. ID : 23

  312. Format : UTF-8

  313. Codec ID : S_TEXT/UTF8

  314. Codec ID/Info : UTF-8 Plain Text

  315. Duration : 2 h 27 min

  316. Bit rate : 33 b/s

  317. Count of elements : 1691

  318. Stream size : 35.8 KiB (0%)

  319. Title : Traditional, Hong Kong

  320. Language : Chinese

  321. Default : No

  322. Forced : No


复制代码



文件下载


除非特别注明,本文『美国队长3[IMAX满屏版][简繁英字幕].Captain.America.Civil.War.2016.IMAX.2160p.HDR.DSNP.WEB-DL.H.265.DDP5.1.Atmos-H』来源于互联网机器人自动抓取,非本站原创。 浮游电影网不对本文拥有版权,如有侵犯,请联系邮箱:fuyouu#yandex.com[#换成@]投诉。我们会在15个工作日内删除。 但烦请转载时请标明出处:“本文转载于『浮游电影网』,原文地址:https://www.fuyouu.com/22348.html

评论吧骚年!

发表你的见解   

昵称*

E-mail*(建议输入,以便收到博主回复的提示邮件)

验证码*

您可以使用eMule或eMule Mod(Windows)、aMule(Win、Linux、Mac)等软件下载eD2k链接。。
eMule收藏集(.emulecollection)文件是您选中的所有链接的列表文件。eMule可以直接下载它们。
按住SHIFT键选择可以选中多个选择框。
可用文件名和大小选择器来选择文件。
文件名选择器帮您根据文件名称或后缀来选择文件。不分大小写。
符号使用:
和:空格( )、+
不包含:-
或:|
转义:一对英文引号("");
匹配开头:^
匹配结尾:$
例如:
选中所有名称中包含有“eMule”或“0.49c”字眼,但不包含有“exe”字眼的:emule|0.49c -exe
选中所有名称的开头是“eMule”,结尾是“0.49c”的:^emule 0.49c$
选中所有名称中带有“eMule 0.49c”的(必须是“eMule 0.49c”,中间没有别的字符,不能是“eMule fake 0.49c”),需要转义:"emule 0.49c"
大小选择器帮您根据文件大小选择文件。