当前位置: 首页 >> 动画电影 >> 青春变形记[国英日韩多音轨/简繁英字幕].Turning.Red.2022.2160p.HDR.DSNP.WEB-DL.H.265.DDP5.1.Atmos-HDBWEB 15.62GB >> 正文

青春变形记[国英日韩多音轨/简繁英字幕].Turning.Red.2022.2160p.HDR.DSNP.WEB-DL.H.265.DDP5.1.Atmos-HDBWEB 15.62GB

2022年05月29日 16:32:57     电影发布:来源于网络     电影分类:动画电影     评论(0)    

◎译 名 青春变形记 / 熊抱青春记(港) / 青春养成记(台) / 变红

◎片 名 Turning Red

◎年 代 2022

◎产 地 美国

◎类 别 喜剧 / 动画 / 奇幻 / 冒险

◎语 言 英语

◎上映日期 2022-03-11(美国网络)

◎IMDb链接 https://www.imdb.com/title/tt8097030/

◎豆瓣评分 8.2/10 (224806人评价)

◎豆瓣链接 https://movie.douban.com/subject/35284253/

◎片 长 100分钟

◎导 演 石之予 Domee Shi (id:1390878)

◎编 剧 石之予 Domee Shi (id:1390878)

茱莉亚·赵 Julia Cho (id:1469079)

莎拉·施特莱歇尔 Sarah Streicher (id:1469080)

◎演 员 姜晋安 Rosalie Chiang (id:1459557)

吴珊卓 Sandra Oh (id:1010565)

艾娃·摩士 Ava Morse (id:1463264)

麦特里伊·拉玛克里斯南 Maitreyi Ramakrishnan (id:1436473)

朴惠仁 Hyein Park (id:1468846)

奥赖恩·李 Orion Lee (id:1429493)

何炜晴 Wai Ching Ho (id:1094304)

特里斯坦·艾瑞克·陈 Tristan Allerick Chen (id:1464242)

吴汉章 James Hong (id:1031824)

菲尼亚斯·奥康奈尔 Finneas O'Connell (id:1431179)

乔丹·费舍 Jordan Fisher (id:1385534)

托菲尔-恩戈 Topher Ngo (id:1469084)

格雷森·维拉纽瓦 Grayson Villanueva (id:1469085)

乔什·列维 Josh Levi (id:1469086)

洛瑞·坦·齐恩 Lori Tan Chinn (id:1360821)

雪莉·可拉 Sherry Cola (id:1469082)

莉莉安·林 Lillian Lim (id:1469083)

艾迪森·钱德勒 Addison Chandler (id:1469087)

莉莉·桑费利波 Lily Sanfelippo (id:1469088)

萨沙·罗伊茨 Sasha Roiz (id:1193201)

安妮-玛丽 Anne-Marie (id:1457068)

Mia Tagano (id:1469081)

路德维格·戈兰松 Ludwig G?ransson (id:1265962)

◎简 介

13岁的女孩小美(姜晋安 配音)成长于一个典型的亚裔家庭之中,家里经营着一间作为旅游景点对外开放的祠堂,祠堂里供奉着家族的祖先。小美的母亲(吴珊卓 Sandra Oh 饰)是一个对孩子关怀备至又略微有些神经质的女人,在母亲面前,小美总是扮演着乖乖女的角色,可实际上,小美和所有的同龄孩子一样,调皮、好动,并且开始对异性产生了兴趣。

在学校里,和小美玩的最好的是普利亚(麦特里伊·拉玛克里斯南 Maitreyi Ramakrishnan 配音)、米莉安姆(艾娃·摩士 Ava Morse 配音)和艾比(朴惠仁 配音)三个女孩,她们四人都是当红的偶像歌手团体4*Town的迷妹。一场意外中,小美在巨大的压力之下变身成为了一只小熊猫,就此揭开了隐藏在她家族里的秘密。

  1. ##### MediaInfo ######

  2. General

  3. Unique ID : 40976473907960003125703776013544267060 (0x1ED3C824CBF982DA8418E8EE88731D34)

  4. Complete name : Turning.Red.2022.2160p.HDR.DSNP.WEB-DL.H.265.DDP5.1.Atmos-HDBWEB.mkv

  5. Format : Matroska

  6. Format version : Version 4

  7. File size : 15.6 GiB

  8. Duration : 1 h 39 min

  9. Overall bit rate : 22.4 Mb/s

  10. Encoded date : UTC 2022-05-23 07:38:03

  11. Writing application : mkvmerge v67.0.0 ('Under Stars') 64-bit

  12. Writing library : libebml v1.4.2 + libmatroska v1.6.4

  13. Video

  14. ID : 1

  15. Format : HEVC

  16. Format/Info : High Efficiency Video Coding

  17. Format profile : Main [email protected]@High

  18. HDR format : SMPTE ST 2086, HDR10 compatible

  19. Codec ID : V_MPEGH/ISO/HEVC

  20. Duration : 1 h 39 min

  21. Bit rate : 16.5 Mb/s

  22. Width : 3 840 pixels

  23. Height : 2 160 pixels

  24. Display aspect ratio : 16:9

  25. Frame rate mode : Constant

  26. Frame rate : 23.976 (24000/1001/53354) FPS

  27. Color space : YUV

  28. Chroma subsampling : 4:2:0

  29. Bit depth : 10 bits

  30. Bits/(Pixel*Frame) : 0.083

  31. Stream size : 11.5 GiB (74%)

  32. Language : English

  33. Default : Yes

  34. Forced : No

  35. Color range : Limited

  36. Color primaries : BT.2020

  37. Transfer characteristics : PQ

  38. Matrix coefficients : BT.2020 non-constant

  39. Mastering display color primaries : BT.2020

  40. Mastering display luminance : min: 0.0000 cd/m2, max: 1000 cd/m2

  41. Audio #1

  42. ID : 2

  43. Format : E-AC-3 JOC

  44. Format/Info : Enhanced AC-3 with Joint Object Coding

  45. Commercial name : Dolby Digital Plus with Dolby Atmos

  46. Codec ID : A_EAC3

  47. Duration : 1 h 39 min

  48. Bit rate mode : Constant

  49. Bit rate : 768 kb/s

  50. Channel(s) : 6 channels

  51. Channel layout : L R C LFE Ls Rs

  52. Sampling rate : 48.0 kHz

  53. Frame rate : 31.250 FPS (1536 SPF)

  54. Compression mode : Lossy

  55. Stream size : 548 MiB (3%)

  56. Language : English

  57. Service kind : Complete Main

  58. Default : Yes

  59. Forced : No

  60. Complexity index : 16

  61. Number of dynamic objects : 15

  62. Bed channel count : 1 channel

  63. Bed channel configuration : LFE

  64. Audio #2

  65. ID : 3

  66. Format : E-AC-3

  67. Format/Info : Enhanced AC-3

  68. Commercial name : Dolby Digital Plus

  69. Codec ID : A_EAC3

  70. Duration : 1 h 39 min

  71. Bit rate mode : Constant

  72. Bit rate : 256 kb/s

  73. Channel(s) : 6 channels

  74. Channel layout : L R C LFE Ls Rs

  75. Sampling rate : 48.0 kHz

  76. Frame rate : 31.250 FPS (1536 SPF)

  77. Compression mode : Lossy

  78. Stream size : 183 MiB (1%)

  79. Title : United Kingdom

  80. Language : English

  81. Service kind : Complete Main

  82. Default : No

  83. Forced : No

  84. Audio #3

  85. ID : 4

  86. Format : E-AC-3

  87. Format/Info : Enhanced AC-3

  88. Commercial name : Dolby Digital Plus

  89. Codec ID : A_EAC3

  90. Duration : 1 h 39 min

  91. Bit rate mode : Constant

  92. Bit rate : 256 kb/s

  93. Channel(s) : 6 channels

  94. Channel layout : L R C LFE Ls Rs

  95. Sampling rate : 48.0 kHz

  96. Frame rate : 31.250 FPS (1536 SPF)

  97. Compression mode : Lossy

  98. Stream size : 183 MiB (1%)

  99. Language : Catalan

  100. Service kind : Complete Main

  101. Default : No

  102. Forced : No

  103. Audio #4

  104. ID : 5

  105. Format : E-AC-3

  106. Format/Info : Enhanced AC-3

  107. Commercial name : Dolby Digital Plus

  108. Codec ID : A_EAC3

  109. Duration : 1 h 39 min

  110. Bit rate mode : Constant

  111. Bit rate : 256 kb/s

  112. Channel(s) : 6 channels

  113. Channel layout : L R C LFE Ls Rs

  114. Sampling rate : 48.0 kHz

  115. Frame rate : 31.250 FPS (1536 SPF)

  116. Compression mode : Lossy

  117. Stream size : 183 MiB (1%)

  118. Title : Taiwan

  119. Language : Chinese

  120. Service kind : Complete Main

  121. Default : No

  122. Forced : No

  123. Audio #5

  124. ID : 6

  125. Format : E-AC-3

  126. Format/Info : Enhanced AC-3

  127. Commercial name : Dolby Digital Plus

  128. Codec ID : A_EAC3

  129. Duration : 1 h 39 min

  130. Bit rate mode : Constant

  131. Bit rate : 256 kb/s

  132. Channel(s) : 6 channels

  133. Channel layout : L R C LFE Ls Rs

  134. Sampling rate : 48.0 kHz

  135. Frame rate : 31.250 FPS (1536 SPF)

  136. Compression mode : Lossy

  137. Stream size : 183 MiB (1%)

  138. Language : Danish

  139. Service kind : Complete Main

  140. Default : No

  141. Forced : No

  142. Audio #6

  143. ID : 7

  144. Format : E-AC-3

  145. Format/Info : Enhanced AC-3

  146. Commercial name : Dolby Digital Plus

  147. Codec ID : A_EAC3

  148. Duration : 1 h 39 min

  149. Bit rate mode : Constant

  150. Bit rate : 256 kb/s

  151. Channel(s) : 6 channels

  152. Channel layout : L R C LFE Ls Rs

  153. Sampling rate : 48.0 kHz

  154. Frame rate : 31.250 FPS (1536 SPF)

  155. Compression mode : Lossy

  156. Stream size : 183 MiB (1%)

  157. Language : German

  158. Service kind : Complete Main

  159. Default : No

  160. Forced : No

  161. Audio #7

  162. ID : 8

  163. Format : E-AC-3

  164. Format/Info : Enhanced AC-3

  165. Commercial name : Dolby Digital Plus

  166. Codec ID : A_EAC3

  167. Duration : 1 h 39 min

  168. Bit rate mode : Constant

  169. Bit rate : 256 kb/s

  170. Channel(s) : 6 channels

  171. Channel layout : L R C LFE Ls Rs

  172. Sampling rate : 48.0 kHz

  173. Frame rate : 31.250 FPS (1536 SPF)

  174. Compression mode : Lossy

  175. Stream size : 183 MiB (1%)

  176. Title : Latin America

  177. Language : Spanish

  178. Service kind : Complete Main

  179. Default : No

  180. Forced : No

  181. Audio #8

  182. ID : 9

  183. Format : E-AC-3

  184. Format/Info : Enhanced AC-3

  185. Commercial name : Dolby Digital Plus

  186. Codec ID : A_EAC3

  187. Duration : 1 h 39 min

  188. Bit rate mode : Constant

  189. Bit rate : 256 kb/s

  190. Channel(s) : 6 channels

  191. Channel layout : L R C LFE Ls Rs

  192. Sampling rate : 48.0 kHz

  193. Frame rate : 31.250 FPS (1536 SPF)

  194. Compression mode : Lossy

  195. Stream size : 183 MiB (1%)

  196. Language : Finnish

  197. Service kind : Complete Main

  198. Default : No

  199. Forced : No

  200. Audio #9

  201. ID : 10

  202. Format : E-AC-3

  203. Format/Info : Enhanced AC-3

  204. Commercial name : Dolby Digital Plus

  205. Codec ID : A_EAC3

  206. Duration : 1 h 39 min

  207. Bit rate mode : Constant

  208. Bit rate : 256 kb/s

  209. Channel(s) : 6 channels

  210. Channel layout : L R C LFE Ls Rs

  211. Sampling rate : 48.0 kHz

  212. Frame rate : 31.250 FPS (1536 SPF)

  213. Compression mode : Lossy

  214. Stream size : 183 MiB (1%)

  215. Title : Canada

  216. Language : French

  217. Service kind : Complete Main

  218. Default : No

  219. Forced : No

  220. Audio #10

  221. ID : 11

  222. Format : E-AC-3

  223. Format/Info : Enhanced AC-3

  224. Commercial name : Dolby Digital Plus

  225. Codec ID : A_EAC3

  226. Duration : 1 h 39 min

  227. Bit rate mode : Constant

  228. Bit rate : 256 kb/s

  229. Channel(s) : 6 channels

  230. Channel layout : L R C LFE Ls Rs

  231. Sampling rate : 48.0 kHz

  232. Frame rate : 31.250 FPS (1536 SPF)

  233. Compression mode : Lossy

  234. Stream size : 183 MiB (1%)

  235. Language : French

  236. Service kind : Complete Main

  237. Default : No

  238. Forced : No

  239. Audio #11

  240. ID : 12

  241. Format : E-AC-3

  242. Format/Info : Enhanced AC-3

  243. Commercial name : Dolby Digital Plus

  244. Codec ID : A_EAC3

  245. Duration : 1 h 39 min

  246. Bit rate mode : Constant

  247. Bit rate : 256 kb/s

  248. Channel(s) : 6 channels

  249. Channel layout : L R C LFE Ls Rs

  250. Sampling rate : 48.0 kHz

  251. Frame rate : 31.250 FPS (1536 SPF)

  252. Compression mode : Lossy

  253. Stream size : 183 MiB (1%)

  254. Language : Icelandic

  255. Service kind : Complete Main

  256. Default : No

  257. Forced : No

  258. Audio #12

  259. ID : 13

  260. Format : E-AC-3

  261. Format/Info : Enhanced AC-3

  262. Commercial name : Dolby Digital Plus

  263. Codec ID : A_EAC3

  264. Duration : 1 h 39 min

  265. Bit rate mode : Constant

  266. Bit rate : 256 kb/s

  267. Channel(s) : 6 channels

  268. Channel layout : L R C LFE Ls Rs

  269. Sampling rate : 48.0 kHz

  270. Frame rate : 31.250 FPS (1536 SPF)

  271. Compression mode : Lossy

  272. Stream size : 183 MiB (1%)

  273. Language : Italian

  274. Service kind : Complete Main

  275. Default : No

  276. Forced : No

  277. Audio #13

  278. ID : 14

  279. Format : E-AC-3

  280. Format/Info : Enhanced AC-3

  281. Commercial name : Dolby Digital Plus

  282. Codec ID : A_EAC3

  283. Duration : 1 h 39 min

  284. Bit rate mode : Constant

  285. Bit rate : 256 kb/s

  286. Channel(s) : 6 channels

  287. Channel layout : L R C LFE Ls Rs

  288. Sampling rate : 48.0 kHz

  289. Frame rate : 31.250 FPS (1536 SPF)

  290. Compression mode : Lossy

  291. Stream size : 183 MiB (1%)

  292. Language : Japanese

  293. Service kind : Complete Main

  294. Default : No

  295. Forced : No

  296. Audio #14

  297. ID : 15

  298. Format : E-AC-3

  299. Format/Info : Enhanced AC-3

  300. Commercial name : Dolby Digital Plus

  301. Codec ID : A_EAC3

  302. Duration : 1 h 39 min

  303. Bit rate mode : Constant

  304. Bit rate : 256 kb/s

  305. Channel(s) : 6 channels

  306. Channel layout : L R C LFE Ls Rs

  307. Sampling rate : 48.0 kHz

  308. Frame rate : 31.250 FPS (1536 SPF)

  309. Compression mode : Lossy

  310. Stream size : 183 MiB (1%)

  311. Language : Korean

  312. Service kind : Complete Main

  313. Default : No

  314. Forced : No

  315. Audio #15

  316. ID : 16

  317. Format : E-AC-3

  318. Format/Info : Enhanced AC-3

  319. Commercial name : Dolby Digital Plus

  320. Codec ID : A_EAC3

  321. Duration : 1 h 39 min

  322. Bit rate mode : Constant

  323. Bit rate : 256 kb/s

  324. Channel(s) : 6 channels

  325. Channel layout : L R C LFE Ls Rs

  326. Sampling rate : 48.0 kHz

  327. Frame rate : 31.250 FPS (1536 SPF)

  328. Compression mode : Lossy

  329. Stream size : 183 MiB (1%)

  330. Language : Norwegian Bokmal

  331. Service kind : Complete Main

  332. Default : No

  333. Forced : No

  334. Audio #16

  335. ID : 17

  336. Format : E-AC-3

  337. Format/Info : Enhanced AC-3

  338. Commercial name : Dolby Digital Plus

  339. Codec ID : A_EAC3

  340. Duration : 1 h 39 min

  341. Bit rate mode : Constant

  342. Bit rate : 256 kb/s

  343. Channel(s) : 6 channels

  344. Channel layout : L R C LFE Ls Rs

  345. Sampling rate : 48.0 kHz

  346. Frame rate : 31.250 FPS (1536 SPF)

  347. Compression mode : Lossy

  348. Stream size : 183 MiB (1%)

  349. Language : Dutch

  350. Service kind : Complete Main

  351. Default : No

  352. Forced : No

  353. Audio #17

  354. ID : 18

  355. Format : E-AC-3

  356. Format/Info : Enhanced AC-3

  357. Commercial name : Dolby Digital Plus

  358. Codec ID : A_EAC3

  359. Duration : 1 h 39 min

  360. Bit rate mode : Constant

  361. Bit rate : 256 kb/s

  362. Channel(s) : 6 channels

  363. Channel layout : L R C LFE Ls Rs

  364. Sampling rate : 48.0 kHz

  365. Frame rate : 31.250 FPS (1536 SPF)

  366. Compression mode : Lossy

  367. Stream size : 183 MiB (1%)

  368. Title : Belgium

  369. Language : Dutch

  370. Service kind : Complete Main

  371. Default : No

  372. Forced : No

  373. Audio #18

  374. ID : 19

  375. Format : E-AC-3

  376. Format/Info : Enhanced AC-3

  377. Commercial name : Dolby Digital Plus

  378. Codec ID : A_EAC3

  379. Duration : 1 h 39 min

  380. Bit rate mode : Constant

  381. Bit rate : 256 kb/s

  382. Channel(s) : 6 channels

  383. Channel layout : L R C LFE Ls Rs

  384. Sampling rate : 48.0 kHz

  385. Frame rate : 31.250 FPS (1536 SPF)

  386. Compression mode : Lossy

  387. Stream size : 183 MiB (1%)

  388. Title : Brazil

  389. Language : Portuguese

  390. Service kind : Complete Main

  391. Default : No

  392. Forced : No

  393. Audio #19

  394. ID : 20

  395. Format : E-AC-3

  396. Format/Info : Enhanced AC-3

  397. Commercial name : Dolby Digital Plus

  398. Codec ID : A_EAC3

  399. Duration : 1 h 39 min

  400. Bit rate mode : Constant

  401. Bit rate : 256 kb/s

  402. Channel(s) : 6 channels

  403. Channel layout : L R C LFE Ls Rs

  404. Sampling rate : 48.0 kHz

  405. Frame rate : 31.250 FPS (1536 SPF)

  406. Compression mode : Lossy

  407. Stream size : 183 MiB (1%)

  408. Language : Portuguese

  409. Service kind : Complete Main

  410. Default : No

  411. Forced : No

  412. Audio #20

  413. ID : 21

  414. Format : E-AC-3

  415. Format/Info : Enhanced AC-3

  416. Commercial name : Dolby Digital Plus

  417. Codec ID : A_EAC3

  418. Duration : 1 h 39 min

  419. Bit rate mode : Constant

  420. Bit rate : 256 kb/s

  421. Channel(s) : 6 channels

  422. Channel layout : L R C LFE Ls Rs

  423. Sampling rate : 48.0 kHz

  424. Frame rate : 31.250 FPS (1536 SPF)

  425. Compression mode : Lossy

  426. Stream size : 183 MiB (1%)

  427. Language : Swedish

  428. Service kind : Complete Main

  429. Default : No

  430. Forced : No

  431. Audio #21

  432. ID : 22

  433. Format : E-AC-3

  434. Format/Info : Enhanced AC-3

  435. Commercial name : Dolby Digital Plus

  436. Codec ID : A_EAC3

  437. Duration : 1 h 39 min

  438. Bit rate mode : Constant

  439. Bit rate : 256 kb/s

  440. Channel(s) : 6 channels

  441. Channel layout : L R C LFE Ls Rs

  442. Sampling rate : 48.0 kHz

  443. Frame rate : 31.250 FPS (1536 SPF)

  444. Compression mode : Lossy

  445. Stream size : 183 MiB (1%)

  446. Language : Chinese

  447. Service kind : Complete Main

  448. Default : No

  449. Forced : No

  450. Text #1

  451. ID : 23

  452. Format : UTF-8

  453. Codec ID : S_TEXT/UTF8

  454. Codec ID/Info : UTF-8 Plain Text

  455. Duration : 1 h 38 min

  456. Bit rate : 76 b/s

  457. Count of elements : 2139

  458. Stream size : 54.7 KiB (0%)

  459. Title : SDH

  460. Language : English

  461. Default : No

  462. Forced : No

  463. Text #2

  464. ID : 24

  465. Format : UTF-8

  466. Codec ID : S_TEXT/UTF8

  467. Codec ID/Info : UTF-8 Plain Text

  468. Duration : 1 h 25 min

  469. Bit rate : 0 b/s

  470. Count of elements : 9

  471. Stream size : 260 Bytes (0%)

  472. Title : Forced

  473. Language : Catalan

  474. Default : No

  475. Forced : Yes

  476. Text #3

  477. ID : 25

  478. Format : UTF-8

  479. Codec ID : S_TEXT/UTF8

  480. Codec ID/Info : UTF-8 Plain Text

  481. Duration : 1 h 27 min

  482. Bit rate : 0 b/s

  483. Count of elements : 22

  484. Stream size : 543 Bytes (0%)

  485. Title : Taiwan (Forced)

  486. Language : Chinese

  487. Default : No

  488. Forced : Yes

  489. Text #4

  490. ID : 26

  491. Format : UTF-8

  492. Codec ID : S_TEXT/UTF8

  493. Codec ID/Info : UTF-8 Plain Text

  494. Duration : 1 h 25 min

  495. Bit rate : 0 b/s

  496. Count of elements : 3

  497. Stream size : 66.0 Bytes (0%)

  498. Title : Forced

  499. Language : Danish

  500. Default : No

  501. Forced : Yes

  502. Text #5

  503. ID : 27

  504. Format : UTF-8

  505. Codec ID : S_TEXT/UTF8

  506. Codec ID/Info : UTF-8 Plain Text

  507. Duration : 1 h 38 min

  508. Bit rate : 48 b/s

  509. Count of elements : 908

  510. Stream size : 34.5 KiB (0%)

  511. Language : Danish

  512. Default : No

  513. Forced : No

  514. Text #6

  515. ID : 28

  516. Format : UTF-8

  517. Codec ID : S_TEXT/UTF8

  518. Codec ID/Info : UTF-8 Plain Text

  519. Duration : 1 h 27 min

  520. Bit rate : 0 b/s

  521. Count of elements : 12

  522. Stream size : 261 Bytes (0%)

  523. Title : Forced

  524. Language : German

  525. Default : No

  526. Forced : Yes

  527. Text #7

  528. ID : 29

  529. Format : UTF-8

  530. Codec ID : S_TEXT/UTF8

  531. Codec ID/Info : UTF-8 Plain Text

  532. Duration : 1 h 38 min

  533. Bit rate : 69 b/s

  534. Count of elements : 1553

  535. Stream size : 50.0 KiB (0%)

  536. Title : SDH

  537. Language : German

  538. Default : No

  539. Forced : No

  540. Text #8

  541. ID : 30

  542. Format : UTF-8

  543. Codec ID : S_TEXT/UTF8

  544. Codec ID/Info : UTF-8 Plain Text

  545. Duration : 1 h 38 min

  546. Bit rate : 45 b/s

  547. Count of elements : 1228

  548. Stream size : 32.5 KiB (0%)

  549. Language : German

  550. Default : No

  551. Forced : No

  552. Text #9

  553. ID : 31

  554. Format : UTF-8

  555. Codec ID : S_TEXT/UTF8

  556. Codec ID/Info : UTF-8 Plain Text

  557. Duration : 1 h 27 min

  558. Bit rate : 0 b/s

  559. Count of elements : 18

  560. Stream size : 559 Bytes (0%)

  561. Title : Latin America (Forced)

  562. Language : Spanish

  563. Default : No

  564. Forced : Yes

  565. Text #10

  566. ID : 32

  567. Format : UTF-8

  568. Codec ID : S_TEXT/UTF8

  569. Codec ID/Info : UTF-8 Plain Text

  570. Duration : 1 h 38 min

  571. Bit rate : 64 b/s

  572. Count of elements : 1532

  573. Stream size : 46.4 KiB (0%)

  574. Title : Latin America (SDH)

  575. Language : Spanish

  576. Default : No

  577. Forced : No

  578. Text #11

  579. ID : 33

  580. Format : UTF-8

  581. Codec ID : S_TEXT/UTF8

  582. Codec ID/Info : UTF-8 Plain Text

  583. Duration : 1 h 37 min

  584. Bit rate : 52 b/s

  585. Count of elements : 1350

  586. Stream size : 37.9 KiB (0%)

  587. Title : Latin America

  588. Language : Spanish

  589. Default : No

  590. Forced : No

  591. Text #12

  592. ID : 34

  593. Format : UTF-8

  594. Codec ID : S_TEXT/UTF8

  595. Codec ID/Info : UTF-8 Plain Text

  596. Duration : 1 h 27 min

  597. Bit rate : 0 b/s

  598. Count of elements : 14

  599. Stream size : 338 Bytes (0%)

  600. Title : Forced

  601. Language : Spanish

  602. Default : No

  603. Forced : Yes

  604. Text #13

  605. ID : 35

  606. Format : UTF-8

  607. Codec ID : S_TEXT/UTF8

  608. Codec ID/Info : UTF-8 Plain Text

  609. Duration : 1 h 37 min

  610. Bit rate : 49 b/s

  611. Count of elements : 1345

  612. Stream size : 35.2 KiB (0%)

  613. Language : Spanish

  614. Default : No

  615. Forced : No

  616. Text #14

  617. ID : 36

  618. Format : UTF-8

  619. Codec ID : S_TEXT/UTF8

  620. Codec ID/Info : UTF-8 Plain Text

  621. Duration : 1 h 25 min

  622. Bit rate : 0 b/s

  623. Count of elements : 3

  624. Stream size : 59.0 Bytes (0%)

  625. Title : Forced

  626. Language : Finnish

  627. Default : No

  628. Forced : Yes

  629. Text #15

  630. ID : 37

  631. Format : UTF-8

  632. Codec ID : S_TEXT/UTF8

  633. Codec ID/Info : UTF-8 Plain Text

  634. Duration : 1 h 37 min

  635. Bit rate : 51 b/s

  636. Count of elements : 1338

  637. Stream size : 37.1 KiB (0%)

  638. Language : Finnish

  639. Default : No

  640. Forced : No

  641. Text #16

  642. ID : 38

  643. Format : UTF-8

  644. Codec ID : S_TEXT/UTF8

  645. Codec ID/Info : UTF-8 Plain Text

  646. Duration : 1 h 29 min

  647. Bit rate : 2 b/s

  648. Count of elements : 52

  649. Stream size : 1.57 KiB (0%)

  650. Title : Canada (Forced)

  651. Language : French

  652. Default : No

  653. Forced : Yes

  654. Text #17

  655. ID : 39

  656. Format : UTF-8

  657. Codec ID : S_TEXT/UTF8

  658. Codec ID/Info : UTF-8 Plain Text

  659. Duration : 1 h 38 min

  660. Bit rate : 74 b/s

  661. Count of elements : 2034

  662. Stream size : 53.5 KiB (0%)

  663. Title : Canada (SDH)

  664. Language : French

  665. Default : No

  666. Forced : No

  667. Text #18

  668. ID : 40

  669. Format : UTF-8

  670. Codec ID : S_TEXT/UTF8

  671. Codec ID/Info : UTF-8 Plain Text

  672. Duration : 1 h 37 min

  673. Bit rate : 55 b/s

  674. Count of elements : 1386

  675. Stream size : 39.6 KiB (0%)

  676. Title : Canada

  677. Language : French

  678. Default : No

  679. Forced : No

  680. Text #19

  681. ID : 41

  682. Format : UTF-8

  683. Codec ID : S_TEXT/UTF8

  684. Codec ID/Info : UTF-8 Plain Text

  685. Duration : 1 h 27 min

  686. Bit rate : 0 b/s

  687. Count of elements : 18

  688. Stream size : 471 Bytes (0%)

  689. Title : Forced

  690. Language : French

  691. Default : No

  692. Forced : Yes

  693. Text #20

  694. ID : 42

  695. Format : UTF-8

  696. Codec ID : S_TEXT/UTF8

  697. Codec ID/Info : UTF-8 Plain Text

  698. Duration : 1 h 38 min

  699. Bit rate : 66 b/s

  700. Count of elements : 1675

  701. Stream size : 48.2 KiB (0%)

  702. Title : SDH

  703. Language : French

  704. Default : No

  705. Forced : No

  706. Text #21

  707. ID : 43

  708. Format : UTF-8

  709. Codec ID : S_TEXT/UTF8

  710. Codec ID/Info : UTF-8 Plain Text

  711. Duration : 1 h 38 min

  712. Bit rate : 45 b/s

  713. Count of elements : 1233

  714. Stream size : 32.9 KiB (0%)

  715. Language : French

  716. Default : No

  717. Forced : No

  718. Text #22

  719. ID : 44

  720. Format : UTF-8

  721. Codec ID : S_TEXT/UTF8

  722. Codec ID/Info : UTF-8 Plain Text

  723. Duration : 1 h 25 min

  724. Bit rate : 0 b/s

  725. Count of elements : 3

  726. Stream size : 90.0 Bytes (0%)

  727. Title : Forced

  728. Language : Icelandic

  729. Default : No

  730. Forced : Yes

  731. Text #23

  732. ID : 45

  733. Format : UTF-8

  734. Codec ID : S_TEXT/UTF8

  735. Codec ID/Info : UTF-8 Plain Text

  736. Duration : 1 h 38 min

  737. Bit rate : 51 b/s

  738. Count of elements : 1353

  739. Stream size : 37.0 KiB (0%)

  740. Language : Icelandic

  741. Default : No

  742. Forced : No

  743. Text #24

  744. ID : 46

  745. Format : UTF-8

  746. Codec ID : S_TEXT/UTF8

  747. Codec ID/Info : UTF-8 Plain Text

  748. Duration : 1 h 27 min

  749. Bit rate : 0 b/s

  750. Count of elements : 18

  751. Stream size : 471 Bytes (0%)

  752. Title : Forced

  753. Language : Italian

  754. Default : No

  755. Forced : Yes

  756. Text #25

  757. ID : 47

  758. Format : UTF-8

  759. Codec ID : S_TEXT/UTF8

  760. Codec ID/Info : UTF-8 Plain Text

  761. Duration : 1 h 38 min

  762. Bit rate : 49 b/s

  763. Count of elements : 1353

  764. Stream size : 35.8 KiB (0%)

  765. Language : Italian

  766. Default : No

  767. Forced : No

  768. Text #26

  769. ID : 48

  770. Format : UTF-8

  771. Codec ID : S_TEXT/UTF8

  772. Codec ID/Info : UTF-8 Plain Text

  773. Duration : 1 h 37 min

  774. Bit rate : 41 b/s

  775. Count of elements : 1146

  776. Stream size : 29.5 KiB (0%)

  777. Language : Japanese

  778. Default : No

  779. Forced : No

  780. Text #27

  781. ID : 49

  782. Format : UTF-8

  783. Codec ID : S_TEXT/UTF8

  784. Codec ID/Info : UTF-8 Plain Text

  785. Duration : 1 h 27 min

  786. Bit rate : 0 b/s

  787. Count of elements : 23

  788. Stream size : 607 Bytes (0%)

  789. Title : Forced

  790. Language : Korean

  791. Default : No

  792. Forced : Yes

  793. Text #28

  794. ID : 50

  795. Format : UTF-8

  796. Codec ID : S_TEXT/UTF8

  797. Codec ID/Info : UTF-8 Plain Text

  798. Duration : 1 h 37 min

  799. Bit rate : 49 b/s

  800. Count of elements : 1341

  801. Stream size : 35.8 KiB (0%)

  802. Language : Korean

  803. Default : No

  804. Forced : No

  805. Text #29

  806. ID : 51

  807. Format : UTF-8

  808. Codec ID : S_TEXT/UTF8

  809. Codec ID/Info : UTF-8 Plain Text

  810. Duration : 1 h 25 min

  811. Bit rate : 0 b/s

  812. Count of elements : 3

  813. Stream size : 65.0 Bytes (0%)

  814. Title : Forced

  815. Language : Norwegian Bokmal

  816. Default : No

  817. Forced : Yes

  818. Text #30

  819. ID : 52

  820. Format : UTF-8

  821. Codec ID : S_TEXT/UTF8

  822. Codec ID/Info : UTF-8 Plain Text

  823. Duration : 1 h 38 min

  824. Bit rate : 46 b/s

  825. Count of elements : 1351

  826. Stream size : 33.7 KiB (0%)

  827. Language : Norwegian Bokmal

  828. Default : No

  829. Forced : No

  830. Text #31

  831. ID : 53

  832. Format : UTF-8

  833. Codec ID : S_TEXT/UTF8

  834. Codec ID/Info : UTF-8 Plain Text

  835. Duration : 1 h 25 min

  836. Bit rate : 0 b/s

  837. Count of elements : 6

  838. Stream size : 161 Bytes (0%)

  839. Title : Forced

  840. Language : Dutch

  841. Default : No

  842. Forced : Yes

  843. Text #32

  844. ID : 54

  845. Format : UTF-8

  846. Codec ID : S_TEXT/UTF8

  847. Codec ID/Info : UTF-8 Plain Text

  848. Duration : 1 h 38 min

  849. Bit rate : 42 b/s

  850. Count of elements : 1064

  851. Stream size : 30.9 KiB (0%)

  852. Language : Dutch

  853. Default : No

  854. Forced : No

  855. Text #33

  856. ID : 55

  857. Format : UTF-8

  858. Codec ID : S_TEXT/UTF8

  859. Codec ID/Info : UTF-8 Plain Text

  860. Duration : 1 h 21 min

  861. Bit rate : 0 b/s

  862. Count of elements : 5

  863. Stream size : 142 Bytes (0%)

  864. Title : Belgium (Forced)

  865. Language : Dutch

  866. Default : No

  867. Forced : Yes

  868. Text #34

  869. ID : 56

  870. Format : UTF-8

  871. Codec ID : S_TEXT/UTF8

  872. Codec ID/Info : UTF-8 Plain Text

  873. Duration : 1 h 27 min

  874. Bit rate : 0 b/s

  875. Count of elements : 18

  876. Stream size : 487 Bytes (0%)

  877. Title : Brazil (Forced)

  878. Language : Portuguese

  879. Default : No

  880. Forced : Yes

  881. Text #35

  882. ID : 57

  883. Format : UTF-8

  884. Codec ID : S_TEXT/UTF8

  885. Codec ID/Info : UTF-8 Plain Text

  886. Duration : 1 h 38 min

  887. Bit rate : 62 b/s

  888. Count of elements : 1410

  889. Stream size : 45.2 KiB (0%)

  890. Title : Brazil (SDH)

  891. Language : Portuguese

  892. Default : No

  893. Forced : No

  894. Text #36

  895. ID : 58

  896. Format : UTF-8

  897. Codec ID : S_TEXT/UTF8

  898. Codec ID/Info : UTF-8 Plain Text

  899. Duration : 1 h 38 min

  900. Bit rate : 51 b/s

  901. Count of elements : 1350

  902. Stream size : 36.8 KiB (0%)

  903. Title : Brazil

  904. Language : Portuguese

  905. Default : No

  906. Forced : No

  907. Text #37

  908. ID : 59

  909. Format : UTF-8

  910. Codec ID : S_TEXT/UTF8

  911. Codec ID/Info : UTF-8 Plain Text

  912. Duration : 1 h 25 min

  913. Bit rate : 0 b/s

  914. Count of elements : 9

  915. Stream size : 305 Bytes (0%)

  916. Title : Forced

  917. Language : Portuguese

  918. Default : No

  919. Forced : Yes

  920. Text #38

  921. ID : 60

  922. Format : UTF-8

  923. Codec ID : S_TEXT/UTF8

  924. Codec ID/Info : UTF-8 Plain Text

  925. Duration : 1 h 37 min

  926. Bit rate : 52 b/s

  927. Count of elements : 1345

  928. Stream size : 37.7 KiB (0%)

  929. Language : Portuguese

  930. Default : No

  931. Forced : No

  932. Text #39

  933. ID : 61

  934. Format : UTF-8

  935. Codec ID : S_TEXT/UTF8

  936. Codec ID/Info : UTF-8 Plain Text

  937. Duration : 1 h 25 min

  938. Bit rate : 0 b/s

  939. Count of elements : 3

  940. Stream size : 59.0 Bytes (0%)

  941. Title : Forced

  942. Language : Swedish

  943. Default : No

  944. Forced : Yes

  945. Text #40

  946. ID : 62

  947. Format : UTF-8

  948. Codec ID : S_TEXT/UTF8

  949. Codec ID/Info : UTF-8 Plain Text

  950. Duration : 1 h 37 min

  951. Bit rate : 42 b/s

  952. Count of elements : 883

  953. Stream size : 30.8 KiB (0%)

  954. Language : Swedish

  955. Default : No

  956. Forced : No

  957. Text #41

  958. ID : 63

  959. Format : UTF-8

  960. Codec ID : S_TEXT/UTF8

  961. Codec ID/Info : UTF-8 Plain Text

  962. Duration : 1 h 25 min

  963. Bit rate : 0 b/s

  964. Count of elements : 10

  965. Stream size : 261 Bytes (0%)

  966. Title : Forced

  967. Language : Chinese

  968. Default : No

  969. Forced : Yes

  970. Text #42

  971. ID : 64

  972. Format : UTF-8

  973. Codec ID : S_TEXT/UTF8

  974. Codec ID/Info : UTF-8 Plain Text

  975. Duration : 1 h 38 min

  976. Bit rate : 50 b/s

  977. Count of elements : 1366

  978. Stream size : 36.2 KiB (0%)

  979. Title : Simplified

  980. Language : Chinese

  981. Default : No

  982. Forced : No

  983. Text #43

  984. ID : 65

  985. Format : UTF-8

  986. Codec ID : S_TEXT/UTF8

  987. Codec ID/Info : UTF-8 Plain Text

  988. Duration : 1 h 38 min

  989. Bit rate : 42 b/s

  990. Count of elements : 1381

  991. Stream size : 30.4 KiB (0%)

  992. Title : Traditional

  993. Language : Chinese

  994. Default : No

  995. Forced : No

  996. Text #44

  997. ID : 66

  998. Format : UTF-8

  999. Codec ID : S_TEXT/UTF8

  1000. Codec ID/Info : UTF-8 Plain Text

  1001. Duration : 1 h 38 min

  1002. Bit rate : 42 b/s

  1003. Count of elements : 1352

  1004. Stream size : 30.8 KiB (0%)

  1005. Title : Traditional, Hong Kong

  1006. Language : Chinese

  1007. Default : No

  1008. Forced : No

  1009. Menu

  1010. 01:38:40.379 : en:Credits


复制代码




文件下载


除非特别注明,本文『青春变形记[国英日韩多音轨/简繁英字幕].Turning.Red.2022.2160p.HDR.DSNP.WEB-DL.H.265.DDP5.1.Atmos-HDBWEB 15.62GB』来源于互联网机器人自动抓取,非本站原创。 浮游电影网不对本文拥有版权,如有侵犯,请联系邮箱:fuyouu#yandex.com[#换成@]投诉。我们会在15个工作日内删除。 但烦请转载时请标明出处:“本文转载于『浮游电影网』,原文地址:https://www.fuyouu.com/22330.html

评论吧骚年!

发表你的见解   

昵称*

E-mail*(建议输入,以便收到博主回复的提示邮件)

验证码*

您可以使用eMule或eMule Mod(Windows)、aMule(Win、Linux、Mac)等软件下载eD2k链接。。
eMule收藏集(.emulecollection)文件是您选中的所有链接的列表文件。eMule可以直接下载它们。
按住SHIFT键选择可以选中多个选择框。
可用文件名和大小选择器来选择文件。
文件名选择器帮您根据文件名称或后缀来选择文件。不分大小写。
符号使用:
和:空格( )、+
不包含:-
或:|
转义:一对英文引号("");
匹配开头:^
匹配结尾:$
例如:
选中所有名称中包含有“eMule”或“0.49c”字眼,但不包含有“exe”字眼的:emule|0.49c -exe
选中所有名称的开头是“eMule”,结尾是“0.49c”的:^emule 0.49c$
选中所有名称中带有“eMule 0.49c”的(必须是“eMule 0.49c”,中间没有别的字符,不能是“eMule fake 0.49c”),需要转义:"emule 0.49c"
大小选择器帮您根据文件大小选择文件。