当前位置: 首页 >> 欧美电影 >> 原钻[简繁英字幕].Uncut.Gems.2019.2160p.HDR.UHD.BluRay.TrueHD.7.1.Atmos.x265-10bit-ENTHD 23.99GB >> 正文

原钻[简繁英字幕].Uncut.Gems.2019.2160p.HDR.UHD.BluRay.TrueHD.7.1.Atmos.x265-10bit-ENTHD 23.99GB

2022年05月29日 16:29:46     电影发布:来源于网络     电影分类:欧美电影     评论(0)    

◎译 名 原钻 / 未成大器 / 未切割宝石 / 未切割的钻石 / 未切割的宝石 / 未琢之石(豆友译名)

◎片 名 Uncut Gems

◎年 代 2019

◎产 地 美国

◎类 别 剧情 / 犯罪

◎语 言 英语 / 希伯来语

◎上映日期 2019-08-30(特柳赖德电影节) / 2019-12-25(美国) / 2020-01-31(美国网络)

◎IMDb链接 https://www.imdb.com/title/tt5727208/

◎豆瓣评分 7.2/10 (32579人评价)

◎豆瓣链接 https://movie.douban.com/subject/27045860/

◎片 长 135分钟

◎导 演 本·萨弗迪 Ben Safdie (id:1343585)

约书亚·萨弗迪 Joshua Safdie (id:1000745)

◎编 剧 罗纳德·布隆斯坦 Ronald Bronstein (id:1311270)

本·萨弗迪 Ben Safdie (id:1343585)

约书亚·萨弗迪 Joshua Safdie (id:1000745)

◎演 员 亚当·桑德勒 Adam Sandler (id:1054523)

茱莉娅·福克斯 Julia Fox (id:1425148)

凯文·加内特 Kevin Garnett (id:1045320)

威肯 The Weeknd (id:1355138)

伊迪娜·门泽尔 Idina Menzel (id:1116746)

乔纳森·阿兰巴耶夫 Jonathan Aranbayev (id:1428939)

雅各布·伊吉尔斯基 Jacob Igielski (id:1428940)

诺亚·费舍尔 Noa Fisher (id:1428941)

帕洛玛·艾尔瑟瑟 Paloma Elsesser (id:1428942)

勒凯斯·斯坦菲尔德 Lakeith Stanfield (id:1272798)

埃里克·博高森 Eric Bogosian (id:1045034)

基思·威廉姆斯·理查兹 Keith Williams Richards (id:1428943)

汤米·科米尼克 Tommy Kominik (id:1428944)

路易·安东尼·阿里亚斯 Louis Anthony Arias (id:1428945)

肖恩·林金 Sean Ringgold (id:1428946)

贾德·赫希 Judd Hirsch (id:1055274)

约翰·阿莫斯 John Amos (id:1013983)

布莱斯·科里根 Blaise Corrigan (id:1281306)

罗比·德拉费勒 Robbie DeRaffele (id:1393414)

安赫·道格 Anh Duong (id:1088404)

迈克·弗朗西萨 Mike Francesa (id:1178900)

庞·克莱门捷夫 Pom Klementieff (id:1313255)

娜塔莎·雷昂 Natasha Lyonne (id:1000096)

乔恩·内卡杰 Jon Necaj (id:1377668)

尼克·波托兰宁 Nick Poltoranin (id:1227917)

杰克·莱恩 Jake Ryan (id:1390751)

蒂尔达·斯文顿 Tilda Swinton (id:1025152)

马丁·斯科塞斯 Martin Scorsese (id:1054425)

塞巴斯蒂安·贝尔-麦克拉德 Sebastian Bear-McClard (id:1460349)

丹尼尔·罗帕汀 Daniel Lopatin (id:1427893)

达吕斯·康第 Darius Khondji (id:1028011)

罗纳德·布隆斯坦 Ronald Bronstein (id:1311270)

本·萨弗迪 Ben Safdie (id:1343585)

◎简 介

影片讲述了一位纽约钻石店老板Howard Ratner(亚当·桑德勒 饰),他嗜赌成瘾,婚姻岌岌可危,还有一个对他不忠的女友(茱莉娅·福克斯 饰)。Howard Ratner欠Arno(埃里克·博高森 饰)钱,而打手们也一直威胁着让他还钱。当他买了一块价值数百万美元的稀有的未切割埃塞俄比亚蛋白原石,他觉得自己的霉运会就此终结。这块原石本来是打算拿去拍卖的,但当波士顿凯尔特人超级球星凯文·加内特走进宝石店,希望借走这块石头——它可以给他在NBA总决赛上带来好运——的时候,事态也就越发复杂了起来。

◎获奖情况 (共30项)

第40届金酸莓奖 (2020)

最佳赎莓奖(提名)

└──亚当·桑德勒 (id:1054523)

第85届纽约影评人协会奖 (2019)

最佳导演

第91届美国国家评论协会奖 (2019)

最佳男主角

└──亚当·桑德勒 (id:1054523)

最佳原创剧本

年度佳片

第25届美国评论家选择电影奖 (2020)

最佳影片(提名)

最佳导演(提名)

最佳男主角(提名)

└──亚当·桑德勒 (id:1054523)

最佳剪辑(提名)

第35届美国独立精神奖 (2020)

最佳影片(提名)

最佳导演

最佳男主角

└──亚当·桑德勒 (id:1054523)

最佳剧本(提名)

最佳剪辑

第29届哥谭独立电影奖 (2019)

最佳影片(提名)

最佳男演员(提名)

└──亚当·桑德勒 (id:1054523)

年度突破演员(提名)

└──茱莉娅·福克斯 (id:1425148)

第24届金卫星奖 (2020)

电影部门 最佳喜剧/音乐片(提名)

电影部门 喜剧/音乐片最佳男主角(提名)

└──亚当·桑德勒 (id:1054523)

第54届美国国家影评人协会奖 (2020)

最佳男主角(提名)

└──亚当·桑德勒 (id:1054523)

第40届波士顿影评人协会奖 (2019)

最佳男主角

└──亚当·桑德勒 (id:1054523)

最佳剪辑(提名)

第45届洛杉矶影评人协会奖 (2019)

最佳剪辑(提名)

第32届芝加哥影评人协会奖 (2019)

最佳男主角(提名)

└──亚当·桑德勒 (id:1054523)

最佳剪辑(提名)

最佳原创配乐(提名)

└──丹尼尔·罗帕汀 (id:1427893)

最具潜力演员(提名)

└──茱莉娅·福克斯 (id:1425148)

第4届亚特兰大影评人协会奖 (2019)

十佳影片

第23届美国在线影评人协会奖 (2020)

最佳影片(提名)

最佳男主角(提名)

└──亚当·桑德勒 (id:1054523)

  1. ##### MediaInfo ######

  2. General

  3. Unique ID : 292562419081890262833922978958339305204 (0xDC1978EC02699481EB732190591D6EF4)

  4. Complete name : Uncut.Gems.2019.2160p.HDR.UHD.BluRay.TrueHD.7.1.Atmos.x265-10bit-ENTHD.mkv

  5. Format : Matroska

  6. Format version : Version 4

  7. File size : 24.0 GiB

  8. Duration : 2 h 15 min

  9. Overall bit rate mode : Variable

  10. Overall bit rate : 25.4 Mb/s

  11. Movie name : Uncut Gems 2019 2160p HDR UHD BluRay TrueHD 7.1 Atmos x265-10bit-HDS

  12. Encoded date : UTC 2022-05-27 01:57:31

  13. Writing application : mkvmerge v67.0.0 ('Under Stars') 64-bit

  14. Writing library : libebml v1.4.2 + libmatroska v1.6.4

  15. Video

  16. ID : 1

  17. Format : HEVC

  18. Format/Info : High Efficiency Video Coding

  19. Format profile : Main [email protected]@High

  20. HDR format : SMPTE ST 2086, HDR10 compatible

  21. Codec ID : V_MPEGH/ISO/HEVC

  22. Duration : 2 h 15 min

  23. Bit rate : 20.4 Mb/s

  24. Width : 3 840 pixels

  25. Height : 1 608 pixels

  26. Display aspect ratio : 2.40:1

  27. Frame rate mode : Constant

  28. Frame rate : 23.976 (24000/1001/53354) FPS

  29. Color space : YUV

  30. Chroma subsampling : 4:2:0

  31. Bit depth : 10 bits

  32. Bits/(Pixel*Frame) : 0.138

  33. Stream size : 19.3 GiB (80%)

  34. Title : @HDSky

  35. Writing library : x265 - H.265/HEVC codec

  36. Default : Yes

  37. Forced : No

  38. Color range : Limited

  39. Color primaries : BT.2020

  40. Transfer characteristics : PQ

  41. Matrix coefficients : BT.2020 non-constant

  42. Mastering display color primaries : Display P3

  43. Mastering display luminance : min: 0.0001 cd/m2, max: 1000 cd/m2

  44. Maximum Content Light Level : 1000 cd/m2

  45. Maximum Frame-Average Light Level : 233 cd/m2

  46. Audio #1

  47. ID : 2

  48. Format : MLP FBA 16-ch

  49. Format/Info : Meridian Lossless Packing FBA with 16-channel presentation

  50. Commercial name : Dolby TrueHD with Dolby Atmos

  51. Codec ID : A_TRUEHD

  52. Duration : 2 h 15 min

  53. Bit rate mode : Variable

  54. Bit rate : 4 078 kb/s

  55. Maximum bit rate : 7 071 kb/s

  56. Channel(s) : 8 channels

  57. Channel layout : L R C LFE Ls Rs Lb Rb

  58. Sampling rate : 48.0 kHz

  59. Frame rate : 1 200.000 FPS (40 SPF)

  60. Compression mode : Lossless

  61. Stream size : 3.85 GiB (16%)

  62. Title : English

  63. Language : English

  64. Default : Yes

  65. Forced : No

  66. Number of dynamic objects : 11

  67. Bed channel count : 1 channel

  68. Bed channel configuration : LFE

  69. Audio #2

  70. ID : 3

  71. Format : AC-3

  72. Format/Info : Audio Coding 3

  73. Commercial name : Dolby Digital

  74. Codec ID : A_AC3

  75. Duration : 2 h 15 min

  76. Bit rate mode : Constant

  77. Bit rate : 640 kb/s

  78. Channel(s) : 6 channels

  79. Channel layout : L R C LFE Ls Rs

  80. Sampling rate : 48.0 kHz

  81. Frame rate : 31.250 FPS (1536 SPF)

  82. Compression mode : Lossy

  83. Stream size : 619 MiB (3%)

  84. Service kind : Complete Main

  85. Default : Yes

  86. Forced : No

  87. Text #1

  88. ID : 4

  89. Format : PGS

  90. Muxing mode : zlib

  91. Codec ID : S_HDMV/PGS

  92. Codec ID/Info : Picture based subtitle format used on BDs/HD-DVDs

  93. Duration : 2 h 13 min

  94. Bit rate : 85.4 kb/s

  95. Count of elements : 4838

  96. Stream size : 81.5 MiB (0%)

  97. Title : ENG

  98. Language : English

  99. Default : Yes

  100. Forced : No

  101. Text #2

  102. ID : 5

  103. Format : PGS

  104. Muxing mode : zlib

  105. Codec ID : S_HDMV/PGS

  106. Codec ID/Info : Picture based subtitle format used on BDs/HD-DVDs

  107. Duration : 2 h 13 min

  108. Bit rate : 52.9 kb/s

  109. Count of elements : 5118

  110. Stream size : 50.6 MiB (0%)

  111. Title : CHS

  112. Language : Chinese

  113. Default : Yes

  114. Forced : No

  115. Text #3

  116. ID : 6

  117. Format : PGS

  118. Muxing mode : zlib

  119. Codec ID : S_HDMV/PGS

  120. Codec ID/Info : Picture based subtitle format used on BDs/HD-DVDs

  121. Duration : 2 h 13 min

  122. Bit rate : 53.9 kb/s

  123. Count of elements : 5118

  124. Stream size : 51.6 MiB (0%)

  125. Title : CHT

  126. Language : Chinese

  127. Default : Yes

  128. Forced : No

  129. Text #4

  130. ID : 7

  131. Format : PGS

  132. Muxing mode : zlib

  133. Codec ID : S_HDMV/PGS

  134. Codec ID/Info : Picture based subtitle format used on BDs/HD-DVDs

  135. Duration : 2 h 8 min

  136. Bit rate : 96.4 kb/s

  137. Count of elements : 4117

  138. Stream size : 88.4 MiB (0%)

  139. Title : CHS&ENG

  140. Language : Chinese

  141. Default : Yes

  142. Forced : No

  143. Text #5

  144. ID : 8

  145. Format : PGS

  146. Muxing mode : zlib

  147. Codec ID : S_HDMV/PGS

  148. Codec ID/Info : Picture based subtitle format used on BDs/HD-DVDs

  149. Duration : 2 h 8 min

  150. Bit rate : 97.5 kb/s

  151. Count of elements : 4117

  152. Stream size : 89.4 MiB (0%)

  153. Title : CHT&ENG

  154. Language : Chinese

  155. Default : Yes

  156. Forced : No

  157. Menu

  158. 00:00:00.000 : en:第 01 章

  159. 00:08:36.640 : en:第 02 章

  160. 00:18:38.616 : en:第 03 章

  161. 00:23:35.288 : en:第 04 章

  162. 00:32:08.134 : en:第 05 章

  163. 00:36:18.050 : en:第 06 章

  164. 00:40:45.025 : en:第 07 章

  165. 00:53:52.896 : en:第 08 章

  166. 00:57:42.375 : en:第 09 章

  167. 01:03:21.047 : en:第 10 章

  168. 01:12:37.685 : en:第 11 章

  169. 01:26:41.029 : en:第 12 章

  170. 01:31:15.302 : en:第 13 章

  171. 01:42:57.503 : en:第 14 章

  172. 01:49:57.172 : en:第 15 章

  173. 01:55:19.953 : en:第 16 章


复制代码



文件下载


除非特别注明,本文『原钻[简繁英字幕].Uncut.Gems.2019.2160p.HDR.UHD.BluRay.TrueHD.7.1.Atmos.x265-10bit-ENTHD 23.99GB』来源于互联网机器人自动抓取,非本站原创。 浮游电影网不对本文拥有版权,如有侵犯,请联系邮箱:fuyouu#yandex.com[#换成@]投诉。我们会在15个工作日内删除。 但烦请转载时请标明出处:“本文转载于『浮游电影网』,原文地址:https://www.fuyouu.com/22327.html

评论吧骚年!

发表你的见解   

昵称*

E-mail*(建议输入,以便收到博主回复的提示邮件)

验证码*

您可以使用eMule或eMule Mod(Windows)、aMule(Win、Linux、Mac)等软件下载eD2k链接。。
eMule收藏集(.emulecollection)文件是您选中的所有链接的列表文件。eMule可以直接下载它们。
按住SHIFT键选择可以选中多个选择框。
可用文件名和大小选择器来选择文件。
文件名选择器帮您根据文件名称或后缀来选择文件。不分大小写。
符号使用:
和:空格( )、+
不包含:-
或:|
转义:一对英文引号("");
匹配开头:^
匹配结尾:$
例如:
选中所有名称中包含有“eMule”或“0.49c”字眼,但不包含有“exe”字眼的:emule|0.49c -exe
选中所有名称的开头是“eMule”,结尾是“0.49c”的:^emule 0.49c$
选中所有名称中带有“eMule 0.49c”的(必须是“eMule 0.49c”,中间没有别的字符,不能是“eMule fake 0.49c”),需要转义:"emule 0.49c"
大小选择器帮您根据文件大小选择文件。