当前位置: 首页 >> 海外电影 >> 雪中的棕榈树[简繁英字幕].Palm.Trees.in.the.Snow.2015.BluRay.1080p.TrueHD.Atmos.7.1.x265.10bit-ALT 11.51GB >> 正文

雪中的棕榈树[简繁英字幕].Palm.Trees.in.the.Snow.2015.BluRay.1080p.TrueHD.Atmos.7.1.x265.10bit-ALT 11.51GB

2022年05月27日 23:47:42     电影发布:来源于网络     电影分类:海外电影     评论(0)    

◎译 名 雪中的棕榈树 / Palm Trees in the Snow

◎片 名 Palmeras en la nieve

◎年 代 2014

◎产 地 西班牙

◎类 别 剧情 / 爱情

◎语 言 西班牙语

◎上映日期 2015-12-04(西班牙) / 2016-03-04(墨西哥)

◎IMDb链接 https://www.imdb.com/title/tt3202202/

◎豆瓣评分 7.1/10 (302人评价)

◎豆瓣链接 https://movie.douban.com/subject/25884479/

◎片 长 163分钟

◎导 演 费尔南多·冈萨雷斯·莫利纳 Fernando González Molina (id:1329046)

◎演 员 马里奥·卡萨斯 Mario Casas (id:1018355)

阿德里亚娜·乌加特 Adriana Ugarte (id:1014538)

玛卡莲娜·加西亚 Macarena García (id:1326798)

丹尼尔·格劳 Daniel Grao (id:1330088)

费尔南多·卡约 Fernando Cayo (id:1048362)

赛尔索·布加诺 Celso Bugallo (id:1279583)

路易斯·卡叶赫 Luis Callejo (id:1025528)

莱娅·柯丝达 Laia Costa (id:1348722)

Berta Vázquez Berta Vázquez (id:1363319)

卢卡斯·比达尔 Lucas Vidal (id:1354478)

◎简 介

Killian is a young man who has never left the remote mountains of Huesca (Spain) which saw him grow up. In 1953, he travels back to the exotic Equatorial African island of Fernando Poo, in Spanish Guinee, where he was born, to work in a cacao plantation alongside his father and his brother. During 20 years in this island, until the troubled days of independence, he will underta...

◎获奖情况 (共5项)

第30届西班牙戈雅奖 (2016)

最佳艺术指导

最佳制作人(提名)

最佳服装设计(提名)

最佳化妆与发型(提名)

最佳原创歌曲

  1. ##### MediaInfo ######

  2. General

  3. Unique ID : 223199468864022602068438354024808221064 (0xA7EAA770D8C4A4E1106F319D8F5E8988)

  4. Complete name : Palm.Trees.in.the.Snow.2015.BluRay.1080p.TrueHD.Atmos.7.1.x265.10bit-ALT.mkv

  5. Format : Matroska

  6. Format version : Version 4

  7. File size : 11.5 GiB

  8. Duration : 2 h 44 min

  9. Overall bit rate mode : Variable

  10. Overall bit rate : 10.0 Mb/s

  11. Encoded date : UTC 2022-05-27 01:05:43

  12. Writing application : mkvmerge v49.0.0 ('Sick Of Losing Soulmates') 64-bit

  13. Writing library : libebml v1.4.0 + libmatroska v1.6.1

  14. Video

  15. ID : 1

  16. Format : HEVC

  17. Format/Info : High Efficiency Video Coding

  18. Format profile : Main [email protected]@High

  19. Codec ID : V_MPEGH/ISO/HEVC

  20. Duration : 2 h 43 min

  21. Bit rate : 4 966 kb/s

  22. Width : 1 920 pixels

  23. Height : 804 pixels

  24. Display aspect ratio : 2.40:1

  25. Frame rate mode : Constant

  26. Frame rate : 23.976 (24000/1001/53354) FPS

  27. Color space : YUV

  28. Chroma subsampling : 4:2:0

  29. Bit depth : 10 bits

  30. Bits/(Pixel*Frame) : 0.134

  31. Stream size : 5.66 GiB (49%)

  32. Title : HEVC, [email protected]@High, 24/1.001 fps @ 4966 kbps

  33. Writing library : x265 3.5+36-1f2c8da77:[Windows][GCC 11.2.0][64 bit] 10bit

  34. Encoding settings : cpuid=533541111039 / frame-threads=4 / numa-pools=16 / wpp / no-pmode / no-pme / no-psnr / no-ssim / log-level=2 / input-csp=1 / input-res=1920x804 / interlace=0 / total-frames=234702 / level-idc=51 / high-tier=1 / uhd-bd=0 / ref=5 / no-allow-non-conformance / no-repeat-headers / annexb / no-aud / no-eob / no-eos / no-hrd / info / hash=0 / no-temporal-layers / open-gop / min-keyint=24 / keyint=240 / gop-lookahead=0 / bframes=6 / b-adapt=2 / b-pyramid / bframe-bias=0 / rc-lookahead=40 / lookahead-slices=0 / NTMzNTQ=uuDQuD2mJt9fsCf / scenecut=40 / no-hist-scenecut / radl=0 / no-splice / no-intra-refresh / ctu=32 / min-cu-size=8 / no-rect / no-amp / max-tu-size=32 / tu-inter-depth=3 / tu-intra-depth=3 / limit-tu=4 / rdoq-level=2 / dynamic-rd=0.00 / no-ssim-rd / signhide / no-tskip / nr-intra=0 / nr-inter=0 / no-constrained-intra / no-strong-intra-smoothing / max-merge=4 / limit-refs=1 / limit-modes / me=3 / subme=4 / merange=25 / temporal-mvp / no-frame-dup / no-hme / weightp / weightb / no-analyze-src-pics / deblock=-3:-3 / no-sao / no-sao-non-deblock / rd=6 / selective-sao=0 / no-early-skip / rskip / no-fast-intra / no-tskip-fast / no-cu-lossless / b-intra / no-splitrd-skip / rdpenalty=0 / psy-rd=2.00 / psy-rdoq=1.00 / no-rd-refine / no-lossless / cbqpoffs=-2 / crqpoffs=-2 / rc=crf / crf=17.0 / qcomp=0.65 / qpstep=4 / stats-write=0 / stats-read=0 / vbv-maxrate=80000 / vbv-bufsize=80000 / vbv-init=0.9 / min-vbv-fullness=50.0 / max-vbv-fullness=80.0 / crf-max=0.0 / crf-min=0.0 / ipratio=1.40 / pbratio=1.30 / aq-mode=2 / aq-strength=0.85 / cutree / zone-count=0 / no-strict-cbr / qg-size=32 / no-rc-grain / qpmax=69 / qpmin=0 / no-const-vbv / sar=1 / overscan=0 / videoformat=5 / range=0 / colorprim=1 / transfer=1 / colormatrix=1 / chromaloc=0 / display-window=0 / cll=0,0 / min-luma=0 / max-luma=1023 / log2-max-poc-lsb=8 / vui-timing-info / vui-hrd-info / slices=1 / no-opt-qp-pps / no-opt-ref-list-length-pps / no-multi-pass-opt-rps / scenecut-bias=0.05 / hist-threshold=0.03 / no-opt-cu-delta-qp / no-aq-motion / no-hdr10 / no-hdr10-opt / no-dhdr10-opt / no-idr-recovery-sei / analysis-reuse-level=0 / analysis-save-reuse-level=0 / analysis-load-reuse-level=0 / scale-factor=0 / refine-intra=0 / refine-inter=0 / refine-mv=1 / refine-ctu-distortion=0 / no-limit-sao / ctu-info=0 / no-lowpass-dct / refine-analysis-type=0 / copy-pic=1 / max-ausize-factor=1.0 / no-dynamic-refine / no-single-sei / no-hevc-aq / no-svt / no-field / qp-adaptation-range=1.00 / scenecut-aware-qp=0conformance-window-offsets / right=0 / bottom=0 / NTMzNTQ= / decoder-max-rate=0 / no-vbv-live-multi-pass

  35. Language : English

  36. Default : Yes

  37. Forced : No

  38. Color range : Limited

  39. Color primaries : BT.709

  40. Transfer characteristics : BT.709

  41. Matrix coefficients : BT.709

  42. Audio #1

  43. ID : 2

  44. Format : MLP FBA 16-ch

  45. Format/Info : Meridian Lossless Packing FBA with 16-channel presentation

  46. Commercial name : Dolby TrueHD with Dolby Atmos

  47. Codec ID : A_TRUEHD

  48. Duration : 2 h 44 min

  49. Bit rate mode : Variable

  50. Bit rate : 4 333 kb/s

  51. Maximum bit rate : 7 356 kb/s

  52. Channel(s) : 8 channels

  53. Channel layout : L R C LFE Ls Rs Lb Rb

  54. Sampling rate : 48.0 kHz

  55. Frame rate : 1 200.000 FPS (40 SPF)

  56. Compression mode : Lossless

  57. Stream size : 4.96 GiB (43%)

  58. Title : Spanish Dolby TrueHD 7.1 (Atmos) @ 4360 kbps

  59. Language : Spanish

  60. Default : Yes

  61. Forced : No

  62. Number of dynamic objects : 11

  63. Bed channel count : 1 channel

  64. Bed channel configuration : LFE

  65. Audio #2

  66. ID : 3

  67. Format : AC-3

  68. Format/Info : Audio Coding 3

  69. Commercial name : Dolby Digital

  70. Codec ID : A_AC3

  71. Duration : 2 h 44 min

  72. Bit rate mode : Constant

  73. Bit rate : 640 kb/s

  74. Channel(s) : 6 channels

  75. Channel layout : L R C LFE Ls Rs

  76. Sampling rate : 48.0 kHz

  77. Frame rate : 31.250 FPS (1536 SPF)

  78. Compression mode : Lossy

  79. Stream size : 751 MiB (6%)

  80. Title : Spanish Dolby Digital Audio 5.1 @ 640 kbps

  81. Language : Spanish

  82. Service kind : Complete Main

  83. Default : No

  84. Forced : No

  85. Text #1

  86. ID : 4

  87. Format : PGS

  88. Codec ID : S_HDMV/PGS

  89. Codec ID/Info : Picture based subtitle format used on BDs/HD-DVDs

  90. Duration : 2 h 33 min

  91. Bit rate : 26.0 kb/s

  92. Count of elements : 2716

  93. Stream size : 28.6 MiB (0%)

  94. Title : Eng/SUP

  95. Language : English

  96. Default : No

  97. Forced : No

  98. Text #2

  99. ID : 5

  100. Format : PGS

  101. Codec ID : S_HDMV/PGS

  102. Codec ID/Info : Picture based subtitle format used on BDs/HD-DVDs

  103. Duration : 2 h 32 min

  104. Bit rate : 18.1 kb/s

  105. Count of elements : 2642

  106. Stream size : 19.7 MiB (0%)

  107. Title : Chs/SUP 简体

  108. Language : Chinese

  109. Default : Yes

  110. Forced : No

  111. Text #3

  112. ID : 6

  113. Format : PGS

  114. Codec ID : S_HDMV/PGS

  115. Codec ID/Info : Picture based subtitle format used on BDs/HD-DVDs

  116. Duration : 2 h 32 min

  117. Bit rate : 21.1 kb/s

  118. Count of elements : 2642

  119. Stream size : 23.1 MiB (0%)

  120. Title : Cht/SUP 繁体

  121. Language : Chinese

  122. Default : No

  123. Forced : No

  124. Menu

  125. 00:00:00.000 : en:Chapter 1

  126. 00:03:00.847 : en:Chapter 2

  127. 00:09:34.574 : en:Chapter 3

  128. 00:16:17.559 : en:Chapter 4

  129. 00:22:57.334 : en:Chapter 5

  130. 00:28:57.569 : en:Chapter 6

  131. 00:35:12.527 : en:Chapter 7

  132. 00:43:05.291 : en:Chapter 8

  133. 00:54:21.967 : en:Chapter 9

  134. 01:02:42.633 : en:Chapter 10

  135. 01:13:23.816 : en:Chapter 11

  136. 01:19:01.153 : en:Chapter 12

  137. 01:24:18.720 : en:Chapter 13

  138. 01:31:48.669 : en:Chapter 14

  139. 01:38:19.894 : en:Chapter 15

  140. 01:46:17.913 : en:Chapter 16

  141. 01:53:23.630 : en:Chapter 17

  142. 02:00:16.083 : en:Chapter 18

  143. 02:07:47.993 : en:Chapter 19

  144. 02:14:54.586 : en:Chapter 20

  145. 02:21:26.895 : en:Chapter 21

  146. 02:28:22.101 : en:Chapter 22

  147. 02:32:35.312 : en:Chapter 23

  148. 02:36:58.575 : en:Chapter 24


复制代码



文件下载


除非特别注明,本文『雪中的棕榈树[简繁英字幕].Palm.Trees.in.the.Snow.2015.BluRay.1080p.TrueHD.Atmos.7.1.x265.10bit-ALT 11.51GB』来源于互联网机器人自动抓取,非本站原创。 浮游电影网不对本文拥有版权,如有侵犯,请联系邮箱:fuyouu#yandex.com[#换成@]投诉。我们会在15个工作日内删除。 但烦请转载时请标明出处:“本文转载于『浮游电影网』,原文地址:https://www.fuyouu.com/22311.html

评论吧骚年!

发表你的见解   

昵称*

E-mail*(建议输入,以便收到博主回复的提示邮件)

验证码*

您可以使用eMule或eMule Mod(Windows)、aMule(Win、Linux、Mac)等软件下载eD2k链接。。
eMule收藏集(.emulecollection)文件是您选中的所有链接的列表文件。eMule可以直接下载它们。
按住SHIFT键选择可以选中多个选择框。
可用文件名和大小选择器来选择文件。
文件名选择器帮您根据文件名称或后缀来选择文件。不分大小写。
符号使用:
和:空格( )、+
不包含:-
或:|
转义:一对英文引号("");
匹配开头:^
匹配结尾:$
例如:
选中所有名称中包含有“eMule”或“0.49c”字眼,但不包含有“exe”字眼的:emule|0.49c -exe
选中所有名称的开头是“eMule”,结尾是“0.49c”的:^emule 0.49c$
选中所有名称中带有“eMule 0.49c”的(必须是“eMule 0.49c”,中间没有别的字符,不能是“eMule fake 0.49c”),需要转义:"emule 0.49c"
大小选择器帮您根据文件大小选择文件。