当前位置: 首页 >> 欧美电影 >> 敢死队2[简繁英特效字幕].The.Expendables.2012.UHD.BluRay.2160p.x265.10bit.HDR-MiniHD 13.22GB >> 正文

敢死队2[简繁英特效字幕].The.Expendables.2012.UHD.BluRay.2160p.x265.10bit.HDR-MiniHD 13.22GB

2022年05月26日 23:05:31     电影发布:来源于网络     电影分类:欧美电影     评论(0)    

◎译 名 敢死队2 / 浴血任务2(台) / 轰天猛将2(港) / The Expendables II

◎片 名 The Expendables 2

◎年 代 2012

◎产 地 美国 / 德国 / 保加利亚 / 中国大陆

◎类 别 动作 / 冒险

◎语 言 英语

◎上映日期 2012-09-04(中国大陆) / 2012-08-17(美国)

◎IMDb链接 https://www.imdb.com/title/tt1764651/

◎豆瓣评分 7.0/10 (140502人评价)

◎豆瓣链接 https://movie.douban.com/subject/6040982/

◎片 长 103分钟(美国)

◎导 演 西蒙·韦斯特 Simon West (id:1300732)

◎编 剧 西尔维斯特·史泰龙 Sylvester Stallone (id:1047996)

理查德·温克 Richard Wenk (id:1300710)

肯恩·考夫曼 Ken Kaufman (id:1322928)

◎演 员 西尔维斯特·史泰龙 Sylvester Stallone (id:1047996)

杰森·斯坦森 Jason Statham (id:1049484)

杜夫·龙格尔 Dolph Lundgren (id:1040508)

余男 Nan Yu (id:1050430)

尚格·云顿 Jean-Claude Van Damme (id:1027149)

布鲁斯·威利斯 Bruce Willis (id:1010509)

阿诺·施瓦辛格 Arnold Schwarzenegger (id:1035643)

泰瑞·克鲁斯 Terry Crews (id:1022577)

兰迪·库卓 Randy Couture (id:1009313)

利亚姆·海姆斯沃斯 Liam Hemsworth (id:1012478)

斯科特·阿金斯 Scott Adkins (id:1017912)

查克·诺瑞斯 Chuck Norris (id:1031884)

李连杰 Jet Li (id:1025146)

诺瓦克·德约科维奇 Novak Djokovic (id:1239781)

查瑞丝玛·卡朋特 Charisma Carpenter (id:1022583)

李文波 Wenbo Li (id:1389160)

马拉纳·李 Malana Lea (id:1332154)

布莱恩·泰勒 Brian Tyler (id:1276412)

盖伊·费尔南德斯 Guy Fernandez (id:1426161)

利兹·沃尔夫 Lizz Wolf (id:1466605)

查德·斯塔赫斯基 Chad Stahelski (id:1154486)

刘坤 Kun Liu (id:1436855)

◎简 介

再次经历了一番炮火密集的血雨腥风,巴尼(西尔维斯特·史泰龙 Sylvester Stallone 饰)、圣诞(杰森·斯坦森 Jason Statham饰)、贡纳(杜夫·龙格尔 Dolph Lundgren 饰)、比利(利亚姆·海姆斯沃斯 Liam Hemsworth 饰)、收费公路(兰迪·库卓 Randy Couture 饰)和凯撒(泰瑞·克鲁斯 Terry Crews 饰)这几个敢死队的铁哥们正享受大战之后的难得惬意。可是好景不长,某晚教堂(布鲁斯·威利斯 Bruce Willis 饰)找上门来,迫令他前往阿尔巴尼亚噶扎克山区找一架被击落飞机上的保险箱,并确保箱子不会落入敌人之手,教堂还委派麦琪·张(余男 饰)与这群硬汉同行。

看似简单的任务实则充满凶险,比利被对手残忍杀害。这已不再是一项任务,而是一场关乎战士们友情与荣誉的战争……

◎获奖情况 (共1项)

第3届豆瓣电影鑫像奖 (2013)

豆渣单元 最渣女演员(外语)(提名)

└──余男 (id:1050430)

  1. ##### MediaInfo ######

  2. General

  3. Unique ID : 45766843751252956494888198669449392251 (0x226E5F9CA6CC20A43F37BE481AF9707B)

  4. Complete name : 敢死队2.The.Expendables.2012.UHD.BluRay.2160p.x265.10bit.HDR-MiniHD.mkv

  5. Format : Matroska

  6. Format version : Version 4

  7. File size : 13.2 GiB

  8. Duration : 1 h 42 min

  9. Overall bit rate mode : Variable

  10. Overall bit rate : 18.4 Mb/s

  11. Encoded date : UTC 2020-02-05 04:42:26

  12. Writing application : mkvmerge v43.0.0 ('The Quartermaster') 64-bit

  13. Writing library : libebml v1.3.10 + libmatroska v1.5.2

  14. Cover : Yes

  15. Attachments : cover.jpg / cover.jpg

  16. Video

  17. ID : 1

  18. Format : HEVC

  19. Format/Info : High Efficiency Video Coding

  20. Format profile : Main [email protected]@High

  21. HDR format : SMPTE ST 2086, HDR10 compatible

  22. Codec ID : V_MPEGH/ISO/HEVC

  23. Duration : 1 h 42 min

  24. Bit rate : 12.1 Mb/s

  25. Width : 3 840 pixels

  26. Height : 1 600 pixels

  27. Display aspect ratio : 2.40:1

  28. Frame rate mode : Constant

  29. Frame rate : 23.976 (24000/1001/53354) FPS

  30. Color space : YUV

  31. Chroma subsampling : 4:2:0

  32. Bit depth : 10 bits

  33. Bits/(Pixel*Frame) : 0.082

  34. Stream size : 8.67 GiB (66%)

  35. Title : mUHD

  36. Writing library : x265 3.2+7-gb291a1c95+26:[Windows][MSVC 1916][64 bit] Yuuki 10bit

  37. Encoding settings : rc=crf / crf=21.5000 / qcomp=0.70 / qpstep=4 / stats-write=0 / stats-read=0 / vbv-maxrate=160000 / vbv-bufsize=160000 / vbv-init=0.9 / crf-max=0.0 / crf-min=0.0 / no-lossless / no-cu-lossless / aq-mode=3 / aq-strength=0.85 / cbqpoffs=-3 / crqpoffs=-3 / ipratio=1.40 / pbratio=1.20 / psy-rd=0.00 / psy-rdoq=8.00 / deblock=-1:-1 / ref=4 / limit-refs=2 / limit-modes / bframes=8 / b-adapt=2 / bframe-bias=0 / b-pyramid / b-intra / weightp / weightb / min-keyint=1 / max-keyint=360 / rc-lookahead=40 / gop-lookahead=0 / NTMzNTQ=uuDQuD2mJt9fsCf / scenecut=40 / radl=0 / max-cu-size=32 / min-cu-size=8 / me=3 / subme=4 / merange=25 / rdoq-level=2 / rd=4 / rdpenalty=1 / dynamic-rd=0.00 / no-rd-refine / ----- / cutree / no-sao / no-rect / no-amp / no-open-gop / wpp / no-pmode / no-pme / no-psnr / no-ssim / nr-intra=0 / nr-inter=0 / no-constrained-intra / no-strong-intra-smoothing / max-tu-size=32 / tu-inter-depth=2 / tu-intra-depth=2 / limit-tu=3 / qg-size=32 / qpmax=69 / qpmin=0 / ----- / cpuid=533541111039 / frame-threads=4 / numa-pools=24 / log-level=2 / input-csp=1 / input-res=3840x1600 / interlace=0 / level-idc=51 / high-tier=1 / uhd-bd=0 / no-allow-non-conformance / repeat-headers / aud / hrd / info / hash=0 / no-temporal-layers / lookahead-slices=0 / no-splice / no-intra-refresh / ssim-rd / signhide / no-tskip / max-merge=4 / temporal-mvp / no-hme / no-analyze-src-pics / no-sao-non-deblock / selective-sao=0 / no-early-skip / no-rskip / no-fast-intra / no-tskip-fast / no-splitrd-skip / zone-count=0 / no-strict-cbr / no-rc-grain / no-const-vbv / sar=0 / overscan=0 / videoformat=5 / range=0 / colorprim=9 / transfer=16 / colormatrix=9 / chromaloc=0 / display-window=0 / master-display=G(13250,34500)B(7500,3000)R(34000,16000)WP(15635,16450)L(10000000,0) / cll=1000,446 / min-luma=0 / max-luma=1023 / log2-max-poc-lsb=8 / vui-timing-info / vui-hrd-info / slices=1 / no-opt-qp-pps / no-opt-ref-list-length-pps / no-multi-pass-opt-rps / scenecut-bias=0.05 / no-opt-cu-delta-qp / no-aq-motion / hdr / hdr-opt / no-dhdr10-opt / no-idr-recovery-sei / analysis-reuse-level=5 / scale-factor=0 / refine-intra=0 / refine-inter=0 / refine-mv=1 / refine-ctu-distortion=0 / no-limit-sao / ctu-info=0 / no-lowpass-dct / refine-analysis-type=0 / copy-pic=1 / max-ausize-factor=1.0 / no-dynamic-refine / no-single-sei / no-hevc-aq / no-svt / no-field / qp-adaptation-range=1.00

  38. Language : English

  39. Default : Yes

  40. Forced : No

  41. Color range : Limited

  42. Color primaries : BT.2020

  43. Transfer characteristics : PQ

  44. Matrix coefficients : BT.2020 non-constant

  45. Mastering display color primaries : Display P3

  46. Mastering display luminance : min: 0.0000 cd/m2, max: 1000 cd/m2

  47. Maximum Content Light Level : 1000 cd/m2

  48. Maximum Frame-Average Light Level : 446 cd/m2

  49. Audio #1

  50. ID : 2

  51. Format : MLP FBA 16-ch

  52. Format/Info : Meridian Lossless Packing FBA with 16-channel presentation

  53. Commercial name : Dolby TrueHD with Dolby Atmos

  54. Codec ID : A_TRUEHD

  55. Duration : 1 h 42 min

  56. Bit rate mode : Variable

  57. Bit rate : 5 579 kb/s

  58. Maximum bit rate : 10.1 Mb/s

  59. Channel(s) : 8 channels

  60. Channel layout : L R C LFE Ls Rs Lb Rb

  61. Sampling rate : 48.0 kHz

  62. Frame rate : 1 200.000 FPS (40 SPF)

  63. Compression mode : Lossless

  64. Stream size : 4.00 GiB (30%)

  65. Title : english TrueHD(Atmos)@7.1

  66. Language : English

  67. Default : Yes

  68. Forced : No

  69. Number of dynamic objects : 15

  70. Bed channel count : 1 channel

  71. Bed channel configuration : LFE

  72. Audio #2

  73. ID : 3

  74. Format : AC-3

  75. Format/Info : Audio Coding 3

  76. Commercial name : Dolby Digital

  77. Codec ID : A_AC3

  78. Duration : 1 h 42 min

  79. Bit rate mode : Constant

  80. Bit rate : 640 kb/s

  81. Channel(s) : 6 channels

  82. Channel layout : L R C LFE Ls Rs

  83. Sampling rate : 48.0 kHz

  84. Frame rate : 31.250 FPS (1536 SPF)

  85. Compression mode : Lossy

  86. Stream size : 470 MiB (3%)

  87. Title : english [email protected] 640kbps

  88. Language : English

  89. Service kind : Complete Main

  90. Default : No

  91. Forced : No

  92. Text #1

  93. ID : 4

  94. Format : PGS

  95. Muxing mode : zlib

  96. Codec ID : S_HDMV/PGS

  97. Codec ID/Info : Picture based subtitle format used on BDs/HD-DVDs

  98. Duration : 1 h 29 min

  99. Bit rate : 27.7 kb/s

  100. Count of elements : 1976

  101. Stream size : 17.8 MiB (0%)

  102. Title : English

  103. Language : English

  104. Default : Yes

  105. Forced : No

  106. Text #2

  107. ID : 5

  108. Format : PGS

  109. Muxing mode : zlib

  110. Codec ID : S_HDMV/PGS

  111. Codec ID/Info : Picture based subtitle format used on BDs/HD-DVDs

  112. Duration : 1 h 33 min

  113. Bit rate : 14.3 kb/s

  114. Count of elements : 2021

  115. Stream size : 9.55 MiB (0%)

  116. Title : 原盘简体

  117. Language : Chinese

  118. Default : No

  119. Forced : No

  120. Text #3

  121. ID : 6

  122. Format : PGS

  123. Muxing mode : zlib

  124. Codec ID : S_HDMV/PGS

  125. Codec ID/Info : Picture based subtitle format used on BDs/HD-DVDs

  126. Duration : 1 h 33 min

  127. Bit rate : 13.2 kb/s

  128. Count of elements : 2021

  129. Stream size : 8.83 MiB (0%)

  130. Title : 原盘繁体

  131. Language : Chinese

  132. Default : No

  133. Forced : No

  134. Text #4

  135. ID : 7

  136. Format : PGS

  137. Muxing mode : zlib

  138. Codec ID : S_HDMV/PGS

  139. Codec ID/Info : Picture based subtitle format used on BDs/HD-DVDs

  140. Duration : 1 h 32 min

  141. Bit rate : 42.3 kb/s

  142. Count of elements : 2011

  143. Stream size : 27.9 MiB (0%)

  144. Title : 简英双语特效

  145. Language : Chinese

  146. Default : No

  147. Forced : No

  148. Menu

  149. 00:00:00.000 : :Chapter 01

  150. 00:10:03.352 : :Chapter 02

  151. 00:10:03.436 : :Chapter 03

  152. 00:18:05.334 : :Chapter 04

  153. 00:18:05.417 : :Chapter 05

  154. 00:24:54.784 : :Chapter 06

  155. 00:24:54.868 : :Chapter 07

  156. 00:28:43.138 : :Chapter 08

  157. 00:28:43.221 : :Chapter 09

  158. 00:31:31.764 : :Chapter 10

  159. 00:31:31.848 : :Chapter 11

  160. 00:39:10.806 : :Chapter 12

  161. 00:39:10.890 : :Chapter 13

  162. 00:48:53.513 : :Chapter 14

  163. 00:48:53.597 : :Chapter 15

  164. 00:54:34.521 : :Chapter 16

  165. 00:54:34.604 : :Chapter 17

  166. 00:59:24.227 : :Chapter 18

  167. 00:59:24.310 : :Chapter 19

  168. 01:04:30.032 : :Chapter 20

  169. 01:04:30.116 : :Chapter 21

  170. 01:07:14.363 : :Chapter 22

  171. 01:07:14.447 : :Chapter 23

  172. 01:13:42.376 : :Chapter 24

  173. 01:13:42.459 : :Chapter 25

  174. 01:20:17.646 : :Chapter 26

  175. 01:20:17.729 : :Chapter 27

  176. 01:28:26.968 : :Chapter 28

  177. 01:28:27.051 : :Chapter 29

  178. 01:31:24.395 : :Chapter 30

  179. 01:31:24.479 : :Chapter 31

  180. 01:42:39.736 : :Chapter 32



文件下载


除非特别注明,本文『敢死队2[简繁英特效字幕].The.Expendables.2012.UHD.BluRay.2160p.x265.10bit.HDR-MiniHD 13.22GB』来源于互联网机器人自动抓取,非本站原创。 浮游电影网不对本文拥有版权,如有侵犯,请联系邮箱:fuyouu#yandex.com[#换成@]投诉。我们会在15个工作日内删除。 但烦请转载时请标明出处:“本文转载于『浮游电影网』,原文地址:https://www.fuyouu.com/22300.html

评论吧骚年!

发表你的见解   

昵称*

E-mail*(建议输入,以便收到博主回复的提示邮件)

验证码*

您可以使用eMule或eMule Mod(Windows)、aMule(Win、Linux、Mac)等软件下载eD2k链接。。
eMule收藏集(.emulecollection)文件是您选中的所有链接的列表文件。eMule可以直接下载它们。
按住SHIFT键选择可以选中多个选择框。
可用文件名和大小选择器来选择文件。
文件名选择器帮您根据文件名称或后缀来选择文件。不分大小写。
符号使用:
和:空格( )、+
不包含:-
或:|
转义:一对英文引号("");
匹配开头:^
匹配结尾:$
例如:
选中所有名称中包含有“eMule”或“0.49c”字眼,但不包含有“exe”字眼的:emule|0.49c -exe
选中所有名称的开头是“eMule”,结尾是“0.49c”的:^emule 0.49c$
选中所有名称中带有“eMule 0.49c”的(必须是“eMule 0.49c”,中间没有别的字符,不能是“eMule fake 0.49c”),需要转义:"emule 0.49c"
大小选择器帮您根据文件大小选择文件。