当前位置: 首页 >> 日韩电影 >> 隐剑鬼爪[中英字幕].The.Hidden.Blade.2004.BluRay.1080p.x265.10bit-MiniHD 7.69GB >> 正文

隐剑鬼爪[中英字幕].The.Hidden.Blade.2004.BluRay.1080p.x265.10bit-MiniHD 7.69GB

2022年05月26日 21:23:54     电影发布:来源于网络     电影分类:日韩电影     评论(0)    

◎译 名 隐剑鬼爪 / The Hidden Blade

◎片 名 隠し剣 鬼の爪

◎年 代 2004

◎产 地 日本

◎类 别 剧情 / 爱情

◎语 言 日语

◎上映日期 2004-10-30(日本)

◎IMDb链接 https://www.imdb.com/title/tt0442286/

◎豆瓣评分 8.2/10 (6998人评价)

◎豆瓣链接 https://movie.douban.com/subject/1309005/

◎片 长 132分钟

◎导 演 山田洋次 Y?ji Yamada (id:1162794)

◎编 剧 山田洋次 Y?ji Yamada (id:1162794)

朝间义隆 Yoshitaka Asama (id:1277485)

藤泽周平 Shuuhei Fujisawa (id:1187510)

◎演 员 永濑正敏 Masatoshi Nagase (id:1010090)

松隆子 Takako Matsu (id:1003483)

吉冈秀隆 Hidetaka Yoshioka (id:1025610)

小泽征悦 Yukiyoshi Ozawa (id:1020068)

田畑智子 Tomoko Tabata (id:1017067)

倍赏千惠子 Chieko Baish? (id:1056635)

田中邦卫 Kunie Tanaka (id:1040946)

绫田俊树 Toshiki Ayata (id:1337259)

神户浩 Hiroshi Kanbe (id:1018934)

光本幸子 Sachiko Mitsumoto (id:1053239)

高岛礼子 Reiko Takashima (id:1025664)

前田淳 Jun Maeda (id:1418734)

赤冢真人 Makoto Akatsuka (id:1034536)

小市慢太郎 Mantar? Koichi (id:1007656)

北山雅康 Masayasu Kitayama (id:1004237)

松田洋治 Y?ji Matsuda (id:1028671)

松野太纪 Taiki Matsuno (id:1349056)

近藤公园 K?en Kond? (id:1029875)

香川耕二 Koji Kagawa (id:1390205)

笹野高史 Takashi Sasano (id:1012794)

田中泯 Min Tanaka (id:1298890)

小林稔侍 Nenji Kobayashi (id:1008326)

绪形拳 Ken Ogata (id:1009942)

富田勋 Isao Tomita (id:1046594)

长沼六男 Mutsuo Naganuma (id:1292872)

石井岩 Iwao Ishii (id:1287398)

平松惠美子 Emiko Hiramatsu (id:1305787)

◎简 介

时值德川幕府末期,海坂藩的下级武士片桐宗藏(永濑正敏 饰)和母亲(倍赏千惠子 饰)、妹妹志乃(田畑智子 饰),以及女佣希惠(松隆子 饰)过着清贫但安乐的生活。母亲过世后,妹妹嫁给了宗藏的好友岛田左门(吉冈秀隆 饰),而希惠却有个不好的婆家。 一日,宗藏偶与希惠在街头重逢,在得知她 倍受婆家人的欺虐后,他怒不可言,将她背回家中收留养病。宗藏心中对希惠尘封已久的爱恋又重新点燃,但他出于各种顾忌,却没敢表明真心。终于,希惠还是离开了宗藏回到家中。而宗藏的同门师兄弟兼好友狭间弥市郎(小泽征悦 饰)因秘密谋反,被捕后越狱出逃,宗藏受命前去追讨。身怀独门秘技隐剑鬼爪的宗藏,将与弥市郎展开一场生死之搏。

◎获奖情况 (共14项)

第55届柏林国际电影节 (2005)

金熊奖 最佳影片(提名)

└──山田洋次 (id:1162794)

第28届日本电影学院奖 (2005)

最佳影片(提名)

最佳导演(提名)

└──山田洋次 (id:1162794)

最佳编剧(提名)

最佳男主角(提名)

└──永濑正敏 (id:1010090)

最佳女主角(提名)

└──松隆子 (id:1003483)

最佳男配角(提名)

└──吉冈秀隆 (id:1025610)

最佳配乐(提名)

└──富田勋 (id:1046594)

最佳摄影(提名)

└──长沼六男 (id:1292872)

最佳美术指导

最佳照明(提名)

└──中冈源权 (id:1292905)

最佳录音(提名)

└──岸田和美 (id:1305843)

最佳剪辑(提名)

└──石井岩 (id:1287398)

第29届报知映画赏 (2004)

最佳女主角

└──松隆子 (id:1003483)

  1. ##### MediaInfo ######

  2. General

  3. Unique ID : 183491488354716930169450360680694877784 (0x8A0B2CD9A9617E9AAFC63A1287E30E58)

  4. Complete name : The.Hidden.Blade.2004.BluRay.1080p.x265.10bit-MiniHD.mkv

  5. Format : Matroska

  6. Format version : Version 4

  7. File size : 7.68 GiB

  8. Duration : 2 h 12 min

  9. Overall bit rate : 8 332 kb/s

  10. Encoded date : UTC 2017-01-11 07:34:32

  11. Writing application : mkvmerge v9.2.0 ('Photograph') 32bit

  12. Writing library : libebml v1.3.3 + libmatroska v1.4.4

  13. Video

  14. ID : 1

  15. Format : HEVC

  16. Format/Info : High Efficiency Video Coding

  17. Format profile : Main [email protected]@Main

  18. Codec ID : V_MPEGH/ISO/HEVC

  19. Duration : 2 h 12 min

  20. Bit rate : 7 661 kb/s

  21. Width : 1 920 pixels

  22. Height : 1 036 pixels

  23. Display aspect ratio : 1.85:1

  24. Frame rate mode : Constant

  25. Frame rate : 23.976 (24000/1001/53354) FPS

  26. Color space : YUV

  27. Chroma subsampling : 4:2:0

  28. Bit depth : 10 bits

  29. Bits/(Pixel*Frame) : 0.161

  30. Stream size : 7.07 GiB (92%)

  31. Writing library : x265 2.2+5-e40db0bdde4a:[Windows][GCC 6.2.0][64 bit] 10bit

  32. Encoding settings : cpuid=533541173503 / frame-threads=6 / numa-pools=36 / wpp / no-pmode / no-pme / no-psnr / no-ssim / log-level=2 / input-csp=1 / input-res=1920x1036 / interlace=0 / total-frames=189931 / level-idc=0 / high-tier=1 / uhd-bd=0 / ref=5 / no-allow-non-conformance / no-repeat-headers / annexb / no-aud / no-hrd / info / hash=0 / no-temporal-layers / no-open-gop / min-keyint=1 / keyint=360 / bframes=8 / b-adapt=2 / b-pyramid / bframe-bias=0 / rc-lookahead=60 / lookahead-slices=4 / NTMzNTQ=uuDQuD2mJt9fsCf / scenecut=40 / no-intra-refresh / ctu=32 / min-cu-size=8 / rect / no-amp / max-tu-size=16 / tu-inter-depth=2 / tu-intra-depth=2 / limit-tu=0 / rdoq-level=2 / signhide / no-tskip / nr-intra=0 / nr-inter=0 / no-constrained-intra / no-strong-intra-smoothing / max-merge=3 / limit-refs=3 / limit-modes / me=3 / subme=5 / merange=25 / temporal-mvp / weightp / weightb / no-analyze-src-pics / deblock=-1:-1 / no-sao / no-sao-non-deblock / rd=4 / no-early-skip / rskip / no-fast-intra / no-tskip-fast / no-cu-lossless / b-intra / rdpenalty=1 / psy-rd=2.00 / psy-rdoq=5.00 / no-rd-refine / analysis-mode=0 / no-lossless / cbqpoffs=-2 / crqpoffs=-2 / rc=crf / crf=20.0 / qcomp=0.65 / qpstep=4 / stats-write=0 / stats-read=0 / ipratio=1.40 / pbratio=1.30 / aq-mode=3 / aq-strength=0.80 / cutree / zone-count=0 / no-strict-cbr / qg-size=16 / no-rc-grain / qpmax=69 / qpmin=0 / sar=0 / overscan=0 / videoformat=5 / range=0 / colorprim=1 / transfer=2 / colormatrix=2 / chromaloc=0 / display-window=0 / max-cll=0,0 / min-luma=0 / max-luma=1023 / log2-max-poc-lsb=8 / vui-timing-info / vui-hrd-info / slices=1 / opt-qp-pps / opt-ref-list-length-pps / no-multi-pass-opt-rps / scenecut-bias=0.05 / no-opt-cu-delta-qp

  33. Default : Yes

  34. Forced : No

  35. Color range : Limited

  36. Color primaries : BT.709

  37. Audio

  38. ID : 2

  39. Format : AC-3

  40. Format/Info : Audio Coding 3

  41. Commercial name : Dolby Digital

  42. Codec ID : A_AC3

  43. Duration : 2 h 12 min

  44. Bit rate mode : Constant

  45. Bit rate : 640 kb/s

  46. Channel(s) : 6 channels

  47. Channel layout : L R C LFE Ls Rs

  48. Sampling rate : 48.0 kHz

  49. Frame rate : 31.250 FPS (1536 SPF)

  50. Compression mode : Lossy

  51. Stream size : 604 MiB (8%)

  52. Language : Japanese

  53. Service kind : Complete Main

  54. Default : Yes

  55. Forced : No

  56. Text #1

  57. ID : 3

  58. Format : PGS

  59. Muxing mode : zlib

  60. Codec ID : S_HDMV/PGS

  61. Codec ID/Info : Picture based subtitle format used on BDs/HD-DVDs

  62. Duration : 2 h 11 min

  63. Bit rate : 8 377 b/s

  64. Count of elements : 2536

  65. Stream size : 7.88 MiB (0%)

  66. Language : English

  67. Default : Yes

  68. Forced : No

  69. Text #2

  70. ID : 4

  71. Format : PGS

  72. Muxing mode : zlib

  73. Codec ID : S_HDMV/PGS

  74. Codec ID/Info : Picture based subtitle format used on BDs/HD-DVDs

  75. Duration : 2 h 11 min

  76. Bit rate : 10.3 kb/s

  77. Count of elements : 2534

  78. Stream size : 9.70 MiB (0%)

  79. Language : Chinese

  80. Default : No

  81. Forced : No

  82. Text #3

  83. ID : 5

  84. Format : PGS

  85. Muxing mode : zlib

  86. Codec ID : S_HDMV/PGS

  87. Codec ID/Info : Picture based subtitle format used on BDs/HD-DVDs

  88. Duration : 2 h 11 min

  89. Bit rate : 10.7 kb/s

  90. Count of elements : 2534

  91. Stream size : 10.0 MiB (0%)

  92. Language : Chinese

  93. Default : No

  94. Forced : No

  95. Menu

  96. 00:00:00.000 : en:00:00:00.000

  97. 00:17:05.942 : en:00:17:05.942

  98. 00:35:20.327 : en:00:35:20.327

  99. 00:44:12.608 : en:00:44:12.608

  100. 01:07:10.610 : en:01:07:10.610

  101. 01:18:54.521 : en:01:18:54.521

  102. 01:31:38.868 : en:01:31:38.868

  103. 01:52:39.544 : en:01:52:39.544


复制代码



文件下载


除非特别注明,本文『隐剑鬼爪[中英字幕].The.Hidden.Blade.2004.BluRay.1080p.x265.10bit-MiniHD 7.69GB』来源于互联网机器人自动抓取,非本站原创。 浮游电影网不对本文拥有版权,如有侵犯,请联系邮箱:fuyouu#yandex.com[#换成@]投诉。我们会在15个工作日内删除。 但烦请转载时请标明出处:“本文转载于『浮游电影网』,原文地址:https://www.fuyouu.com/22297.html

评论吧骚年!

发表你的见解   

昵称*

E-mail*(建议输入,以便收到博主回复的提示邮件)

验证码*

您可以使用eMule或eMule Mod(Windows)、aMule(Win、Linux、Mac)等软件下载eD2k链接。。
eMule收藏集(.emulecollection)文件是您选中的所有链接的列表文件。eMule可以直接下载它们。
按住SHIFT键选择可以选中多个选择框。
可用文件名和大小选择器来选择文件。
文件名选择器帮您根据文件名称或后缀来选择文件。不分大小写。
符号使用:
和:空格( )、+
不包含:-
或:|
转义:一对英文引号("");
匹配开头:^
匹配结尾:$
例如:
选中所有名称中包含有“eMule”或“0.49c”字眼,但不包含有“exe”字眼的:emule|0.49c -exe
选中所有名称的开头是“eMule”,结尾是“0.49c”的:^emule 0.49c$
选中所有名称中带有“eMule 0.49c”的(必须是“eMule 0.49c”,中间没有别的字符,不能是“eMule fake 0.49c”),需要转义:"emule 0.49c"
大小选择器帮您根据文件大小选择文件。