当前位置: 首页 >> 动画电影 >> 坏蛋联盟[简繁英字幕].The.Bad.Guys.2022.1080p.BluRay.DD5.1.x265-10bit-ENTHD 5.61GB >> 正文

坏蛋联盟[简繁英字幕].The.Bad.Guys.2022.1080p.BluRay.DD5.1.x265-10bit-ENTHD 5.61GB

2022年05月26日 21:22:56     电影发布:来源于网络     电影分类:动画电影     评论(0)    

◎译 名 坏蛋联盟 / 大坏蛋 / 坏家伙 / Bad Guys

◎片 名 The Bad Guys

◎年 代 2022

◎产 地 美国

◎类 别 喜剧 / 动画 / 冒险

◎语 言 英语

◎上映日期 2022-04-29(中国大陆) / 2022-03-17(阿根廷) / 2022-04-22(美国)

◎IMDb链接 https://www.imdb.com/title/tt8115900/

◎豆瓣评分 7.3/10 (51051人评价)

◎豆瓣链接 https://movie.douban.com/subject/30165311/

◎片 长 100分钟

◎导 演 彼埃尔·佩里菲尔 Pierre Perifel (id:1408784)

◎编 剧 艾伦·布拉培 Aaron Blabey (id:1278711)

伊坦·柯亨 Etan Cohen (id:1302166)

尤尼·布伦纳 Yoni Brenner (id:1361293)

希拉里·温斯顿 Hilary Winston (id:1321813)

◎演 员 山姆·洛克威尔 Sam Rockwell (id:1047972)

马克·马龙 Marc Maron (id:1116943)

奥卡菲娜 Awkwafina (id:1360857)

克雷格·罗宾森 Craig Robinson (id:1142826)

安东尼·拉莫斯 Anthony Ramos (id:1388489)

理查德·艾欧阿德 Richard Ayoade (id:1274320)

莎姬·贝兹 Zazie Beetz (id:1370059)

艾利克斯·布诺斯町 Alex Borstein (id:1007007)

莉莉·辛格 Lilly Singh (id:1393866)

芭芭拉·古德森 Barbara Goodson (id:1102389)

迪娜·莫罗 Dina Morrone (id:1470954)

迈克尔·高德尔 Michael Godere (id:1097245)

凯莉·库尼 Kelly Cooney (id:1383206)

沃尔特·道恩 Walt Dohrn (id:1371495)

戴维·P·史密斯 David P. Smith (id:1408787)

◎简 介

故事的主角是五个无恶不作的坏蛋——风度翩翩的扒手“大坏狼”、见多识广的保险箱窃贼“贪心蛇”、冷静沉稳的伪装大师“美肚鲨”、暴躁易怒的打手“食人鱼”、伶牙俐齿的黑客专家“骇客蛛”闪亮登场,他们是最臭名昭著的“坏蛋联盟”。他们平时威风八面,四处作案,令人闻风丧胆。直到某一天,他们突然想成为模范公民,然而转型路途甚是艰难,且意外层出不穷,令人啼笑皆非。

  1. ##### MediaInfo ######

  2. General

  3. Unique ID : 260830778329526096159542058422704507886 (0xC43A2E3E70C45F6D92A40A255DEB8BEE)

  4. Complete name : The.Bad.Guys.2022.1080p.BluRay.DD5.1.x265-10bit-ENTHD.mkv

  5. Format : Matroska

  6. Format version : Version 4

  7. File size : 5.61 GiB

  8. Duration : 1 h 40 min

  9. Overall bit rate : 8 026 kb/s

  10. Movie name : The Bad Guys 2022 1080p BluRay DD5.1 x265-10bit-HDS

  11. Encoded date : UTC 2022-05-24 06:49:45

  12. Writing application : mkvmerge v67.0.0 ('Under Stars') 64-bit

  13. Writing library : libebml v1.4.2 + libmatroska v1.6.4

  14. Video

  15. ID : 1

  16. Format : HEVC

  17. Format/Info : High Efficiency Video Coding

  18. Format profile : Main [email protected]@High

  19. Codec ID : V_MPEGH/ISO/HEVC

  20. Duration : 1 h 40 min

  21. Bit rate : 7 427 kb/s

  22. Width : 1 920 pixels

  23. Height : 804 pixels

  24. Display aspect ratio : 2.40:1

  25. Frame rate mode : Constant

  26. Frame rate : 23.976 (24000/1001/53354) FPS

  27. Color space : YUV

  28. Chroma subsampling : 4:2:0

  29. Bit depth : 10 bits

  30. Bits/(Pixel*Frame) : 0.201

  31. Stream size : 5.19 GiB (93%)

  32. Title : @HDSky

  33. Writing library : x265 - H.265/HEVC codec

  34. Default : Yes

  35. Forced : No

  36. Audio

  37. ID : 2

  38. Format : AC-3

  39. Format/Info : Audio Coding 3

  40. Commercial name : Dolby Digital

  41. Codec ID : A_AC3

  42. Duration : 1 h 40 min

  43. Bit rate mode : Constant

  44. Bit rate : 448 kb/s

  45. Channel(s) : 6 channels

  46. Channel layout : L R C LFE Ls Rs

  47. Sampling rate : 48.0 kHz

  48. Frame rate : 31.250 FPS (1536 SPF)

  49. Compression mode : Lossy

  50. Stream size : 321 MiB (6%)

  51. Title : English

  52. Language : English

  53. Service kind : Complete Main

  54. Default : Yes

  55. Forced : No

  56. Text #1

  57. ID : 3

  58. Format : PGS

  59. Muxing mode : zlib

  60. Codec ID : S_HDMV/PGS

  61. Codec ID/Info : Picture based subtitle format used on BDs/HD-DVDs

  62. Duration : 1 h 39 min

  63. Bit rate : 57.6 kb/s

  64. Count of elements : 3934

  65. Stream size : 40.9 MiB (1%)

  66. Title : ENG

  67. Language : English

  68. Default : Yes

  69. Forced : No

  70. Text #2

  71. ID : 4

  72. Format : PGS

  73. Muxing mode : zlib

  74. Codec ID : S_HDMV/PGS

  75. Codec ID/Info : Picture based subtitle format used on BDs/HD-DVDs

  76. Duration : 1 h 32 min

  77. Bit rate : 42.8 kb/s

  78. Count of elements : 3778

  79. Stream size : 28.4 MiB (0%)

  80. Title : CHS

  81. Language : Chinese

  82. Default : Yes

  83. Forced : No

  84. Text #3

  85. ID : 5

  86. Format : PGS

  87. Muxing mode : zlib

  88. Codec ID : S_HDMV/PGS

  89. Codec ID/Info : Picture based subtitle format used on BDs/HD-DVDs

  90. Duration : 1 h 32 min

  91. Bit rate : 44.7 kb/s

  92. Count of elements : 3778

  93. Stream size : 29.6 MiB (1%)

  94. Title : CHT

  95. Language : Chinese

  96. Default : Yes

  97. Forced : No

  98. Text #4

  99. ID : 6

  100. Format : PGS

  101. Muxing mode : zlib

  102. Codec ID : S_HDMV/PGS

  103. Codec ID/Info : Picture based subtitle format used on BDs/HD-DVDs

  104. Duration : 1 h 34 min

  105. Bit rate : 60.9 kb/s

  106. Count of elements : 3898

  107. Stream size : 41.3 MiB (1%)

  108. Title : CHS&ENG

  109. Language : Chinese

  110. Default : Yes

  111. Forced : No

  112. Text #5

  113. ID : 7

  114. Format : PGS

  115. Muxing mode : zlib

  116. Codec ID : S_HDMV/PGS

  117. Codec ID/Info : Picture based subtitle format used on BDs/HD-DVDs

  118. Duration : 1 h 34 min

  119. Bit rate : 62.5 kb/s

  120. Count of elements : 3898

  121. Stream size : 42.4 MiB (1%)

  122. Title : CHT&ENG

  123. Language : Chinese

  124. Default : Yes

  125. Forced : No

  126. Menu

  127. 00:00:00.000 : en:第 01 章

  128. 00:03:09.439 : en:第 02 章

  129. 00:09:08.965 : en:第 03 章

  130. 00:14:07.847 : en:第 04 章

  131. 00:20:35.484 : en:第 05 章

  132. 00:27:24.977 : en:第 06 章

  133. 00:32:08.927 : en:第 07 章

  134. 00:36:16.549 : en:第 08 章

  135. 00:41:26.776 : en:第 09 章

  136. 00:45:50.164 : en:第 10 章

  137. 00:49:08.821 : en:第 11 章

  138. 00:55:01.089 : en:第 12 章

  139. 00:58:38.890 : en:第 13 章

  140. 01:05:41.020 : en:第 14 章

  141. 01:10:36.232 : en:第 15 章

  142. 01:12:40.439 : en:第 16 章

  143. 01:15:45.166 : en:第 17 章

  144. 01:20:25.195 : en:第 18 章

  145. 01:25:28.832 : en:第 19 章

  146. 01:30:56.326 : en:第 20 章


复制代码



文件下载


除非特别注明,本文『坏蛋联盟[简繁英字幕].The.Bad.Guys.2022.1080p.BluRay.DD5.1.x265-10bit-ENTHD 5.61GB』来源于互联网机器人自动抓取,非本站原创。 浮游电影网不对本文拥有版权,如有侵犯,请联系邮箱:fuyouu#yandex.com[#换成@]投诉。我们会在15个工作日内删除。 但烦请转载时请标明出处:“本文转载于『浮游电影网』,原文地址:https://www.fuyouu.com/22296.html

评论吧骚年!

发表你的见解   

昵称*

E-mail*(建议输入,以便收到博主回复的提示邮件)

验证码*

您可以使用eMule或eMule Mod(Windows)、aMule(Win、Linux、Mac)等软件下载eD2k链接。。
eMule收藏集(.emulecollection)文件是您选中的所有链接的列表文件。eMule可以直接下载它们。
按住SHIFT键选择可以选中多个选择框。
可用文件名和大小选择器来选择文件。
文件名选择器帮您根据文件名称或后缀来选择文件。不分大小写。
符号使用:
和:空格( )、+
不包含:-
或:|
转义:一对英文引号("");
匹配开头:^
匹配结尾:$
例如:
选中所有名称中包含有“eMule”或“0.49c”字眼,但不包含有“exe”字眼的:emule|0.49c -exe
选中所有名称的开头是“eMule”,结尾是“0.49c”的:^emule 0.49c$
选中所有名称中带有“eMule 0.49c”的(必须是“eMule 0.49c”,中间没有别的字符,不能是“eMule fake 0.49c”),需要转义:"emule 0.49c"
大小选择器帮您根据文件大小选择文件。