当前位置: 首页 >> 港台电影 >> 王牌情敌[国粤多音轨/简繁英字幕].I.Love.Hong.Kong.2013.1080p.BluRay.DD5.1.2Audio.x264-ENTHD 8.49GB >> 正文

王牌情敌[国粤多音轨/简繁英字幕].I.Love.Hong.Kong.2013.1080p.BluRay.DD5.1.2Audio.x264-ENTHD 8.49GB

2022年05月25日 17:00:28     电影发布:来源于网络     电影分类:港台电影     评论(0)    

◎译 名 王牌情敌 / 我爱HK2013 / I Love Kong Kong 2013

◎片 名 2013我愛HK恭囍發財

◎年 代 2013

◎产 地 中国香港

◎类 别 喜剧 / 爱情

◎语 言 汉语普通话 / 粤语

◎上映日期 2013-06-04(中国大陆) / 2013-02-07(中国香港)

◎IMDb链接 https://www.imdb.com/title/tt2927086/

◎豆瓣评分 5.6/10 (6718人评价)

◎豆瓣链接 https://movie.douban.com/subject/21248460/

◎片 长 98分钟

◎导 演 钟澍佳 Chung Shu Kai (id:1313626)

◎编 剧 戚家基 Peter Tsi (id:1328458)

郭建乐 Kin-Lok Kwok (id:1328460)

甄栢荣 Yan Pak Wing (id:1320827)

赵善恒 Sin-Hang Chiu (id:1328459)

文佩卿 Peiqing Wen (id:1336831)

◎演 员 谭咏麟 Alan Tam (id:1050648)

陈百祥 Pak-cheung Chan (id:1070608)

叶玉卿 Veronica Yip (id:1023573)

曾志伟 Eric Tsang (id:1002862)

冯淬帆 Stanley Fung (id:1274503)

黄宗泽 Bosco Wong (id:1038569)

谢天华 Michael Tse (id:1010833)

徐子珊 Kate Tsui (id:1018555)

郑欣宜 Joyce Cheng (id:1007512)

阮兆祥 Louis Yuen (id:1274951)

卢大伟 David Lo (id:1325802)

夏尉喻 Barbie Liu (id:1348521)

路芙 Ruth Tsang (id:1429001)

王祖蓝 Cho-lam Wong (id:1274238)

文凯玲 Connie Man (id:1348030)

古明华 Ming-Wah Koo (id:1304613)

高海宁 Samantha Ko (id:1316094)

邵剑秋 Kim-Chau Shiu (id:1413263)

乐易玲 Virginia Lok (id:1403148)

◎简 介

二十世纪七十年代,各种冒险家混迹在自认为遍地黄金的香港。宋池雄(黄宗泽 饰)憨厚耿直,屡找工作碰壁。一日,他偶遇为人狡诈的夏石森(谢天华 饰),恰巧夏也在找活干,得利于夏石森的巧舌如簧,俩人一起来到茶楼打工。茶楼老板(冯淬帆 饰)原先也靠打工起家,深知生存的不易,他待手下伙计如同家人,加之街坊盏鬼整日里插科打诨,茶楼倒也每天妙趣横生生意红火。不料情祸迭出,宋池雄与夏石森同时爱上太子女美洋洋(徐子珊 饰),演出了一场追爱悲喜剧。时光荏冉,金触风暴席卷港岛,人到中年的宋池雄(谭永麟 饰)本分地捍卫着茶楼,当年的美洋洋(叶玉卿 饰)也早已成人妻人母,而当年的伙计夏石森(陈百祥 饰)已平步青云当了老板......

  1. ##### MediaInfo ######

  2. General

  3. Unique ID : 239749666680303988909568126171325956767 (0xB45E1B31577E10070E42C5F50410829F)

  4. Complete name : I.Love.Hong.Kong.2013.1080p.BluRay.DD5.1.2Audio.x264-ENTHD.mkv

  5. Format : Matroska

  6. Format version : Version 4

  7. File size : 8.49 GiB

  8. Duration : 1 h 38 min

  9. Overall bit rate : 12.4 Mb/s

  10. Movie name : I Love Hong Kong 2013 1080p BluRay DD5.1 2Audio x264-HDS

  11. Encoded date : UTC 2022-05-23 10:59:19

  12. Writing application : mkvmerge v67.0.0 ('Under Stars') 64-bit

  13. Writing library : libebml v1.4.2 + libmatroska v1.6.4

  14. Video

  15. ID : 1

  16. Format : AVC

  17. Format/Info : Advanced Video Codec

  18. Format profile : [email protected]

  19. Format settings : CABAC / 5 Ref Frames

  20. Format settings, CABAC : Yes

  21. Format settings, Reference frames : 5 frames

  22. Codec ID : V_MPEG4/ISO/AVC

  23. Duration : 1 h 38 min

  24. Bit rate : 11.2 Mb/s

  25. Width : 1 920 pixels

  26. Height : 816 pixels

  27. Display aspect ratio : 2.35:1

  28. Frame rate mode : Constant

  29. Frame rate : 24.000 FPS

  30. Color space : YUV

  31. Chroma subsampling : 4:2:0

  32. Bit depth : 8 bits

  33. Scan type : Progressive

  34. Bits/(Pixel*Frame) : 0.299

  35. Stream size : 7.69 GiB (91%)

  36. Title : [email protected]

  37. Default : Yes

  38. Forced : No

  39. Audio #1

  40. ID : 2

  41. Format : AC-3

  42. Format/Info : Audio Coding 3

  43. Commercial name : Dolby Digital

  44. Codec ID : A_AC3

  45. Duration : 1 h 38 min

  46. Bit rate mode : Constant

  47. Bit rate : 640 kb/s

  48. Channel(s) : 6 channels

  49. Channel layout : L R C LFE Ls Rs

  50. Sampling rate : 48.0 kHz

  51. Frame rate : 31.250 FPS (1536 SPF)

  52. Compression mode : Lossy

  53. Stream size : 449 MiB (5%)

  54. Title : Cantonese

  55. Language : Chinese

  56. Service kind : Complete Main

  57. Default : Yes

  58. Forced : No

  59. Audio #2

  60. ID : 3

  61. Format : AC-3

  62. Format/Info : Audio Coding 3

  63. Commercial name : Dolby Digital

  64. Codec ID : A_AC3

  65. Duration : 1 h 38 min

  66. Bit rate mode : Constant

  67. Bit rate : 448 kb/s

  68. Channel(s) : 6 channels

  69. Channel layout : L R C LFE Ls Rs

  70. Sampling rate : 48.0 kHz

  71. Frame rate : 31.250 FPS (1536 SPF)

  72. Compression mode : Lossy

  73. Stream size : 314 MiB (4%)

  74. Title : Mandarin

  75. Language : Chinese

  76. Service kind : Complete Main

  77. Default : Yes

  78. Forced : No

  79. Text #1

  80. ID : 4

  81. Format : PGS

  82. Muxing mode : zlib

  83. Codec ID : S_HDMV/PGS

  84. Codec ID/Info : Picture based subtitle format used on BDs/HD-DVDs

  85. Duration : 1 h 36 min

  86. Bit rate : 48.5 kb/s

  87. Count of elements : 4430

  88. Stream size : 33.4 MiB (0%)

  89. Title : CHS

  90. Language : Chinese

  91. Default : Yes

  92. Forced : No

  93. Text #2

  94. ID : 5

  95. Format : PGS

  96. Muxing mode : zlib

  97. Codec ID : S_HDMV/PGS

  98. Codec ID/Info : Picture based subtitle format used on BDs/HD-DVDs

  99. Duration : 1 h 36 min

  100. Bit rate : 52.4 kb/s

  101. Count of elements : 4430

  102. Stream size : 36.1 MiB (0%)

  103. Title : CHT

  104. Language : Chinese

  105. Default : Yes

  106. Forced : No

  107. Text #3

  108. ID : 6

  109. Format : PGS

  110. Muxing mode : zlib

  111. Codec ID : S_HDMV/PGS

  112. Codec ID/Info : Picture based subtitle format used on BDs/HD-DVDs

  113. Duration : 1 h 36 min

  114. Bit rate : 51.7 kb/s

  115. Count of elements : 4431

  116. Stream size : 35.6 MiB (0%)

  117. Title : ENG

  118. Language : English

  119. Default : Yes

  120. Forced : No

  121. Menu

  122. 00:00:00.000 : en:第 01 章

  123. 00:03:27.458 : en:第 02 章

  124. 00:07:34.083 : en:第 03 章

  125. 00:13:25.083 : en:第 04 章

  126. 00:18:18.333 : en:第 05 章

  127. 00:24:58.792 : en:第 06 章

  128. 00:28:38.083 : en:第 07 章

  129. 00:33:52.167 : en:第 08 章

  130. 00:42:42.167 : en:第 09 章

  131. 00:46:31.708 : en:第 10 章

  132. 00:50:26.042 : en:第 11 章

  133. 01:00:29.000 : en:第 12 章

  134. 01:04:36.167 : en:第 13 章

  135. 01:10:32.000 : en:第 14 章

  136. 01:17:40.083 : en:第 15 章

  137. 01:21:31.292 : en:第 16 章

  138. 01:26:21.083 : en:第 17 章

  139. 01:33:16.333 : en:第 18 章


复制代码



文件下载


除非特别注明,本文『王牌情敌[国粤多音轨/简繁英字幕].I.Love.Hong.Kong.2013.1080p.BluRay.DD5.1.2Audio.x264-ENTHD 8.49GB』来源于互联网机器人自动抓取,非本站原创。 浮游电影网不对本文拥有版权,如有侵犯,请联系邮箱:fuyouu#yandex.com[#换成@]投诉。我们会在15个工作日内删除。 但烦请转载时请标明出处:“本文转载于『浮游电影网』,原文地址:https://www.fuyouu.com/22289.html

评论吧骚年!

发表你的见解   

昵称*

E-mail*(建议输入,以便收到博主回复的提示邮件)

验证码*

您可以使用eMule或eMule Mod(Windows)、aMule(Win、Linux、Mac)等软件下载eD2k链接。。
eMule收藏集(.emulecollection)文件是您选中的所有链接的列表文件。eMule可以直接下载它们。
按住SHIFT键选择可以选中多个选择框。
可用文件名和大小选择器来选择文件。
文件名选择器帮您根据文件名称或后缀来选择文件。不分大小写。
符号使用:
和:空格( )、+
不包含:-
或:|
转义:一对英文引号("");
匹配开头:^
匹配结尾:$
例如:
选中所有名称中包含有“eMule”或“0.49c”字眼,但不包含有“exe”字眼的:emule|0.49c -exe
选中所有名称的开头是“eMule”,结尾是“0.49c”的:^emule 0.49c$
选中所有名称中带有“eMule 0.49c”的(必须是“eMule 0.49c”,中间没有别的字符,不能是“eMule fake 0.49c”),需要转义:"emule 0.49c"
大小选择器帮您根据文件大小选择文件。