当前位置: 首页 >> 海外电影 >> 甘古拜·卡蒂娅瓦迪[简繁英字幕].Gangubai.Kathiawadi.2022.1080p.Netflix.WEB-DL.H264.DDP5.1-HDBWEB 3.09GB >> 正文

甘古拜·卡蒂娅瓦迪[简繁英字幕].Gangubai.Kathiawadi.2022.1080p.Netflix.WEB-DL.H264.DDP5.1-HDBWEB 3.09GB

2022年05月25日 16:45:01     电影发布:来源于网络     电影分类:海外电影     评论(0)    

◎译 名 甘古拜·卡蒂娅瓦迪 / 甘古拜·卡蒂亚瓦迪

◎片 名 Gangubai Kathiawadi

◎年 代 2022

◎产 地 印度

◎类 别 剧情 / 传记

◎语 言 印地语 / 泰卢固语

◎上映日期 2022-02-16(柏林电影节) / 2022-02-25(印度)

◎IMDb链接 https://www.imdb.com/title/tt10083340/

◎豆瓣评分 7.7/10 (2252人评价)

◎豆瓣链接 https://movie.douban.com/subject/34966922/

◎片 长 152分钟

◎导 演 桑杰·里拉·彭萨里 Sanjay Leela Bhansali (id:1032491)

◎编 剧 桑杰·里拉·彭萨里 Sanjay Leela Bhansali (id:1032491)

普拉卡什·卡帕迪亚 Prakash Kapadia (id:1304177)

乌特卡希尼·瓦西斯塔 Utkarshini Vashishtha (id:1360725)

◎演 员 阿莉雅·布哈特 Alia Bhatt (id:1324899)

山塔努·马赫什瓦里 Shantanu Maheshwari (id:1468887)

维贾伊·拉齐 Vijay Raaz (id:1295088)

英迪拉·蒂瓦里 Indira Tiwari (id:1468888)

西玛·帕瓦 Seema Bhargava (id:1455857)

阿贾耶·德乌干 Ajay Devgan (id:1085455)

瓦伦·卡浦尔 Varun Kapoor (id:1468890)

阿卡什·潘迪 Aakash Pandey (id:1468889)

查亚·卡达姆 Chhaya Kadam (id:1407577)

拉萨·默拉德 Raza Murad (id:1346003)

胡玛·库雷希 Huma Qureshi (id:1327126)

M·K·拉伊纳 M.K. Raina (id:1374344)

吉姆·萨伯 Jim Sarbh (id:1387788)

阿赫梅德·坎 Ahmed Khan (id:1403298)

楚姆·达朗 Chum Darang (id:1470615)

◎简 介

甘加·哈吉万达斯(阿莉雅·布哈特 饰)出生于Kathiawar的一个富裕家庭,她的梦想是成为一名宝莱坞女演员。在16岁时,她爱上了拉姆尼克·拉尔(瓦伦·卡普尔 饰)。拉姆尼克答表示甘加可以在他的姨妈希拉的指导下进入电影行业,因此他们私奔到孟买。但是,她的生活从此发生了翻天覆地的变化。因为他以1000卢比将她卖给了卡马提普拉的一家妓院,她不得不开始卖淫。后来,她成了有势力的妓院老板娘甘古拜·卡蒂亚瓦迪,并赢得了她居住地区(卡马提普拉)的选举。唐·拉希姆·拉拉打了一个强奸她的同伙后,成为她的结拜兄弟。甘谷后来爱上了一个年轻的裁缝阿夫萨恩。她曾经倡导妇女权利和性工作者的平等权利。

  1. ##### MediaInfo ######

  2. General

  3. Unique ID : 114921231975864398673533067479754464951 (0x567506315E981AAF428E62684EB7DEB7)

  4. Complete name : 甘古拜·卡蒂娅瓦迪.Gangubai.Kathiawadi.2022.1080p.Netflix.WEB-DL.H264.DDP5.1-HDBWEB.mkv

  5. Format : Matroska

  6. Format version : Version 4

  7. File size : 3.09 GiB

  8. Duration : 2 h 33 min

  9. Overall bit rate mode : Variable

  10. Overall bit rate : 2 887 kb/s

  11. Movie name : 孟買女帝

  12. Description : 一名受騙的年輕女子被賣到妓院。她不僅勇敢奪回自己的權力,哌\用黑社會人脈,從身不由己的棋子搖身變為呼風喚雨的人物。

  13. Writing application : Lavf58.76.100

  14. Writing library : Lavf58.76.100

  15. ErrorDetectionType : Per level 1

  16. DATE : 2022

  17. Video

  18. ID : 1

  19. Format : AVC

  20. Format/Info : Advanced Video Codec

  21. Format profile : [email protected]

  22. Format settings : CABAC / 4 Ref Frames

  23. Format settings, CABAC : Yes

  24. Format settings, Reference frames : 4 frames

  25. Codec ID : V_MPEG4/ISO/AVC

  26. Duration : 2 h 33 min

  27. Bit rate mode : Variable

  28. Bit rate : 2 061 kb/s

  29. Maximum bit rate : 20.0 Mb/s

  30. Width : 1 920 pixels

  31. Height : 1 080 pixels

  32. Display aspect ratio : 16:9

  33. Frame rate mode : Constant

  34. Frame rate : 24.000 FPS

  35. Color space : YUV

  36. Chroma subsampling : 4:2:0

  37. Bit depth : 8 bits

  38. Scan type : Progressive

  39. Bits/(Pixel*Frame) : 0.041

  40. Stream size : 2.20 GiB (71%)

  41. Title : 264:fmt=264:moovts=-1:fps=24:deps:[email protected]

  42. Writing library : x264 core 148 r2727 7d026e8

  43. Encoding settings : cabac=1 / ref=4 / deblock=1:0:0 / analyse=0x3:0x111 / me=umh / subme=10 / psy=1 / psy_rd=1.00:0.00 / mixed_ref=1 / me_range=120 / chroma_me=1 / trellis=2 / 8x8dct=1 / cqm=0 / deadzone=21,11 / fast_pskip=1 / chroma_qp_offset=-2 / threads=8 / lookahead_threads=2 / sliced_threads=0 / nr=0 / decimate=1 / interlaced=0 / NTMzNTQ= / bluray_compat=0 / stitchable=1 / constrained_intra=0 / bframes=16 / b_pyramid=2 / b_adapt=2 / b_bias=0 / direct=3 / weightb=1 / open_gop=0 / weightp=2 / keyint=240 / keyint_min=121 / scenecut=0 / intra_refresh=0 / rc_lookahead=240 / rc=crf / mbtree=1 / crf=21.0 / qcomp=0.50 / qpmin=6 / qpmax=51 / qpstep=4 / vbv_maxrate=20000 / vbv_bufsize=25000 / crf_max=0.0 / nal_hrd=vbr / filler=0 / NTMzNTQ=LmsMAP37EqsCpk / ip_ratio=1.40 / aq=1:0.80

  44. Default : Yes

  45. Forced : No

  46. VENDOR_ID : [0][0][0][0]

  47. Audio #1

  48. ID : 2

  49. Format : E-AC-3

  50. Format/Info : Enhanced AC-3

  51. Commercial name : Dolby Digital Plus

  52. Codec ID : A_EAC3

  53. Duration : 2 h 33 min

  54. Bit rate mode : Constant

  55. Bit rate : 640 kb/s

  56. Channel(s) : 6 channels

  57. Channel layout : L R C LFE Ls Rs

  58. Sampling rate : 48.0 kHz

  59. Frame rate : 31.250 FPS (1536 SPF)

  60. Bit depth : 32 bits

  61. Compression mode : Lossy

  62. Stream size : 700 MiB (22%)

  63. Title : 印地文 [原始]

  64. Language : Hindi

  65. Service kind : Complete Main

  66. Default : Yes

  67. Forced : No

  68. VENDOR_ID : [0][0][0][0]

  69. Audio #2

  70. ID : 3

  71. Format : E-AC-3

  72. Format/Info : Enhanced AC-3

  73. Commercial name : Dolby Digital Plus

  74. Codec ID : A_EAC3

  75. Duration : 2 h 33 min

  76. Bit rate mode : Constant

  77. Bit rate : 128 kb/s

  78. Channel(s) : 2 channels

  79. Channel layout : L R

  80. Sampling rate : 48.0 kHz

  81. Frame rate : 31.250 FPS (1536 SPF)

  82. Bit depth : 32 bits

  83. Compression mode : Lossy

  84. Stream size : 140 MiB (4%)

  85. Title : 印地文 [原始]

  86. Language : Hindi

  87. Service kind : Complete Main

  88. Default : No

  89. Forced : No

  90. VENDOR_ID : [0][0][0][0]

  91. Text #1

  92. ID : 4

  93. Format : UTF-8

  94. Codec ID : S_TEXT/UTF8

  95. Codec ID/Info : UTF-8 Plain Text

  96. Duration : 2 h 32 min

  97. Title : 英文

  98. Writing library : Lavc58.134.100 srt

  99. Language : English

  100. Default : Yes

  101. Forced : No

  102. Text #2

  103. ID : 5

  104. Format : UTF-8

  105. Codec ID : S_TEXT/UTF8

  106. Codec ID/Info : UTF-8 Plain Text

  107. Duration : 2 h 33 min

  108. Title : 印地文 [CC]

  109. Writing library : Lavc58.134.100 srt

  110. Language : Hindi

  111. Default : No

  112. Forced : No

  113. Text #3

  114. ID : 6

  115. Format : UTF-8

  116. Codec ID : S_TEXT/UTF8

  117. Codec ID/Info : UTF-8 Plain Text

  118. Duration : 2 h 33 min

  119. Title : 簡體中文

  120. Writing library : Lavc58.134.100 srt

  121. Language : Chinese

  122. Default : No

  123. Forced : No

  124. Text #4

  125. ID : 7

  126. Format : UTF-8

  127. Codec ID : S_TEXT/UTF8

  128. Codec ID/Info : UTF-8 Plain Text

  129. Duration : 2 h 33 min

  130. Title : 繁體中文

  131. Writing library : Lavc58.134.100 srt

  132. Language : Chinese

  133. Default : No

  134. Forced : No


复制代码



文件下载


除非特别注明,本文『甘古拜·卡蒂娅瓦迪[简繁英字幕].Gangubai.Kathiawadi.2022.1080p.Netflix.WEB-DL.H264.DDP5.1-HDBWEB 3.09GB』来源于互联网机器人自动抓取,非本站原创。 浮游电影网不对本文拥有版权,如有侵犯,请联系邮箱:fuyouu#yandex.com[#换成@]投诉。我们会在15个工作日内删除。 但烦请转载时请标明出处:“本文转载于『浮游电影网』,原文地址:https://www.fuyouu.com/22285.html

评论吧骚年!

发表你的见解   

昵称*

E-mail*(建议输入,以便收到博主回复的提示邮件)

验证码*

您可以使用eMule或eMule Mod(Windows)、aMule(Win、Linux、Mac)等软件下载eD2k链接。。
eMule收藏集(.emulecollection)文件是您选中的所有链接的列表文件。eMule可以直接下载它们。
按住SHIFT键选择可以选中多个选择框。
可用文件名和大小选择器来选择文件。
文件名选择器帮您根据文件名称或后缀来选择文件。不分大小写。
符号使用:
和:空格( )、+
不包含:-
或:|
转义:一对英文引号("");
匹配开头:^
匹配结尾:$
例如:
选中所有名称中包含有“eMule”或“0.49c”字眼,但不包含有“exe”字眼的:emule|0.49c -exe
选中所有名称的开头是“eMule”,结尾是“0.49c”的:^emule 0.49c$
选中所有名称中带有“eMule 0.49c”的(必须是“eMule 0.49c”,中间没有别的字符,不能是“eMule fake 0.49c”),需要转义:"emule 0.49c"
大小选择器帮您根据文件大小选择文件。