当前位置: 首页 >> 欧美电影 >> 完美星球[共5部合集][国英多音轨/简繁英字幕].A.Perfect.Planet.2021.2160p.HDR.UHD.BluRay.TrueHD.7.1.Atmos.2Audio.x265-10b >> 正文

完美星球[共5部合集][国英多音轨/简繁英字幕].A.Perfect.Planet.2021.2160p.HDR.UHD.BluRay.TrueHD.7.1.Atmos.2Audio.x265-10b

2022年05月25日 12:56:05     电影发布:来源于网络     电影分类:欧美电影     评论(0)    

◎译 名 完美星球

◎片 名 A Perfect Planet

◎年 代 2021

◎产 地 英国

◎类 别 纪录片

◎语 言 英语

◎上映日期 2021-01-04(中国大陆) / 2021-01-03(英国)

◎IMDb链接 https://www.imdb.com/title/tt10219322/

◎豆瓣评分 9.6/10 (14550人评价)

◎豆瓣链接 https://movie.douban.com/subject/33387354/

◎集 数 5

◎片 长 60分钟

◎演 员 大卫·爱登堡 David Attenborough (id:1045102)

◎简 介

《完美星球》是一部与地球科学巧妙结合的蓝筹自然历史纪录片,它揭示了我们所生存的这颗星球的运转规则。 这部纪录片共分为五集,展示了自然力量如何推动、塑造和维持地球生物的多样性,前四集分别探索了火山、 阳光、天气和海洋的力量,最后一集则着眼于新兴的自然力量:人类,揭示了人类对地球造成的巨大影响以及如何恢复地球完美的生态平衡。

从印度雨季潮湿的土地到夏威夷火山炽热的山坡;从巴哈马的潮汐岛屿到冰天雪地的埃尔斯米尔岛;从冬夜郊外嚎叫的北极狼群到春季结冰的身体慢慢融化的木蛙;从加拉帕戈斯群岛以吸食海鸟鲜血解渴的吸血地雀,到每年成群结队聚集在火山湖中繁殖的非洲小红鹳,《完美星球》将带领我们踏上一场无与伦比的视觉之旅。

这部纪录片将改变我们看待自然家园的方式。我们将一次又一次地见证地球所具有的强大自然力量是如何孕育生命的。

  1. 合集文件列表:

  2. 1.A.Perfect.Planet.EP01.2021.2160p.HDR.UHD.BluRay.TrueHD.7.1.Atmos.2Audio.x265-10bit-ENTHD.mkv 8.45GB

  3. 2.A.Perfect.Planet.EP02.2021.2160p.HDR.UHD.BluRay.TrueHD.7.1.Atmos.2Audio.x265-10bit-ENTHD.mkv 9.02GB

  4. 3.A.Perfect.Planet.EP03.2021.2160p.HDR.UHD.BluRay.TrueHD.7.1.Atmos.2Audio.x265-10bit-ENTHD.mkv 8.23GB

  5. 4.A.Perfect.Planet.EP04.2021.2160p.HDR.UHD.BluRay.TrueHD.7.1.Atmos.2Audio.x265-10bit-ENTHD.mkv 10.20GB

  6. 5.A.Perfect.Planet.EP05.2021.2160p.HDR.UHD.BluRay.TrueHD.7.1.Atmos.2Audio.x265-10bit-ENTHD.mkv 10.64GB


复制代码

  1. ##### MediaInfo ######

  2. General

  3. Unique ID : 107097342328104342355663084498761118529 (0x509232A6A6C2A61FC47BA14D56257341)

  4. Complete name : A.Perfect.Planet.EP01.2021.2160p.HDR.UHD.BluRay.TrueHD.7.1.Atmos.2Audio.x265-10bit-ENTHD.mkv

  5. Format : Matroska

  6. Format version : Version 4

  7. File size : 8.45 GiB

  8. Duration : 53 min 39 s

  9. Overall bit rate mode : Variable

  10. Overall bit rate : 22.5 Mb/s

  11. Movie name : A Perfect Planet 2021 2160p HDR UHD BluRay TrueHD 7.1 Atmos 2Audio x265-10bit-HDS

  12. Encoded date : UTC 2022-05-21 10:42:54

  13. Writing application : mkvmerge v64.0.0 ('Willows') 64-bit

  14. Writing library : libebml v1.4.2 + libmatroska v1.6.4

  15. Video

  16. ID : 1

  17. Format : HEVC

  18. Format/Info : High Efficiency Video Coding

  19. Format profile : Main [email protected]@High

  20. HDR format : SMPTE ST 2086, HDR10 compatible

  21. Codec ID : V_MPEGH/ISO/HEVC

  22. Duration : 53 min 39 s

  23. Bit rate : 16.6 Mb/s

  24. Width : 3 840 pixels

  25. Height : 2 160 pixels

  26. Display aspect ratio : 16:9

  27. Frame rate mode : Constant

  28. Frame rate : 23.976 (24000/1001/53354) FPS

  29. Color space : YUV

  30. Chroma subsampling : 4:2:0

  31. Bit depth : 10 bits

  32. Bits/(Pixel*Frame) : 0.084

  33. Stream size : 6.24 GiB (74%)

  34. Title : [email protected]

  35. Writing library : x265 - H.265/HEVC codec

  36. Default : Yes

  37. Forced : No

  38. Color range : Limited

  39. Color primaries : BT.2020

  40. Transfer characteristics : PQ

  41. Matrix coefficients : BT.2020 non-constant

  42. Mastering display color primaries : Display P3

  43. Mastering display luminance : min: 0.0050 cd/m2, max: 1000 cd/m2

  44. Maximum Content Light Level : 1001 cd/m2

  45. Maximum Frame-Average Light Level : 356 cd/m2

  46. Audio #1

  47. ID : 2

  48. Format : MLP FBA 16-ch

  49. Format/Info : Meridian Lossless Packing FBA with 16-channel presentation

  50. Commercial name : Dolby TrueHD with Dolby Atmos

  51. Codec ID : A_TRUEHD

  52. Duration : 53 min 39 s

  53. Bit rate mode : Variable

  54. Bit rate : 4 451 kb/s

  55. Maximum bit rate : 6 852 kb/s

  56. Channel(s) : 8 channels

  57. Channel layout : L R C LFE Ls Rs Lb Rb

  58. Sampling rate : 48.0 kHz

  59. Frame rate : 1 200.000 FPS (40 SPF)

  60. Compression mode : Lossless

  61. Stream size : 1.67 GiB (20%)

  62. Title : English

  63. Language : English

  64. Default : Yes

  65. Forced : No

  66. Number of dynamic objects : 11

  67. Bed channel count : 1 channel

  68. Bed channel configuration : LFE

  69. Audio #2

  70. ID : 3

  71. Format : AC-3

  72. Format/Info : Audio Coding 3

  73. Commercial name : Dolby Digital

  74. Codec ID : A_AC3

  75. Duration : 53 min 39 s

  76. Bit rate mode : Constant

  77. Bit rate : 640 kb/s

  78. Channel(s) : 6 channels

  79. Channel layout : L R C LFE Ls Rs

  80. Sampling rate : 48.0 kHz

  81. Frame rate : 31.250 FPS (1536 SPF)

  82. Compression mode : Lossy

  83. Stream size : 246 MiB (3%)

  84. Service kind : Complete Main

  85. Default : Yes

  86. Forced : No

  87. Audio #3

  88. ID : 4

  89. Format : AC-3

  90. Format/Info : Audio Coding 3

  91. Commercial name : Dolby Digital

  92. Codec ID : A_AC3

  93. Duration : 53 min 39 s

  94. Bit rate mode : Constant

  95. Bit rate : 640 kb/s

  96. Channel(s) : 6 channels

  97. Channel layout : L R C LFE Ls Rs

  98. Sampling rate : 48.0 kHz

  99. Frame rate : 31.250 FPS (1536 SPF)

  100. Compression mode : Lossy

  101. Stream size : 246 MiB (3%)

  102. Title : Mandarin

  103. Language : Chinese

  104. Service kind : Complete Main

  105. Default : Yes

  106. Forced : No

  107. Text #1

  108. ID : 5

  109. Format : PGS

  110. Muxing mode : zlib

  111. Codec ID : S_HDMV/PGS

  112. Codec ID/Info : Picture based subtitle format used on BDs/HD-DVDs

  113. Duration : 52 min 26 s

  114. Bit rate : 32.5 kb/s

  115. Count of elements : 904

  116. Stream size : 12.2 MiB (0%)

  117. Title : ENG

  118. Language : English

  119. Default : Yes

  120. Forced : No

  121. Text #2

  122. ID : 6

  123. Format : PGS

  124. Muxing mode : zlib

  125. Codec ID : S_HDMV/PGS

  126. Codec ID/Info : Picture based subtitle format used on BDs/HD-DVDs

  127. Duration : 52 min 31 s

  128. Bit rate : 33.0 kb/s

  129. Count of elements : 807

  130. Stream size : 12.4 MiB (0%)

  131. Title : CHS

  132. Language : Chinese

  133. Default : Yes

  134. Forced : No

  135. Text #3

  136. ID : 7

  137. Format : PGS

  138. Muxing mode : zlib

  139. Codec ID : S_HDMV/PGS

  140. Codec ID/Info : Picture based subtitle format used on BDs/HD-DVDs

  141. Duration : 52 min 31 s

  142. Bit rate : 34.1 kb/s

  143. Count of elements : 807

  144. Stream size : 12.8 MiB (0%)

  145. Title : CHT

  146. Language : Chinese

  147. Default : Yes

  148. Forced : No

  149. Text #4

  150. ID : 8

  151. Format : PGS

  152. Muxing mode : zlib

  153. Codec ID : S_HDMV/PGS

  154. Codec ID/Info : Picture based subtitle format used on BDs/HD-DVDs

  155. Duration : 52 min 30 s

  156. Bit rate : 43.2 kb/s

  157. Count of elements : 824

  158. Stream size : 16.2 MiB (0%)

  159. Title : CHS&ENG

  160. Language : Chinese

  161. Default : Yes

  162. Forced : No

  163. Text #5

  164. ID : 9

  165. Format : PGS

  166. Muxing mode : zlib

  167. Codec ID : S_HDMV/PGS

  168. Codec ID/Info : Picture based subtitle format used on BDs/HD-DVDs

  169. Duration : 52 min 30 s

  170. Bit rate : 43.6 kb/s

  171. Count of elements : 824

  172. Stream size : 16.4 MiB (0%)

  173. Title : CHT&ENG

  174. Language : Chinese

  175. Default : Yes

  176. Forced : No

  177. Menu

  178. 00:00:00.000 : en:第 01 章

  179. 00:15:17.542 : en:第 02 章

  180. 00:23:16.937 : en:第 03 章

  181. 00:32:23.275 : en:第 04 章

  182. 00:45:35.858 : en:第 05 章


复制代码



文件下载


除非特别注明,本文『完美星球[共5部合集][国英多音轨/简繁英字幕].A.Perfect.Planet.2021.2160p.HDR.UHD.BluRay.TrueHD.7.1.Atmos.2Audio.x265-10b』来源于互联网机器人自动抓取,非本站原创。 浮游电影网不对本文拥有版权,如有侵犯,请联系邮箱:fuyouu#yandex.com[#换成@]投诉。我们会在15个工作日内删除。 但烦请转载时请标明出处:“本文转载于『浮游电影网』,原文地址:https://www.fuyouu.com/22282.html

评论吧骚年!

发表你的见解   

昵称*

E-mail*(建议输入,以便收到博主回复的提示邮件)

验证码*

您可以使用eMule或eMule Mod(Windows)、aMule(Win、Linux、Mac)等软件下载eD2k链接。。
eMule收藏集(.emulecollection)文件是您选中的所有链接的列表文件。eMule可以直接下载它们。
按住SHIFT键选择可以选中多个选择框。
可用文件名和大小选择器来选择文件。
文件名选择器帮您根据文件名称或后缀来选择文件。不分大小写。
符号使用:
和:空格( )、+
不包含:-
或:|
转义:一对英文引号("");
匹配开头:^
匹配结尾:$
例如:
选中所有名称中包含有“eMule”或“0.49c”字眼,但不包含有“exe”字眼的:emule|0.49c -exe
选中所有名称的开头是“eMule”,结尾是“0.49c”的:^emule 0.49c$
选中所有名称中带有“eMule 0.49c”的(必须是“eMule 0.49c”,中间没有别的字符,不能是“eMule fake 0.49c”),需要转义:"emule 0.49c"
大小选择器帮您根据文件大小选择文件。