当前位置: 首页 >> 欧美电影 >> 小妇人[中文字幕].Little.Women.1994.2160p.WEB-DL.DD5.1.DV.MP4.x265-DVSUX 20.91GB >> 正文

小妇人[中文字幕].Little.Women.1994.2160p.WEB-DL.DD5.1.DV.MP4.x265-DVSUX 20.91GB

2022年05月25日 12:51:05     电影发布:来源于网络     电影分类:欧美电影     评论(0)    

小妇人[中文字幕].Little.Women.1994.2160p.WEB DL.DD5.1.DV.MP4.x265 DVSUX 20.91GB  欧美电影  第1张

◎标 题 小妇人

◎译 名 新小妇人

◎片 名 Little Women

◎年 代 1994

◎产 地 美国 / 加拿大

◎类 别 剧情 / 爱情 / 家庭

◎语 言 英语 / 德语 / 法语

◎上映日期 1994-12-21(加拿大) / 1994-12-25(美国)

◎IMDb评分 7.3/10 (55598人评价)

◎IMDb链接 https://www.imdb.com/title/tt0110367/

◎豆瓣链接 https://movie.douban.com/subject/1298522/

◎片 长 115 分钟

◎标 签 名著改编 / 女性 / 经典 / 亲情 / 小妇人 / 爱情 / 美国 / 美国电影

◎简 介

南北战争时期,马萨诸塞州的康科德城。

马其家是镇上一个普通家庭,父亲在外打仗,留下坚强的妻子和四个女儿。Meg十六岁,俨然一个窈窕淑女。Jo(薇瑞娜•赖德)十五岁,喜爱写作,发表的文章为家里付清了各种费用。Beth温柔乖巧,羞怯地爱好着钢琴。Amy最小也最漂亮,也有点 爱出风头。马其太太的坚强给了四个女儿力量,她们时常接济贫穷的居民,圣诞节也不例外。当她们的邻居劳伦斯先生听说此事后便准备了丰富的晚餐给这群可爱的小妇人们。

而劳伦斯的孙子劳里也跟Jo成为了好朋友,成为了马其家的一员。他的家庭教师约翰爱上了Meg,Beth在照顾生病的邻居孩子时感染上了猩红热,在最危险的时候,去华盛顿照顾受伤父亲的妈妈回来了,把父亲也带回来,他们一家团聚。

四年后,Meg和约翰终于喜结连理,大学毕业的劳里也向Jo求婚,却惨遭拒绝,打击太大的他愤而离家,辗转欧洲,偶遇在欧洲旅游的Amy,此时的Amy早已改掉了虚荣的毛病,她对劳里的关切打动了劳里的心,他们决定结婚。然而此时却传来了Beth病危的消息,还没赶到家Beth已经离开了大家。

心灰意冷的Jo去了纽约,认识了她生命中的真命天子。

  1. Video

  2. ID : 1

  3. Format : HEVC

  4. Format/Info : High Efficiency Video Coding

  5. Format profile : Main [email protected]@High

  6. HDR format : Dolby Vision, Version 1.0, dvhe.05.06, BL+RPU

  7. Codec ID : dvhe

  8. Codec ID/Info : High Efficiency Video Coding with Dolby Vision

  9. Duration : 1 h 58 min

  10. Bit rate : 24.9 Mb/s

  11. Width : 3 840 pixels

  12. Height : 2 072 pixels

  13. Display aspect ratio : 1.85:1

  14. Frame rate mode : Constant

  15. Frame rate : 23.976 (24000/1001/53354) FPS

  16. Color space : YUV

  17. Chroma subsampling : 4:2:0

  18. Bit depth : 10 bits

  19. Bits/(Pixel*Frame) : 0.130

  20. Stream size : 20.6 GiB (98%)

  21. Default : Yes

  22. Alternate group : 1

  23. Encoded date : UTC 2022-05-23 09:58:49

  24. Tagged date : UTC 2022-05-23 10:04:09

  25. Codec configuration box : hvcC+dvcC


  26. Audio

  27. ID : 2

  28. Format : AC-3

  29. Format/Info : Audio Coding 3

  30. Commercial name : Dolby Digital

  31. Codec ID : ac-3

  32. Duration : 1 h 58 min

  33. Bit rate mode : Constant

  34. Bit rate : 384 kb/s

  35. Maximum bit rate : 406 kb/s

  36. Channel(s) : 6 channels

  37. Channel layout : L R C LFE Ls Rs

  38. Sampling rate : 48.0 kHz

  39. Frame rate : 31.250 FPS (1536 SPF)

  40. Compression mode : Lossy

  41. Stream size : 325 MiB (2%)

  42. Title : English

  43. Language : English

  44. Service kind : Complete Main

  45. Default : Yes

  46. Alternate group : 1

  47. Tagged date : UTC 2022-05-23 10:04:09


  48. Text #1

  49. ID : 3

  50. Format : Timed Text

  51. Codec ID : tx3g

  52. Duration : 1 h 54 min

  53. Bit rate mode : Variable

  54. Bit rate : 72 b/s

  55. Stream size : 60.6 KiB (0%)

  56. Title : English

  57. Language : English

  58. Forced : No

  59. Encoded date : UTC 2022-05-23 10:04:07

  60. Tagged date : UTC 2022-05-23 10:04:09


  61. Text #2

  62. ID : 4

  63. Format : Timed Text

  64. Codec ID : tx3g

  65. Duration : 1 h 58 min

  66. Bit rate mode : Variable

  67. Bit rate : 64 b/s

  68. Stream size : 55.7 KiB (0%)

  69. Title : Arabic

  70. Language : Arabic

  71. Forced : No

  72. Encoded date : UTC 2022-05-23 10:04:07

  73. Tagged date : UTC 2022-05-23 10:04:09


  74. Text #3

  75. ID : 5

  76. Format : Timed Text

  77. Codec ID : tx3g

  78. Duration : 1 h 54 min

  79. Bit rate mode : Variable

  80. Bit rate : 51 b/s

  81. Stream size : 43.0 KiB (0%)

  82. Title : Chinese-Traditional

  83. Language : Chinese

  84. Forced : No

  85. Encoded date : UTC 2022-05-23 10:04:07

  86. Tagged date : UTC 2022-05-23 10:04:09


  87. Text #4

  88. ID : 6

  89. Format : Timed Text

  90. Codec ID : tx3g

  91. Duration : 1 h 58 min

  92. Bit rate mode : Variable

  93. Bit rate : 47 b/s

  94. Stream size : 41.1 KiB (0%)

  95. Title : Czech

  96. Language : Czech

  97. Forced : No

  98. Encoded date : UTC 2022-05-23 10:04:07

  99. Tagged date : UTC 2022-05-23 10:04:09


  100. Text #5

  101. ID : 7

  102. Format : Timed Text

  103. Codec ID : tx3g

  104. Duration : 1 h 54 min

  105. Bit rate mode : Variable

  106. Bit rate : 49 b/s

  107. Stream size : 41.2 KiB (0%)

  108. Title : Danish

  109. Language : Danish

  110. Forced : No

  111. Encoded date : UTC 2022-05-23 10:04:07

  112. Tagged date : UTC 2022-05-23 10:04:09


  113. Text #6

  114. ID : 8

  115. Format : Timed Text

  116. Codec ID : tx3g

  117. Duration : 1 h 58 min

  118. Bit rate mode : Variable

  119. Bit rate : 48 b/s

  120. Stream size : 42.0 KiB (0%)

  121. Title : Dutch

  122. Language : Dutch

  123. Forced : No

  124. Encoded date : UTC 2022-05-23 10:04:07

  125. Tagged date : UTC 2022-05-23 10:04:09


  126. Text #7

  127. ID : 9

  128. Format : Timed Text

  129. Codec ID : tx3g

  130. Duration : 1 h 54 min

  131. Bit rate mode : Variable

  132. Bit rate : 49 b/s

  133. Stream size : 40.8 KiB (0%)

  134. Title : Finnish

  135. Language : Finnish

  136. Forced : No

  137. Encoded date : UTC 2022-05-23 10:04:07

  138. Tagged date : UTC 2022-05-23 10:04:09


  139. Text #8

  140. ID : 10

  141. Format : Timed Text

  142. Codec ID : tx3g

  143. Duration : 1 h 58 min

  144. Bit rate mode : Variable

  145. Bit rate : 47 b/s

  146. Stream size : 40.9 KiB (0%)

  147. Title : French

  148. Language : French

  149. Forced : No

  150. Encoded date : UTC 2022-05-23 10:04:08

  151. Tagged date : UTC 2022-05-23 10:04:09


  152. Text #9

  153. ID : 11

  154. Format : Timed Text

  155. Codec ID : tx3g

  156. Duration : 1 h 58 min

  157. Bit rate mode : Variable

  158. Bit rate : 51 b/s

  159. Stream size : 44.7 KiB (0%)

  160. Title : German

  161. Language : German

  162. Forced : No

  163. Encoded date : UTC 2022-05-23 10:04:08

  164. Tagged date : UTC 2022-05-23 10:04:09


  165. Text #10

  166. ID : 12

  167. Format : Timed Text

  168. Codec ID : tx3g

  169. Duration : 1 h 58 min

  170. Bit rate mode : Variable

  171. Bit rate : 80 b/s

  172. Stream size : 69.7 KiB (0%)

  173. Title : Greek

  174. Language : Greek

  175. Forced : No

  176. Encoded date : UTC 2022-05-23 10:04:08

  177. Tagged date : UTC 2022-05-23 10:04:09


  178. Text #11

  179. ID : 13

  180. Format : Timed Text

  181. Codec ID : tx3g

  182. Duration : 1 h 58 min

  183. Bit rate mode : Variable

  184. Bit rate : 60 b/s

  185. Stream size : 51.8 KiB (0%)

  186. Title : Hebrew

  187. Language : Hebrew

  188. Forced : No

  189. Encoded date : UTC 2022-05-23 10:04:08

  190. Tagged date : UTC 2022-05-23 10:04:09


  191. Text #12

  192. ID : 14

  193. Format : Timed Text

  194. Codec ID : tx3g

  195. Duration : 1 h 58 min

  196. Bit rate mode : Variable

  197. Bit rate : 124 b/s

  198. Stream size : 108 KiB (0%)

  199. Title : Hindi

  200. Language : Hindi

  201. Forced : No

  202. Encoded date : UTC 2022-05-23 10:04:08

  203. Tagged date : UTC 2022-05-23 10:04:09


  204. Text #13

  205. ID : 15

  206. Format : Timed Text

  207. Codec ID : tx3g

  208. Duration : 1 h 58 min

  209. Bit rate mode : Variable

  210. Bit rate : 49 b/s

  211. Stream size : 42.2 KiB (0%)

  212. Title : Hungarian

  213. Language : Hungarian

  214. Forced : No

  215. Encoded date : UTC 2022-05-23 10:04:08

  216. Tagged date : UTC 2022-05-23 10:04:09


  217. Text #14

  218. ID : 16

  219. Format : Timed Text

  220. Codec ID : tx3g

  221. Duration : 1 h 58 min

  222. Bit rate mode : Variable

  223. Bit rate : 48 b/s

  224. Stream size : 41.7 KiB (0%)

  225. Title : Italian

  226. Language : Italian

  227. Forced : No

  228. Encoded date : UTC 2022-05-23 10:04:08

  229. Tagged date : UTC 2022-05-23 10:04:09


  230. Text #15

  231. ID : 17

  232. Format : Timed Text

  233. Codec ID : tx3g

  234. Duration : 1 h 54 min

  235. Bit rate mode : Variable

  236. Bit rate : 52 b/s

  237. Stream size : 43.3 KiB (0%)

  238. Title : Japanese

  239. Language : Japanese

  240. Forced : No

  241. Encoded date : UTC 2022-05-23 10:04:08

  242. Tagged date : UTC 2022-05-23 10:04:09


  243. Text #16

  244. ID : 18

  245. Format : Timed Text

  246. Codec ID : tx3g

  247. Duration : 1 h 54 min

  248. Bit rate mode : Variable

  249. Bit rate : 49 b/s

  250. Stream size : 40.7 KiB (0%)

  251. Title : Korean

  252. Language : Korean

  253. Forced : No

  254. Encoded date : UTC 2022-05-23 10:04:08

  255. Tagged date : UTC 2022-05-23 10:04:09


  256. Text #17

  257. ID : 19

  258. Format : Timed Text

  259. Codec ID : tx3g

  260. Duration : 1 h 54 min

  261. Bit rate mode : Variable

  262. Bit rate : 48 b/s

  263. Stream size : 40.6 KiB (0%)

  264. Title : Norwegian

  265. Language : Norwegian

  266. Forced : No

  267. Encoded date : UTC 2022-05-23 10:04:08

  268. Tagged date : UTC 2022-05-23 10:04:09


  269. Text #18

  270. ID : 20

  271. Format : Timed Text

  272. Codec ID : tx3g

  273. Duration : 1 h 58 min

  274. Bit rate mode : Variable

  275. Bit rate : 47 b/s

  276. Stream size : 40.6 KiB (0%)

  277. Title : Portuguese

  278. Language : Portuguese

  279. Forced : No

  280. Encoded date : UTC 2022-05-23 10:04:08

  281. Tagged date : UTC 2022-05-23 10:04:09


  282. Text #19

  283. ID : 21

  284. Format : Timed Text

  285. Codec ID : tx3g

  286. Duration : 1 h 58 min

  287. Bit rate mode : Variable

  288. Bit rate : 75 b/s

  289. Stream size : 64.8 KiB (0%)

  290. Title : Russian

  291. Language : Russian

  292. Forced : No

  293. Encoded date : UTC 2022-05-23 10:04:08

  294. Tagged date : UTC 2022-05-23 10:04:09


  295. Text #20

  296. ID : 22

  297. Format : Timed Text

  298. Codec ID : tx3g

  299. Duration : 1 h 58 min

  300. Bit rate mode : Variable

  301. Bit rate : 46 b/s

  302. Stream size : 39.7 KiB (0%)

  303. Title : Spanish-EU

  304. Language : Spanish

  305. Forced : No

  306. Encoded date : UTC 2022-05-23 10:04:08

  307. Tagged date : UTC 2022-05-23 10:04:09


  308. Text #21

  309. ID : 23

  310. Format : Timed Text

  311. Codec ID : tx3g

  312. Duration : 1 h 54 min

  313. Bit rate mode : Variable

  314. Bit rate : 48 b/s

  315. Stream size : 40.1 KiB (0%)

  316. Title : Swedish

  317. Language : Swedish

  318. Forced : No

  319. Encoded date : UTC 2022-05-23 10:04:09

  320. Tagged date : UTC 2022-05-23 10:04:09


  321. Text #22

  322. ID : 24

  323. Format : Timed Text

  324. Codec ID : tx3g

  325. Duration : 1 h 54 min

  326. Bit rate mode : Variable

  327. Bit rate : 131 b/s

  328. Stream size : 110 KiB (0%)

  329. Title : Thai

  330. Language : Thai

  331. Forced : No

  332. Encoded date : UTC 2022-05-23 10:04:09

  333. Tagged date : UTC 2022-05-23 10:04:09


  334. Text #23

  335. ID : 25

  336. Format : Timed Text

  337. Codec ID : tx3g

  338. Duration : 1 h 58 min

  339. Bit rate mode : Variable

  340. Bit rate : 45 b/s

  341. Stream size : 38.7 KiB (0%)

  342. Title : Turkish

  343. Language : Turkish

  344. Forced : No

  345. Encoded date : UTC 2022-05-23 10:04:09

  346. Tagged date : UTC 2022-05-23 10:04:09

复制代码

小妇人[中文字幕].Little.Women.1994.2160p.WEB DL.DD5.1.DV.MP4.x265 DVSUX 20.91GB  欧美电影  第2张 小妇人[中文字幕].Little.Women.1994.2160p.WEB DL.DD5.1.DV.MP4.x265 DVSUX 20.91GB  欧美电影  第3张 小妇人[中文字幕].Little.Women.1994.2160p.WEB DL.DD5.1.DV.MP4.x265 DVSUX 20.91GB  欧美电影  第4张



文件下载


除非特别注明,本文『小妇人[中文字幕].Little.Women.1994.2160p.WEB-DL.DD5.1.DV.MP4.x265-DVSUX 20.91GB』来源于互联网机器人自动抓取,非本站原创。 浮游电影网不对本文拥有版权,如有侵犯,请联系邮箱:fuyouu#yandex.com[#换成@]投诉。我们会在15个工作日内删除。 但烦请转载时请标明出处:“本文转载于『浮游电影网』,原文地址:https://www.fuyouu.com/22281.html

评论吧骚年!

发表你的见解   

昵称*

E-mail*(建议输入,以便收到博主回复的提示邮件)

验证码*

您可以使用eMule或eMule Mod(Windows)、aMule(Win、Linux、Mac)等软件下载eD2k链接。。
eMule收藏集(.emulecollection)文件是您选中的所有链接的列表文件。eMule可以直接下载它们。
按住SHIFT键选择可以选中多个选择框。
可用文件名和大小选择器来选择文件。
文件名选择器帮您根据文件名称或后缀来选择文件。不分大小写。
符号使用:
和:空格( )、+
不包含:-
或:|
转义:一对英文引号("");
匹配开头:^
匹配结尾:$
例如:
选中所有名称中包含有“eMule”或“0.49c”字眼,但不包含有“exe”字眼的:emule|0.49c -exe
选中所有名称的开头是“eMule”,结尾是“0.49c”的:^emule 0.49c$
选中所有名称中带有“eMule 0.49c”的(必须是“eMule 0.49c”,中间没有别的字符,不能是“eMule fake 0.49c”),需要转义:"emule 0.49c"
大小选择器帮您根据文件大小选择文件。