当前位置: 首页 >> 欧美电影 >> 铁面人[国英多音轨/中英字幕].The.Man.in.the.Iron.Mask.1977.BluRay.1080p.x265.10bit.2Audio-MiniHD 7.48GB >> 正文

铁面人[国英多音轨/中英字幕].The.Man.in.the.Iron.Mask.1977.BluRay.1080p.x265.10bit.2Audio-MiniHD 7.48GB

2022年05月25日 12:49:10     电影发布:来源于网络     电影分类:欧美电影     评论(0)    

◎译 名 铁面人 / 铁面王子 / 鬼哭神嚎

◎片 名 The Man in the Iron Mask

◎年 代 1977

◎产 地 英国 / 美国

◎类 别 剧情 / 历史

◎语 言 英语

◎上映日期 1977-01-17

◎IMDb链接 https://www.imdb.com/title/tt0074853/

◎豆瓣评分 7.8/10 (1126人评价)

◎豆瓣链接 https://movie.douban.com/subject/1844594/

◎片 长 105分钟

◎导 演 迈克·内威尔 Mike Newell (id:1002709)

◎编 剧 William Bast William Bast (id:1000724)

亚历山大·仲马 Alexandre Dumas père (id:1025388)

◎演 员 理查德·查伯兰 Richard Chamberlain (id:1000159)

帕特里克·麦高汉 Patrick McGoohan (id:1031990)

路易斯·乔丹 Louis Jourdan (id:1019129)

珍妮·艾加特 Jenny Agutter (id:1036466)

伊安·霍姆 Ian Holm (id:1049594)

拉尔夫·理查德森 Ralph Richardson (id:1036710)

维维恩·莫坚特 Vivien Merchant (id:1121075)

布伦达·布鲁斯 Brenda Bruce (id:1069498)

埃斯蒙德·奈特 Esmond Knight (id:1110591)

戈弗雷·奎格利 Godfrey Quigley (id:1142272)

Emrys James Emrys James (id:1111271)

丹尼斯·劳森 Denis Lawson (id:1106877)

休·弗拉瑟 Hugh Fraser (id:1080762)

Max Amyl Max Amyl (id:1060048)

Fran?ois Guillaume Fran?ois Guillaume (id:1097252)

童自荣 Zirong Tong (id:1318216)

Norman Rosemont Norman Rosemont (id:1296047)

罗伊史蒂文 Roy Stevens (id:1298414)

Allyn Ferguson Allyn Ferguson (id:1276592)

弗雷迪·扬 Freddie Young (id:1028482)

比尔·布伦登 Bill Blunden (id:1278855)

玛丽·塞尔维 Mary Selway (id:1036236)

约翰·斯托尔 John Stoll (id:1038741)

Olga Lehmann Olga Lehmann (id:1006538)

Robin Grantham Robin Grantham (id:1285311)

Betty Glasow Betty Glasow (id:1284950)

瓦利·施内德曼 Wally Schneiderman (id:1296928)

David Tringham David Tringham (id:1155709)

◎简 介

故事发生在1660年的法国,国王路易(理查德·查伯兰 Richard Chamberlain 饰)整日沉湎于酒色之中,无心朝政,使臣民们生活在水深火热之中。路易有一个孪生弟弟名为菲利普(理查德·查伯兰 Richard Chamberlain 饰),史书中记载的菲利普刚刚出生便已夭折,可实际上,他被偷偷送往阿尔卑斯山的一个庄园中,隐姓埋名,生长在此。

国王的昏庸让内务大臣科贝尔(拉尔夫·理查德森 Ralph Richardson 饰)和火枪手队长达达尼昂(路易斯·乔丹 Louis Jourdan 饰)感到大为不满,他们决定找到菲利普,扶持他推翻哥哥的统治,登上王位。贪婪的财政大臣富凯(帕特里克·麦高汉 Patrick McGoohan 饰)早先一步找到了菲利普,他和国王一起设计,给菲利普带上铁面,投入了深牢之中。

  1. ##### MediaInfo ######

  2. General

  3. Unique ID : 247881253529322040792547995499718886661 (0xBA7C3160BE4CF57C8739E8D4BBA1C505)

  4. Complete name : The.Man.in.the.Iron.Mask.1977.BluRay.1080p.x265.10bit.2Audio-MiniHD.mkv

  5. Format : Matroska

  6. Format version : Version 4

  7. File size : 7.48 GiB

  8. Duration : 1 h 45 min

  9. Overall bit rate : 10.1 Mb/s

  10. Encoded date : UTC 2016-11-25 19:00:03

  11. Writing application : mkvmerge v9.2.0 ('Photograph') 32bit

  12. Writing library : libebml v1.3.3 + libmatroska v1.4.4

  13. Video

  14. ID : 1

  15. Format : HEVC

  16. Format/Info : High Efficiency Video Coding

  17. Format profile : Main [email protected]@Main

  18. Codec ID : V_MPEGH/ISO/HEVC

  19. Duration : 1 h 45 min

  20. Bit rate : 9 434 kb/s

  21. Width : 1 920 pixels

  22. Height : 1 080 pixels

  23. Display aspect ratio : 16:9

  24. Frame rate mode : Constant

  25. Frame rate : 23.976 (24000/1001/53354) FPS

  26. Color space : YUV

  27. Chroma subsampling : 4:2:0

  28. Bit depth : 10 bits

  29. Bits/(Pixel*Frame) : 0.190

  30. Stream size : 6.95 GiB (93%)

  31. Writing library : x265 2.1+36-d216cb9b3b47:[Windows][GCC 6.2.0][64 bit] 10bit

  32. Encoding settings : wpp / ctu=32 / min-cu-size=8 / max-tu-size=16 / tu-intra-depth=2 / tu-inter-depth=2 / me=3 / subme=5 / merange=25 / rect / no-amp / max-merge=3 / temporal-mvp / no-early-skip / rskip / rdpenalty=1 / no-tskip / no-tskip-fast / no-strong-intra-smoothing / no-lossless / no-cu-lossless / no-constrained-intra / no-fast-intra / no-open-gop / no-temporal-layers / interlace=0 / keyint=360 / min-keyint=1 / NTMzNTQ=uuDQuD2mJt9fsCf / scenecut=40 / bias-for-scenecut=0.05 / rc-lookahead=60 / lookahead-slices=4 / bframes=8 / bframe-bias=0 / b-adapt=2 / ref=5 / limit-refs=3 / limit-modes / weightp / weightb / aq-mode=3 / qg-size=16 / aq-strength=0.90 / cbqpoffs=-2 / crqpoffs=-2 / rd=4 / psy-rd=1.00 / rdoq-level=2 / psy-rdoq=5.00 / log2-max-poc-lsb=8 / limit-tu=0 / no-rd-refine / signhide / deblock=-1:-1 / no-sao / no-sao-non-deblock / b-pyramid / cutree / no-intra-refresh / rc=crf / crf=22.0 / qcomp=0.65 / qpmin=0 / qpmax=69 / qpstep=4 / ipratio=1.40 / pbratio=1.30

  33. Default : Yes

  34. Forced : No

  35. Color range : Limited

  36. Color primaries : BT.709

  37. Audio #1

  38. ID : 2

  39. Format : AC-3

  40. Format/Info : Audio Coding 3

  41. Commercial name : Dolby Digital

  42. Codec ID : A_AC3

  43. Duration : 1 h 45 min

  44. Bit rate mode : Constant

  45. Bit rate : 320 kb/s

  46. Channel(s) : 2 channels

  47. Channel layout : L R

  48. Sampling rate : 48.0 kHz

  49. Frame rate : 31.250 FPS (1536 SPF)

  50. Compression mode : Lossy

  51. Stream size : 242 MiB (3%)

  52. Language : English

  53. Service kind : Complete Main

  54. Default : Yes

  55. Forced : No

  56. Audio #2

  57. ID : 3

  58. Format : AC-3

  59. Format/Info : Audio Coding 3

  60. Commercial name : Dolby Digital

  61. Codec ID : A_AC3

  62. Duration : 1 h 45 min

  63. Bit rate mode : Constant

  64. Bit rate : 192 kb/s

  65. Channel(s) : 2 channels

  66. Channel layout : L R

  67. Sampling rate : 48.0 kHz

  68. Frame rate : 31.250 FPS (1536 SPF)

  69. Compression mode : Lossy

  70. Stream size : 145 MiB (2%)

  71. Language : Chinese

  72. Service kind : Complete Main

  73. Default : No

  74. Forced : No

  75. Text #1

  76. ID : 4

  77. Format : PGS

  78. Muxing mode : zlib

  79. Codec ID : S_HDMV/PGS

  80. Codec ID/Info : Picture based subtitle format used on BDs/HD-DVDs

  81. Language : English

  82. Default : Yes

  83. Forced : No

  84. Text #2

  85. ID : 5

  86. Format : PGS

  87. Muxing mode : zlib

  88. Codec ID : S_HDMV/PGS

  89. Codec ID/Info : Picture based subtitle format used on BDs/HD-DVDs

  90. Language : Chinese

  91. Default : No

  92. Forced : No

  93. Text #3

  94. ID : 6

  95. Format : PGS

  96. Muxing mode : zlib

  97. Codec ID : S_HDMV/PGS

  98. Codec ID/Info : Picture based subtitle format used on BDs/HD-DVDs

  99. Language : Chinese

  100. Default : No

  101. Forced : No

  102. Menu

  103. 00:00:00.000 : en:Chapter 01

  104. 00:05:00.000 : en:Chapter 02

  105. 00:10:00.000 : en:Chapter 03

  106. 00:15:00.000 : en:Chapter 04

  107. 00:20:00.000 : en:Chapter 05

  108. 00:25:00.000 : en:Chapter 06

  109. 00:30:00.000 : en:Chapter 07

  110. 00:35:00.000 : en:Chapter 08

  111. 00:40:00.000 : en:Chapter 09

  112. 00:45:00.000 : en:Chapter 10

  113. 00:50:00.000 : en:Chapter 11

  114. 00:55:00.000 : en:Chapter 12

  115. 01:00:00.000 : en:Chapter 13

  116. 01:05:00.000 : en:Chapter 14

  117. 01:10:00.000 : en:Chapter 15

  118. 01:15:00.000 : en:Chapter 16

  119. 01:20:00.000 : en:Chapter 17

  120. 01:25:00.000 : en:Chapter 18

  121. 01:30:00.000 : en:Chapter 19

  122. 01:35:00.000 : en:Chapter 20

  123. 01:40:00.000 : en:Chapter 21

  124. 01:45:00.000 : en:Chapter 22


复制代码



文件下载


除非特别注明,本文『铁面人[国英多音轨/中英字幕].The.Man.in.the.Iron.Mask.1977.BluRay.1080p.x265.10bit.2Audio-MiniHD 7.48GB』来源于互联网机器人自动抓取,非本站原创。 浮游电影网不对本文拥有版权,如有侵犯,请联系邮箱:fuyouu#yandex.com[#换成@]投诉。我们会在15个工作日内删除。 但烦请转载时请标明出处:“本文转载于『浮游电影网』,原文地址:https://www.fuyouu.com/22279.html

评论吧骚年!

发表你的见解   

昵称*

E-mail*(建议输入,以便收到博主回复的提示邮件)

验证码*

您可以使用eMule或eMule Mod(Windows)、aMule(Win、Linux、Mac)等软件下载eD2k链接。。
eMule收藏集(.emulecollection)文件是您选中的所有链接的列表文件。eMule可以直接下载它们。
按住SHIFT键选择可以选中多个选择框。
可用文件名和大小选择器来选择文件。
文件名选择器帮您根据文件名称或后缀来选择文件。不分大小写。
符号使用:
和:空格( )、+
不包含:-
或:|
转义:一对英文引号("");
匹配开头:^
匹配结尾:$
例如:
选中所有名称中包含有“eMule”或“0.49c”字眼,但不包含有“exe”字眼的:emule|0.49c -exe
选中所有名称的开头是“eMule”,结尾是“0.49c”的:^emule 0.49c$
选中所有名称中带有“eMule 0.49c”的(必须是“eMule 0.49c”,中间没有别的字符,不能是“eMule fake 0.49c”),需要转义:"emule 0.49c"
大小选择器帮您根据文件大小选择文件。