当前位置: 首页 >> 海外电影 >> 超体[国英多音轨/中英字幕].Lucy.2014.BluRay.1080p.x265.2Audio-MiniHD 3.05GB >> 正文

超体[国英多音轨/中英字幕].Lucy.2014.BluRay.1080p.x265.2Audio-MiniHD 3.05GB

2022年05月25日 12:42:29     电影发布:来源于网络     电影分类:海外电影     评论(0)    

◎译 名 超体 / LUCY:绝路煞姬(港) / 露西(台) / 超能毒贩

◎片 名 Lucy

◎年 代 2014

◎产 地 法国 / 德国 / 中国台湾 / 加拿大 / 美国 / 英国

◎类 别 动作 / 科幻

◎语 言 英语 / 汉语普通话 / 法语 / 意大利语 / 德语 / 西班牙语 / 韩语

◎上映日期 2014-10-24(中国大陆) / 2014-07-25(美国) / 2014-08-06(法国)

◎IMDb链接 https://www.imdb.com/title/tt2872732/

◎豆瓣评分 7.4/10 (521147人评价)

◎豆瓣链接 https://movie.douban.com/subject/24404677/

◎片 长 89分钟

◎导 演 吕克·贝松 Luc Besson (id:1031876)

◎编 剧 吕克·贝松 Luc Besson (id:1031876)

◎演 员 斯嘉丽·约翰逊 Scarlett Johansson (id:1054453)

摩根·弗里曼 Morgan Freeman (id:1054534)

崔岷植 Min-sik Choi (id:1045142)

阿马尔·维克德 Amr Waked (id:1300271)

朱利安·林希德-图特 Julian Rhind-Tutt (id:1147816)

皮鲁·埃斯贝克 Pilou Asb?k (id:1032805)

安娜丽·提普顿 Analeigh Tipton (id:1268721)

詹·奥利弗·施罗德 Jan Oliver Schroeder (id:1339838)

弗雷德里克·周 Frédéric Chau (id:1339837)

克莱尔·陈 Claire Tran (id:1339836)

塞德里克·舍瓦姆 Cédric Chevalme (id:1339840)

沃尔夫冈·皮索尔斯 Wolfgang Pissors (id:1352202)

邵斯凡 Sifan Shao (id:1317143)

保罗·陈 Paul Chan (id:1339839)

林暐恒 Ken Lin (id:1326912)

邢峰 Feng Hsing (id:1359741)

徐灏翔 Hao-Hsiang Hsu (id:1363607)

塞缪尔·丘林 Samuel Churin (id:1385677)

李淳 Mason Lee (id:1316450)

吕克·贝松 Luc Besson (id:1031876)

高靖榕 Sharon Kao (id:1334550)

克里斯多夫·泰克 Christophe Tek (id:1339842)

林辰唏 Zaizai Lin (id:1275283)

伊冯娜·格雷迪莱 Yvonne Gradelet (id:1327962)

Michèle Raingeval Michèle Raingeval (id:1339841)

艾瑞克·塞拉 Eric Serra (id:1050343)

蒂埃里·阿博加斯特 Thierry Arbogast (id:1276547)

奥利维耶·贝里奥 Olivier Bériot (id:1279801)

高靖榕 Sharon Kao (id:1334550)

◎简 介

被恶德男友强迫帮人送货的年轻女子露西(斯嘉丽·约翰逊 Scarlett Johansson 饰),遭遇了穷凶恶极的黑帮头目张先生(崔岷植 饰)一伙。她连同三个男人被张先生在腹部缝入了代号为CPH4的神秘药品,以此将药品偷偷带入不同国家。在台北盘桓期间,露西遭到恶男暴打,以致药品破裂进入血液之中。谁知令人难以置信的事情就此发生,药品激发了露西大脑的潜力,令人脑中约90%的神经元相继苏醒。伴随着身体的飞快进化,露西掌握了越来越多人们所谓的超能力。她清楚地了解到CPH4所拥有的强大威力,于是想方设法要阻止其他三袋药品落入张先生一伙手中。

期间她试图与大脑研究方面的资深教授塞缪尔·诺曼(摩根·弗里曼 Morgan Freeman 饰)取得联系,在后者的见证下,露西将迎来大脑100%苏醒的历史性时刻……

◎获奖情况 (共1项)

第1届豆瓣电影年度榜单 (2014)

11月最受关注电影(提名)

  1. ##### MediaInfo ######

  2. General

  3. Unique ID : 227241624974143245079727702335597037714 (0xAAF5251FB229337D875A0C478577C892)

  4. Complete name : Lucy.2014.BluRay.1080p.x265.2Audio-MiniHD.mkv

  5. Format : Matroska

  6. Format version : Version 4

  7. File size : 3.04 GiB

  8. Duration : 1 h 29 min

  9. Overall bit rate : 4 879 kb/s

  10. Encoded date : UTC 2014-12-08 06:56:32

  11. Writing application : mkvmerge v7.2.0 ('On Every Street') 32bit built on Sep 13 2014 15:42:11

  12. Writing library : libebml v1.3.0 + libmatroska v1.4.1

  13. Video

  14. ID : 1

  15. Format : HEVC

  16. Format/Info : High Efficiency Video Coding

  17. Codec ID : V_MPEGH/ISO/HEVC

  18. Duration : 1 h 29 min

  19. Bit rate : 4 023 kb/s

  20. Width : 1 920 pixels

  21. Height : 808 pixels

  22. Display aspect ratio : 2.40:1

  23. Frame rate mode : Constant

  24. Frame rate : 23.976 (24000/1001/53354) FPS

  25. Bits/(Pixel*Frame) : 0.108

  26. Stream size : 2.51 GiB (82%)

  27. Default : Yes

  28. Forced : No

  29. Audio #1

  30. ID : 2

  31. Format : AAC LC

  32. Format/Info : Advanced Audio Codec Low Complexity

  33. Codec ID : A_AAC-2

  34. Duration : 1 h 29 min

  35. Bit rate : 406 kb/s

  36. Channel(s) : 6 channels

  37. Channel layout : C L R Ls Rs LFE

  38. Sampling rate : 48.0 kHz

  39. Frame rate : 46.875 FPS (1024 SPF)

  40. Compression mode : Lossy

  41. Delay relative to video : 20 ms

  42. Stream size : 259 MiB (8%)

  43. Language : English

  44. Default : Yes

  45. Forced : No

  46. Audio #2

  47. ID : 3

  48. Format : AAC LC

  49. Format/Info : Advanced Audio Codec Low Complexity

  50. Codec ID : A_AAC-2

  51. Duration : 1 h 29 min

  52. Bit rate : 408 kb/s

  53. Channel(s) : 6 channels

  54. Channel layout : C L R Ls Rs LFE

  55. Sampling rate : 48.0 kHz

  56. Frame rate : 46.875 FPS (1024 SPF)

  57. Compression mode : Lossy

  58. Delay relative to video : 20 ms

  59. Stream size : 261 MiB (8%)

  60. Language : Chinese

  61. Default : No

  62. Forced : No

  63. Text #1

  64. ID : 4

  65. Format : PGS

  66. Muxing mode : zlib

  67. Codec ID : S_HDMV/PGS

  68. Codec ID/Info : Picture based subtitle format used on BDs/HD-DVDs

  69. Duration : 1 h 20 min

  70. Bit rate : 10.3 kb/s

  71. Count of elements : 2027

  72. Stream size : 5.96 MiB (0%)

  73. Language : English

  74. Default : Yes

  75. Forced : No

  76. Text #2

  77. ID : 5

  78. Format : PGS

  79. Muxing mode : zlib

  80. Codec ID : S_HDMV/PGS

  81. Codec ID/Info : Picture based subtitle format used on BDs/HD-DVDs

  82. Duration : 1 h 24 min

  83. Bit rate : 22.2 kb/s

  84. Count of elements : 2591

  85. Stream size : 13.4 MiB (0%)

  86. Language : Chinese

  87. Default : No

  88. Forced : No

  89. Text #3

  90. ID : 6

  91. Format : PGS

  92. Muxing mode : zlib

  93. Codec ID : S_HDMV/PGS

  94. Codec ID/Info : Picture based subtitle format used on BDs/HD-DVDs

  95. Duration : 1 h 27 min

  96. Bit rate : 8 769 b/s

  97. Count of elements : 1618

  98. Stream size : 5.49 MiB (0%)

  99. Language : Chinese

  100. Default : No

  101. Forced : No

  102. Menu

  103. 00:00:00.000 : :Chapter 01

  104. 00:05:26.367 : :Chapter 02

  105. 00:08:38.267 : :Chapter 03

  106. 00:15:45.903 : :Chapter 04

  107. 00:21:36.295 : :Chapter 05

  108. 00:26:05.397 : :Chapter 06

  109. 00:30:27.534 : :Chapter 07

  110. 00:37:36.254 : :Chapter 08

  111. 00:41:43.459 : :Chapter 09

  112. 00:47:32.558 : :Chapter 10

  113. 00:50:10.716 : :Chapter 11

  114. 00:55:32.495 : :Chapter 12

  115. 00:59:36.072 : :Chapter 13

  116. 01:02:08.099 : :Chapter 14

  117. 01:04:51.345 : :Chapter 15

  118. 01:07:14.030 : :Chapter 16

  119. 01:09:55.816 : :Chapter 17

  120. 01:12:26.133 : :Chapter 18

  121. 01:18:50.600 : :Chapter 19

  122. 01:22:31.571 : :Chapter 20


复制代码



文件下载


除非特别注明,本文『超体[国英多音轨/中英字幕].Lucy.2014.BluRay.1080p.x265.2Audio-MiniHD 3.05GB』来源于互联网机器人自动抓取,非本站原创。 浮游电影网不对本文拥有版权,如有侵犯,请联系邮箱:fuyouu#yandex.com[#换成@]投诉。我们会在15个工作日内删除。 但烦请转载时请标明出处:“本文转载于『浮游电影网』,原文地址:https://www.fuyouu.com/22272.html

评论吧骚年!

发表你的见解   

昵称*

E-mail*(建议输入,以便收到博主回复的提示邮件)

验证码*

您可以使用eMule或eMule Mod(Windows)、aMule(Win、Linux、Mac)等软件下载eD2k链接。。
eMule收藏集(.emulecollection)文件是您选中的所有链接的列表文件。eMule可以直接下载它们。
按住SHIFT键选择可以选中多个选择框。
可用文件名和大小选择器来选择文件。
文件名选择器帮您根据文件名称或后缀来选择文件。不分大小写。
符号使用:
和:空格( )、+
不包含:-
或:|
转义:一对英文引号("");
匹配开头:^
匹配结尾:$
例如:
选中所有名称中包含有“eMule”或“0.49c”字眼,但不包含有“exe”字眼的:emule|0.49c -exe
选中所有名称的开头是“eMule”,结尾是“0.49c”的:^emule 0.49c$
选中所有名称中带有“eMule 0.49c”的(必须是“eMule 0.49c”,中间没有别的字符,不能是“eMule fake 0.49c”),需要转义:"emule 0.49c"
大小选择器帮您根据文件大小选择文件。