当前位置: 首页 >> 港台电影 >> 色戒[国语音轨/中英字幕].Lust.Caution.2007.BluRay.1080p.x265.10bit-MiniHD 4.95GB >> 正文

色戒[国语音轨/中英字幕].Lust.Caution.2007.BluRay.1080p.x265.10bit-MiniHD 4.95GB

2022年05月23日 12:27:54     电影发布:来源于网络     电影分类:港台电影     评论(0)    

◎译 名 色,戒 / 色|戒 / 色·戒 / 色戒 / Lust, Caution

◎年 代 2007

◎产 地 中国台湾 / 中国大陆 / 美国 / 中国香港

◎类 别 剧情 / 爱情 / 情色

◎语 言 汉语普通话 / 上海话 / 英语 / 粤语 / 日语 / 印地语

◎上映日期 2007-11-01(中国大陆) / 2007-09-24(中国台湾) / 2007-09-26(中国香港) / 2007-08-30(威尼斯电影节) / 2007-10-26(美国)

◎IMDb链接 https://www.imdb.com/title/tt0808357/

◎豆瓣评分 8.6/10 (675579人评价)

◎豆瓣链接 https://movie.douban.com/subject/1828115/

◎片 长 158分钟

◎导 演 李安 Ang Lee (id:1054421)

◎编 剧 王蕙玲 Hui-Ling Wang (id:1300390)

詹姆斯·夏慕斯 James Schamus (id:1050276)

张爱玲 Eileen Chang (id:1076575)

◎演 员 梁朝伟 Tony Leung Chiu Wai (id:1115918)

汤唯 Wei Tang (id:1025141)

陈冲 Joan Chen (id:1044964)

王力宏 Lee-Hom Wang (id:1045243)

庹宗华 Chung-Hua Tou (id:1029349)

朱芷莹 Chih-ying Chu (id:1322666)

高英轩 Ven Kao (id:1317617)

柯宇纶 Lawrence Ko (id:1275416)

阮德锵 Johnson Yuen (id:1317685)

钱嘉乐 Kar Lok Chin (id:1025476)

苏岩 Yan Su (id:1309922)

何赛飞 Saifei He (id:1001393)

宋茹惠 Ruhui Song (id:1331832)

樊光耀 Kuang-Yao Fan (id:1275301)

卢燕 Lisa Lu (id:1014332)

刘洁 Jie Liu (id:1320879)

余娅 Ya Yu (id:1275474)

王琳 Lin Wang (id:1274775)

王侃 Kan Wang (id:1360590)

竹下明子 Akiko Takeshita (id:1018812)

阿努潘·凯尔 Anupam Kher (id:1054303)

唐亚俊 Yajun Tang (id:1467588)

韦奕波 Yibo Wei (id:1422829)

任仲伦 Zhonglun Ren (id:1333045)

宋岱 Dai Song (id:1395689)

王蕙玲 Hui-Ling Wang (id:1300390)

李安 Ang Lee (id:1054421)

林炳坤 Bingkun Lin (id:1350348)

谢家慧 Doris Tse (id:1388882)

詹姆斯·夏慕斯 James Schamus (id:1050276)

刘二东 Er-Dong Liu (id:1450423)

江志强 William Kong (id:1288870)

亚历山大·德斯普拉 Alexandre Desplat (id:1049972)

蔡崇晖 Johnny Choi (id:1318724)

罗德里戈·普列托 Rodrigo Prieto (id:1276623)

蒂姆·斯奎尔斯 Tim Squyres (id:1298208)

李岗 Khan Lee (id:1274686)

朴若木 Lai Pan (id:1293875)

Synderella Peng Synderella Peng (id:1294238)

李健威 Kin-wai Lee (id:1326655)

雷楚雄 Bill Lui (id:1290436)

刘世云 Sai-Wan Lau (id:1290170)

吕凤珊 Fengshan Lü (id:1370031)

庄国荣 Kwok Wing Cheong (id:1280604)

朴若木 Lai Pan (id:1293875)

杨霞 Yang Xia (id:1464572)

刘永泰 Wing Tai Lau (id:1396875)

卓翔 Cheuk Cheung (id:1316916)

唐亚俊 Yajun Tang (id:1467588)

张进战 Jinzhan Zhang (id:1326433)

马特·斯科菲尔德 Matt Schofield (id:1305966)

黄伟辉 Wong Wai-Fai (id:1275163)

钱嘉乐 Kar Lok Chin (id:1025476)

赖声川 Stan Lai (id:1274898)

潘迪华 Rebecca Pan (id:1274839)

◎简 介

本是岭南大学学生的王佳芝(汤唯 饰)因战争辗转到了香港读书,她在香港大学加入了爱国青年邝裕民(王力宏 饰)组织的话剧组,他们主演的爱国话剧更激起了他们的爱国情操。当邝裕民得知汪伪政府的特务头子易先生(梁朝伟 饰)正在香港的时候,他们便密谋要刺杀易先生。化名“麦太太”的王佳芝很快得到了易太太(陈冲 饰)的信任与喜爱,同时美丽的“麦太太”也吸引了易先生的眼球,正当事情进行得如火如荼之际,易先生突然要回到上海去。

此后王佳芝一直生活在上海,没想到重遇了邝裕民。当得知刺杀行动还没结束时,王佳芝再次成为了特务,再次以“麦太太”的身份出现在易先生的面前。

重逢后的二人关系进一步发展,此时的易先生因爱上了王佳芝而对她毫无忌讳,王佳芝的内心也变得起伏不定。刺杀行动进行正顺利,但当易先生送给王佳芝璀璨钻戒表达爱意时,王佳芝做出了惊人的决定……

◎获奖情况 (共29项)

第64届威尼斯电影节 (2007)

金狮奖

└──李安 (id:1054421)

金奥赛拉奖 最佳摄影

└──罗德里戈·普列托 (id:1276623)

第65届金球奖 (2008)

电影类 最佳外语片(提名)

第44届台北金马影展 (2007)

金马奖 最佳剧情片

金马奖 最佳导演

└──李安 (id:1054421)

金马奖 最佳男主角

└──梁朝伟 (id:1115918)

金马奖 最佳女主角(提名)

└──汤唯 (id:1025141)

金马奖 最佳改编剧本

金马奖 最佳新演员

└──汤唯 (id:1025141)

金马奖 最佳摄影(提名)

└──罗德里戈·普列托 (id:1276623)

金马奖 最佳美术设计(提名)

└──朴若木 (id:1293875)

金马奖 最佳造型设计

金马奖 最佳原创配乐

└──亚历山大·德斯普拉 (id:1049972)

金马奖 最佳剪辑(提名)

└──蒂姆·斯奎尔斯 (id:1298208)

第27届香港电影金像奖 (2008)

最佳亚洲电影

第61届英国电影学院奖 (2008)

电影奖 最佳非英语片(提名)

电影奖 最佳服装设计(提名)

└──朴若木 (id:1293875)

第32届日本电影学院奖 (2009)

最佳外语片(提名)

第2届亚洲电影大奖 (2008)

最佳电影(提名)

最佳导演(提名)

└──李安 (id:1054421)

最佳男主角

└──梁朝伟 (id:1115918)

最佳女主角(提名)

└──汤唯 (id:1025141)

最佳编剧(提名)

最佳原创音乐(提名)

└──亚历山大·德斯普拉 (id:1049972)

第8届华语电影传媒大奖 (2008)

最佳电影(提名)

最佳导演(提名)

└──李安 (id:1054421)

最佳男主角(提名)

└──梁朝伟 (id:1115918)

最佳女主角(提名)

└──汤唯 (id:1025141)

最佳新演员

└──汤唯 (id:1025141)

  1. ##### MediaInfo ######

  2. General

  3. Unique ID : 193028807888200852886752106877068028658 (0x9137FF01FD9EAE8FA5EE7808D15CAAF2)

  4. Complete name : Lust.Caution.2007.BluRay.1080p.x265.10bit-MiniHD.mkv

  5. Format : Matroska

  6. Format version : Version 4

  7. File size : 4.95 GiB

  8. Duration : 2 h 38 min

  9. Overall bit rate : 4 475 kb/s

  10. Encoded date : UTC 2016-05-19 12:03:45

  11. Writing application : mkvmerge v9.1.0 ('Little Earthquakes') 32bit

  12. Writing library : libebml v1.3.3 + libmatroska v1.4.4

  13. Video

  14. ID : 1

  15. Format : HEVC

  16. Format/Info : High Efficiency Video Coding

  17. Format profile : Main [email protected]@Main

  18. Codec ID : V_MPEGH/ISO/HEVC

  19. Duration : 2 h 38 min

  20. Bit rate : 3 746 kb/s

  21. Width : 1 920 pixels

  22. Height : 1 080 pixels

  23. Display aspect ratio : 16:9

  24. Frame rate mode : Constant

  25. Frame rate : 23.976 (24000/1001/53354) FPS

  26. Color space : YUV

  27. Chroma subsampling : 4:2:0

  28. Bit depth : 10 bits

  29. Bits/(Pixel*Frame) : 0.075

  30. Stream size : 4.14 GiB (84%)

  31. Writing library : x265 1.9+96-b09998b1256e:[Windows][GCC 5.3.0][64 bit] 10bit

  32. Encoding settings : wpp / ctu=32 / min-cu-size=8 / max-tu-size=16 / tu-intra-depth=2 / tu-inter-depth=2 / me=2 / subme=5 / merange=28 / no-rect / no-amp / max-merge=3 / temporal-mvp / no-early-skip / rdpenalty=1 / no-tskip / no-tskip-fast / no-strong-intra-smoothing / no-lossless / no-cu-lossless / no-constrained-intra / no-fast-intra / no-open-gop / no-temporal-layers / interlace=0 / keyint=360 / min-keyint=1 / NTMzNTQ=uuDQuD2mJt9fsCf / scenecut=40 / rc-lookahead=60 / lookahead-slices=4 / bframes=8 / bframe-bias=0 / b-adapt=2 / ref=5 / limit-refs=3 / limit-modes / weightp / weightb / aq-mode=1 / qg-size=16 / aq-strength=1.00 / cbqpoffs=0 / crqpoffs=0 / rd=4 / psy-rd=0.30 / rdoq-level=1 / psy-rdoq=5.00 / no-rd-refine / signhide / deblock=-1:-1 / no-sao / no-sao-non-deblock / b-pyramid / cutree / no-intra-refresh / rc=crf / crf=19.0 / qcomp=0.60 / qpmin=0 / qpmax=51 / qpstep=4 / ipratio=1.40 / pbratio=1.30

  33. Default : Yes

  34. Forced : No

  35. Color range : Limited

  36. Color primaries : BT.709

  37. Audio

  38. ID : 2

  39. Format : AC-3

  40. Format/Info : Audio Coding 3

  41. Commercial name : Dolby Digital

  42. Codec ID : A_AC3

  43. Duration : 2 h 38 min

  44. Bit rate mode : Constant

  45. Bit rate : 640 kb/s

  46. Channel(s) : 6 channels

  47. Channel layout : L R C LFE Ls Rs

  48. Sampling rate : 48.0 kHz

  49. Frame rate : 31.250 FPS (1536 SPF)

  50. Compression mode : Lossy

  51. Stream size : 724 MiB (14%)

  52. Language : Chinese

  53. Service kind : Complete Main

  54. Default : Yes

  55. Forced : No

  56. Text #1

  57. ID : 3

  58. Format : PGS

  59. Muxing mode : zlib

  60. Codec ID : S_HDMV/PGS

  61. Codec ID/Info : Picture based subtitle format used on BDs/HD-DVDs

  62. Language : Chinese

  63. Default : Yes

  64. Forced : No

  65. Text #2

  66. ID : 4

  67. Format : PGS

  68. Muxing mode : zlib

  69. Codec ID : S_HDMV/PGS

  70. Codec ID/Info : Picture based subtitle format used on BDs/HD-DVDs

  71. Language : English

  72. Default : No

  73. Forced : No

  74. Menu

  75. 00:00:00.000 : en:Chapter 01

  76. 00:06:18.126 : en:Chapter 02

  77. 00:14:29.869 : en:Chapter 03

  78. 00:23:18.355 : en:Chapter 04

  79. 00:31:07.323 : en:Chapter 05

  80. 00:35:23.036 : en:Chapter 06

  81. 00:41:35.992 : en:Chapter 07

  82. 00:45:45.534 : en:Chapter 08

  83. 00:53:30.123 : en:Chapter 09

  84. 01:01:27.557 : en:Chapter 10

  85. 01:05:50.237 : en:Chapter 11

  86. 01:13:39.122 : en:Chapter 12

  87. 01:19:04.613 : en:Chapter 13

  88. 01:25:57.944 : en:Chapter 14

  89. 01:29:38.372 : en:Chapter 15

  90. 01:36:50.011 : en:Chapter 16

  91. 01:43:36.292 : en:Chapter 17

  92. 01:49:37.654 : en:Chapter 18

  93. 01:55:47.523 : en:Chapter 19

  94. 02:01:22.483 : en:Chapter 20

  95. 02:06:46.556 : en:Chapter 21

  96. 02:13:31.461 : en:Chapter 22

  97. 02:21:18.302 : en:Chapter 23

  98. 02:31:13.647 : en:Chapter 24


复制代码



文件下载


除非特别注明,本文『色戒[国语音轨/中英字幕].Lust.Caution.2007.BluRay.1080p.x265.10bit-MiniHD 4.95GB』来源于互联网机器人自动抓取,非本站原创。 浮游电影网不对本文拥有版权,如有侵犯,请联系邮箱:fuyouu#yandex.com[#换成@]投诉。我们会在15个工作日内删除。 但烦请转载时请标明出处:“本文转载于『浮游电影网』,原文地址:https://www.fuyouu.com/22269.html

评论吧骚年!

发表你的见解   

昵称*

E-mail*(建议输入,以便收到博主回复的提示邮件)

验证码*

您可以使用eMule或eMule Mod(Windows)、aMule(Win、Linux、Mac)等软件下载eD2k链接。。
eMule收藏集(.emulecollection)文件是您选中的所有链接的列表文件。eMule可以直接下载它们。
按住SHIFT键选择可以选中多个选择框。
可用文件名和大小选择器来选择文件。
文件名选择器帮您根据文件名称或后缀来选择文件。不分大小写。
符号使用:
和:空格( )、+
不包含:-
或:|
转义:一对英文引号("");
匹配开头:^
匹配结尾:$
例如:
选中所有名称中包含有“eMule”或“0.49c”字眼,但不包含有“exe”字眼的:emule|0.49c -exe
选中所有名称的开头是“eMule”,结尾是“0.49c”的:^emule 0.49c$
选中所有名称中带有“eMule 0.49c”的(必须是“eMule 0.49c”,中间没有别的字符,不能是“eMule fake 0.49c”),需要转义:"emule 0.49c"
大小选择器帮您根据文件大小选择文件。