当前位置: 首页 >> 国产电影 >> 黄金蜘蛛城[国语配音/中文字幕].Huang.Jin.Zhi.Zhu.Cheng.2022.2160p.WEB-DL.H265.AAC-HDBWEB 2.32GB >> 正文

黄金蜘蛛城[国语配音/中文字幕].Huang.Jin.Zhi.Zhu.Cheng.2022.2160p.WEB-DL.H265.AAC-HDBWEB 2.32GB

2022年05月23日 12:26:19     电影发布:来源于网络     电影分类:国产电影     评论(0)    

◎译 名 黄金蜘蛛城 / 谜踪之国之黄金蜘蛛城

◎年 代 2022

◎产 地 中国大陆

◎语 言 汉语普通话

◎上映日期 2022-05-21(中国大陆网络)

◎IMDb链接 https://www.imdb.com/title//

◎豆瓣链接 https://movie.douban.com/subject/26831508/

◎导 演 代艺霖 Yilin Dai (id:1374565)

◎编 剧 束焕 Huan Shu (id:1325104)

天下霸唱 Muye Zhang (id:1340983)

◎演 员 刘林城 Lincheng Liu (id:1407788)

陈孟奇 Mengqi Chen (id:1360383)

宁小花 Xiaohua Ning (id:1359076)

◎简 介

故事讲述了思玛聪被泰国富商襄爷要挟前往野人山地下一万米处寻找黄金蜘蛛城的下落。在探险途中,思玛聪遇到了从墓室血丝圆棺中逃出的天才小伙八爷,两个天差地别的小青年,逐渐为了探索地底秘密而结盟,萌生出患难情谊。而此时,突然出现在地下的反派襄爷爆出八爷的真实身份竟然是思玛聪失踪多年的父亲思玛辉,地下黄金蜘蛛城也揭开了它来自外星文明的神秘面纱.....

  1. ##### MediaInfo ######

  2. General

  3. Complete name : 黄金蜘蛛城.Huang.Jin.Zhi.Zhu.Cheng.2022.2160p.WEB-DL.H265.AAC-HDBWEB.mp4

  4. Format : MPEG-4

  5. Format profile : Base Media

  6. Codec ID : isom (isom/iso2/mp41)

  7. File size : 2.32 GiB

  8. Duration : 1 h 26 min

  9. Overall bit rate : 3 840 kb/s

  10. Writing application : OurTV Media Encoder

  11. Video

  12. ID : 1

  13. Format : HEVC

  14. Format/Info : High Efficiency Video Coding

  15. Format profile : [email protected]@Main

  16. Codec ID : hev1

  17. Codec ID/Info : High Efficiency Video Coding

  18. Duration : 1 h 26 min

  19. Bit rate : 3 643 kb/s

  20. Width : 3 840 pixels

  21. Height : 1 440 pixels

  22. Display aspect ratio : 2.667

  23. Frame rate mode : Constant

  24. Frame rate : 25.000 FPS

  25. Color space : YUV

  26. Chroma subsampling : 4:2:0

  27. Bit depth : 8 bits

  28. Bits/(Pixel*Frame) : 0.026

  29. Stream size : 2.20 GiB (95%)

  30. Color range : Limited

  31. Color primaries : BT.709

  32. Transfer characteristics : BT.709

  33. Matrix coefficients : BT.709

  34. Codec configuration box : hvcC

  35. Audio

  36. ID : 2

  37. Format : AAC LC

  38. Format/Info : Advanced Audio Codec Low Complexity

  39. Codec ID : mp4a-40-2

  40. Duration : 1 h 26 min

  41. Bit rate mode : Constant

  42. Bit rate : 192 kb/s

  43. Channel(s) : 2 channels

  44. Channel layout : L R

  45. Sampling rate : 44.1 kHz

  46. Frame rate : 43.066 FPS (1024 SPF)

  47. Compression mode : Lossy

  48. Stream size : 117 MiB (5%)

  49. Default : Yes

  50. Alternate group : 1


复制代码




文件下载


除非特别注明,本文『黄金蜘蛛城[国语配音/中文字幕].Huang.Jin.Zhi.Zhu.Cheng.2022.2160p.WEB-DL.H265.AAC-HDBWEB 2.32GB』来源于互联网机器人自动抓取,非本站原创。 浮游电影网不对本文拥有版权,如有侵犯,请联系邮箱:fuyouu#yandex.com[#换成@]投诉。我们会在15个工作日内删除。 但烦请转载时请标明出处:“本文转载于『浮游电影网』,原文地址:https://www.fuyouu.com/22268.html

评论吧骚年!

发表你的见解   

昵称*

E-mail*(建议输入,以便收到博主回复的提示邮件)

验证码*

您可以使用eMule或eMule Mod(Windows)、aMule(Win、Linux、Mac)等软件下载eD2k链接。。
eMule收藏集(.emulecollection)文件是您选中的所有链接的列表文件。eMule可以直接下载它们。
按住SHIFT键选择可以选中多个选择框。
可用文件名和大小选择器来选择文件。
文件名选择器帮您根据文件名称或后缀来选择文件。不分大小写。
符号使用:
和:空格( )、+
不包含:-
或:|
转义:一对英文引号("");
匹配开头:^
匹配结尾:$
例如:
选中所有名称中包含有“eMule”或“0.49c”字眼,但不包含有“exe”字眼的:emule|0.49c -exe
选中所有名称的开头是“eMule”,结尾是“0.49c”的:^emule 0.49c$
选中所有名称中带有“eMule 0.49c”的(必须是“eMule 0.49c”,中间没有别的字符,不能是“eMule fake 0.49c”),需要转义:"emule 0.49c"
大小选择器帮您根据文件大小选择文件。