当前位置: 首页 >> 海外电影 >> 零和一[中文字幕].Zeros.and.Ones.2021.1080p.BluRay.DTS.x265-10bit-ENTHD 4.78GB >> 正文

零和一[中文字幕].Zeros.and.Ones.2021.1080p.BluRay.DTS.x265-10bit-ENTHD 4.78GB

2022年05月23日 12:25:17     电影发布:来源于网络     电影分类:海外电影     评论(0)    

◎译 名 零和一 / 危城行動(台)

◎片 名 Zeros and Ones

◎年 代 2021

◎产 地 德国 / 美国 / 英国 / 意大利

◎类 别 惊悚 / 战争

◎语 言 英语 / 意大利语

◎上映日期 2021-08-12(洛迦诺电影节) / 2021-11-19(美国)

◎IMDb链接 https://www.imdb.com/title/tt13432484/

◎豆瓣评分 5.4/10 (987人评价)

◎豆瓣链接 https://movie.douban.com/subject/35248558/

◎片 长 85分钟

◎导 演 阿贝尔·费拉拉 Abel Ferrara (id:1009469)

◎编 剧 阿贝尔·费拉拉 Abel Ferrara (id:1009469)

◎演 员 伊桑·霍克 Ethan Hawke (id:1018984)

瓦莱里奥·马斯坦德雷亚 Valerio Mastandrea (id:1005301)

巴巴克·卡里米 Babak Karimi (id:1314291)

克里斯蒂娜·基里亚克 Cristina Chiriac (id:1443751)

杜尼亚·西乔夫 Dounia Sichov (id:1443749)

菲尔·尼尔森 Phil Neilson (id:1293013)

安娜·费拉拉 Anna Ferrara (id:1443752)

萨尔瓦多·罗科 Salvatore Ruocco (id:1459541)

Korlan Madi Korlan Madi (id:1464508)

Joe Delia Joe Delia (id:1464509)

肖恩·普莱斯·威廉姆斯 Sean Price Williams (id:1023785)

◎简 介

讲述美国士兵JJ驻扎在罗马,被围困、封锁,处于战争状态。当梵蒂冈被炸后,他开始寻找一个威胁到整个世界生命的未知敌人,并与其斗争。

◎获奖情况 (共2项)

第74届洛迦诺国际电影节 (2021)

金豹奖(提名)

└──阿贝尔·费拉拉 (id:1009469)

最佳导演

└──阿贝尔·费拉拉 (id:1009469)

  1. ##### MediaInfo ######

  2. General

  3. Unique ID : 339232273738552822650439034001128920566 (0xFF35C268AA4C7CC7A4470A9F234395F6)

  4. Complete name : Zeros.and.Ones.2021.1080p.BluRay.DTS.x265-10bit-ENTHD.mkv

  5. Format : Matroska

  6. Format version : Version 4

  7. File size : 4.78 GiB

  8. Duration : 1 h 26 min

  9. Overall bit rate : 7 899 kb/s

  10. Movie name : Zeros and Ones 2021 1080p BluRay DTS x265-10bit-HDS

  11. Encoded date : UTC 2022-05-21 09:37:37

  12. Writing application : mkvmerge v38.0.0 ('The Silent Type') 64-bit

  13. Writing library : libebml v1.3.9 + libmatroska v1.5.2

  14. Video

  15. ID : 1

  16. Format : HEVC

  17. Format/Info : High Efficiency Video Coding

  18. Format profile : Main [email protected]@High

  19. Codec ID : V_MPEGH/ISO/HEVC

  20. Duration : 1 h 26 min

  21. Bit rate : 6 378 kb/s

  22. Width : 1 920 pixels

  23. Height : 804 pixels

  24. Display aspect ratio : 2.40:1

  25. Frame rate mode : Constant

  26. Frame rate : 24.000 FPS

  27. Color space : YUV

  28. Chroma subsampling : 4:2:0

  29. Bit depth : 10 bits

  30. Bits/(Pixel*Frame) : 0.172

  31. Stream size : 3.86 GiB (81%)

  32. Title : [email protected]

  33. Writing library : x265 - H.265/HEVC codec

  34. Default : Yes

  35. Forced : No

  36. Audio

  37. ID : 2

  38. Format : DTS

  39. Format/Info : Digital Theater Systems

  40. Codec ID : A_DTS

  41. Duration : 1 h 26 min

  42. Bit rate mode : Constant

  43. Bit rate : 1 509 kb/s

  44. Channel(s) : 6 channels

  45. Channel layout : C L R Ls Rs LFE

  46. Sampling rate : 48.0 kHz

  47. Frame rate : 93.750 FPS (512 SPF)

  48. Bit depth : 24 bits

  49. Compression mode : Lossy

  50. Stream size : 935 MiB (19%)

  51. Title : English

  52. Language : English

  53. Default : Yes

  54. Forced : No

  55. Text

  56. ID : 3

  57. Format : PGS

  58. Muxing mode : zlib

  59. Codec ID : S_HDMV/PGS

  60. Codec ID/Info : Picture based subtitle format used on BDs/HD-DVDs

  61. Duration : 1 h 20 min

  62. Bit rate : 21.9 kb/s

  63. Count of elements : 720

  64. Stream size : 12.6 MiB (0%)

  65. Title : CHS

  66. Language : Chinese

  67. Default : Yes

  68. Forced : No

  69. Menu

  70. 00:00:00.000 : en:Chapter 01

  71. 00:04:32.542 : en:Chapter 02

  72. 00:08:13.250 : en:Chapter 03

  73. 00:12:12.208 : en:Chapter 04

  74. 00:16:51.167 : en:Chapter 05

  75. 00:23:07.333 : en:Chapter 06

  76. 00:28:08.292 : en:Chapter 07

  77. 00:33:57.792 : en:Chapter 08

  78. 00:36:41.958 : en:Chapter 09

  79. 00:41:53.708 : en:Chapter 10

  80. 00:49:10.792 : en:Chapter 11

  81. 00:52:01.125 : en:Chapter 12

  82. 01:01:00.417 : en:Chapter 13

  83. 01:07:40.625 : en:Chapter 14

  84. 01:12:58.583 : en:Chapter 15

  85. 01:17:35.000 : en:Chapter 16

  86. 01:18:30.167 : en:Chapter 17


复制代码



文件下载


除非特别注明,本文『零和一[中文字幕].Zeros.and.Ones.2021.1080p.BluRay.DTS.x265-10bit-ENTHD 4.78GB』来源于互联网机器人自动抓取,非本站原创。 浮游电影网不对本文拥有版权,如有侵犯,请联系邮箱:fuyouu#yandex.com[#换成@]投诉。我们会在15个工作日内删除。 但烦请转载时请标明出处:“本文转载于『浮游电影网』,原文地址:https://www.fuyouu.com/22267.html

评论吧骚年!

发表你的见解   

昵称*

E-mail*(建议输入,以便收到博主回复的提示邮件)

验证码*

您可以使用eMule或eMule Mod(Windows)、aMule(Win、Linux、Mac)等软件下载eD2k链接。。
eMule收藏集(.emulecollection)文件是您选中的所有链接的列表文件。eMule可以直接下载它们。
按住SHIFT键选择可以选中多个选择框。
可用文件名和大小选择器来选择文件。
文件名选择器帮您根据文件名称或后缀来选择文件。不分大小写。
符号使用:
和:空格( )、+
不包含:-
或:|
转义:一对英文引号("");
匹配开头:^
匹配结尾:$
例如:
选中所有名称中包含有“eMule”或“0.49c”字眼,但不包含有“exe”字眼的:emule|0.49c -exe
选中所有名称的开头是“eMule”,结尾是“0.49c”的:^emule 0.49c$
选中所有名称中带有“eMule 0.49c”的(必须是“eMule 0.49c”,中间没有别的字符,不能是“eMule fake 0.49c”),需要转义:"emule 0.49c"
大小选择器帮您根据文件大小选择文件。