当前位置: 首页 >> 欧美电影 >> 分歧者3:忠诚世界[简繁英字幕].Allegiant.2016.2160p.HDR.UHD.BluRay.TrueHD.7.1.x265-10bit-ENTHD 14.83GB >> 正文

分歧者3:忠诚世界[简繁英字幕].Allegiant.2016.2160p.HDR.UHD.BluRay.TrueHD.7.1.x265-10bit-ENTHD 14.83GB

2022年05月23日 12:08:53     电影发布:来源于网络     电影分类:欧美电影     评论(0)    

◎译 名 分歧者3:忠诚世界 / 赤诚者?末世醒觉(港) / 分歧者3:赤诚者(台) / 忠诚者(上) / 效忠者(上) / 分歧者3:效忠者(上) / 分歧者3:忠诚者(上) / Allegiant: Part 1

◎片 名 The Divergent Series: Allegiant

◎年 代 2016

◎产 地 美国

◎类 别 动作 / 科幻 / 冒险

◎语 言 英语

◎上映日期 2016-05-20(中国大陆) / 2016-03-08(曼谷首映) / 2016-03-18(美国)

◎IMDb链接 https://www.imdb.com/title/tt3410834/

◎豆瓣评分 6.0/10 (46921人评价)

◎豆瓣链接 https://movie.douban.com/subject/25794302/

◎片 长 121分钟

◎导 演 罗伯特·斯文克 Robert Schwentke (id:1297058)

◎编 剧 诺亚·奥本海姆 Noah Oppenheim (id:1333683)

亚当·库珀 Adam Cooper (id:1343501)

比尔·科拉奇 Bill Collage (id:1343502)

维罗尼卡·罗斯 Veronica Roth (id:1333562)

◎演 员 谢琳·伍德蕾 Shailene Woodley (id:1040526)

西奥·詹姆斯 Theo James (id:1314251)

杰夫·丹尼尔斯 Jeff Daniels (id:1006974)

奥克塔维亚·斯宾瑟 Octavia Spencer (id:1154263)

雷·史蒂文森 Ray Stevenson (id:1019007)

佐伊·克罗维兹 Zo? Kravitz (id:1229502)

迈尔斯·特勒 Miles Teller (id:1313408)

安塞尔·艾尔高特 Ansel Elgort (id:1335176)

李美琪 Maggie Q (id:1019013)

比尔·斯卡斯加德 Bill Skarsg?rd (id:1022798)

娜奥米·沃茨 Naomi Watts (id:1016675)

乔尼·维斯顿 Jonny Weston (id:1327004)

考特尼·霍普 Courtney Hope (id:1220268)

安妮斯顿·普莱斯 Anniston Price (id:1360286)

婷斯莉·普莱斯 Tinsley Price (id:1360287)

大卫·安 David An (id:1392831)

金大贤 Daniel Dae Kim (id:1022618)

凯南·朗斯代尔 Keiynan Lonsdale (id:1339607)

卡莱卡 Kaleka (id:1440517)

珍妮·麦克蒂尔 Janet McTeer (id:1045011)

约瑟夫·戴维-琼斯 Joseph David-Jones (id:1378716)

梅奇·费法 Mekhi Phifer (id:1013836)

本-莱文 Ben Levin (id:1211917)

帕里萨·庄士敦 Parisa Johnston (id:1411288)

丽贝卡·彼得根 Rebecca Pidgeon (id:1027392)

艾什莉·贾德 Ashley Judd (id:1000014)

丹妮尔·林 Danielle Lyn (id:1386117)

安迪·比恩 Andy Bean (id:1383557)

乔顿卡尔文 Jordanne Calvin (id:1368099)

迈克尔·比斯利 Michael Beasley (id:1335294)

纳迪娅·希尔克 Nadia Hilker (id:1355969)

齐科·扎基 Zeeko Zaki (id:1364398)

奥图姆·戴尔 Autumn Dial (id:1357563)

尼尔·博格 Neil Burger (id:1303891)

约瑟夫·特雷帕尼斯 Joseph Trapanese (id:1378570)

弗洛里安·巴尔豪斯 Florian Ballhaus (id:1420282)

玛琳·斯图尔特 Marlene Stewart (id:1051194)

◎简 介

派系制度瓦解了,老四(提奥·詹姆斯 Theo James 饰)的母亲伊芙琳(娜奥米·沃茨 Naomi Watts 饰)成为了墙内世界的统治者,她利用强悍而又严格的武装力量控制墙内居民,不允许他们越雷池一步。可偏偏翠丝(谢琳·伍德蕾 Shailene Woodley 饰)和老四不信这个邪,他们坚信,未来和希望是属于墙外世界的。

于是,两人带领着克里斯蒂娜(佐伊·克拉维兹 Zoe Kravitz 饰)、皮特(迈尔斯·特勒 Miles Teller 饰)和托里(李美琪 Maggie Q 饰)等人突出重围,终于来到了高墙的那一边。在那一边,基因局收留了翠丝一行人,表面看来基因局扮演的俨然是正义的一方,但实际上,其负责人大卫(杰夫·丹尼尔斯 Jeff Daniels 饰)怀揣着极大的野心,隐藏了一个惊人的秘密。

◎获奖情况 (共1项)

第37届金酸莓奖 (2017)

最差女主角(提名)

  1. ##### MediaInfo ######

  2. General

  3. Unique ID : 122410574254261358644263778648882211051 (0x5C176B46A32FCA1D6196F981DA44E8EB)

  4. Complete name : Allegiant.2016.2160p.HDR.UHD.BluRay.TrueHD.7.1.x265-10bit-ENTHD.mkv

  5. Format : Matroska

  6. Format version : Version 4

  7. File size : 14.8 GiB

  8. Duration : 2 h 0 min

  9. Overall bit rate mode : Variable

  10. Overall bit rate : 17.6 Mb/s

  11. Movie name : Allegiant 2016 2160p HDR UHD BluRay TrueHD 7.1 x265-10bit-HDS

  12. Encoded date : UTC 2022-05-21 00:27:04

  13. Writing application : mkvmerge v67.0.0 ('Under Stars') 64-bit

  14. Writing library : libebml v1.4.2 + libmatroska v1.6.4

  15. Video

  16. ID : 1

  17. Format : HEVC

  18. Format/Info : High Efficiency Video Coding

  19. Format profile : Main [email protected]@High

  20. HDR format : SMPTE ST 2086, HDR10 compatible

  21. Codec ID : V_MPEGH/ISO/HEVC

  22. Duration : 2 h 0 min

  23. Bit rate : 12.0 Mb/s

  24. Width : 3 840 pixels

  25. Height : 1 600 pixels

  26. Display aspect ratio : 2.40:1

  27. Frame rate mode : Constant

  28. Frame rate : 23.976 (24000/1001/53354) FPS

  29. Color space : YUV

  30. Chroma subsampling : 4:2:0

  31. Bit depth : 10 bits

  32. Bits/(Pixel*Frame) : 0.082

  33. Stream size : 10.1 GiB (68%)

  34. Title : @HDSky

  35. Writing library : x265 - H.265/HEVC codec

  36. Default : Yes

  37. Forced : No

  38. Color range : Limited

  39. Color primaries : BT.2020

  40. Transfer characteristics : PQ

  41. Matrix coefficients : BT.2020 non-constant

  42. Mastering display color primaries : Display P3

  43. Mastering display luminance : min: 0.0010 cd/m2, max: 1000 cd/m2

  44. Audio #1

  45. ID : 2

  46. Format : MLP FBA 16-ch

  47. Format/Info : Meridian Lossless Packing FBA with 16-channel presentation

  48. Commercial name : Dolby TrueHD with Dolby Atmos

  49. Codec ID : A_TRUEHD

  50. Duration : 2 h 0 min

  51. Bit rate mode : Variable

  52. Bit rate : 4 815 kb/s

  53. Maximum bit rate : 8 859 kb/s

  54. Channel(s) : 8 channels

  55. Channel layout : L R C LFE Ls Rs Lb Rb

  56. Sampling rate : 48.0 kHz

  57. Frame rate : 1 200.000 FPS (40 SPF)

  58. Compression mode : Lossless

  59. Stream size : 4.05 GiB (27%)

  60. Title : English

  61. Language : English

  62. Default : Yes

  63. Forced : No

  64. Number of dynamic objects : 15

  65. Bed channel count : 1 channel

  66. Bed channel configuration : LFE

  67. Audio #2

  68. ID : 3

  69. Format : AC-3

  70. Format/Info : Audio Coding 3

  71. Commercial name : Dolby Digital

  72. Codec ID : A_AC3

  73. Duration : 2 h 0 min

  74. Bit rate mode : Constant

  75. Bit rate : 640 kb/s

  76. Channel(s) : 6 channels

  77. Channel layout : L R C LFE Ls Rs

  78. Sampling rate : 48.0 kHz

  79. Frame rate : 31.250 FPS (1536 SPF)

  80. Compression mode : Lossy

  81. Stream size : 552 MiB (4%)

  82. Service kind : Complete Main

  83. Default : Yes

  84. Forced : No

  85. Text #1

  86. ID : 4

  87. Format : PGS

  88. Muxing mode : zlib

  89. Codec ID : S_HDMV/PGS

  90. Codec ID/Info : Picture based subtitle format used on BDs/HD-DVDs

  91. Duration : 1 h 48 min

  92. Bit rate : 27.6 kb/s

  93. Count of elements : 2350

  94. Stream size : 21.4 MiB (0%)

  95. Title : ENG

  96. Language : English

  97. Default : Yes

  98. Forced : No

  99. Text #2

  100. ID : 5

  101. Format : PGS

  102. Muxing mode : zlib

  103. Codec ID : S_HDMV/PGS

  104. Codec ID/Info : Picture based subtitle format used on BDs/HD-DVDs

  105. Duration : 1 h 48 min

  106. Bit rate : 24.9 kb/s

  107. Count of elements : 2118

  108. Stream size : 19.3 MiB (0%)

  109. Title : CHS

  110. Language : Chinese

  111. Default : Yes

  112. Forced : No

  113. Text #3

  114. ID : 6

  115. Format : PGS

  116. Muxing mode : zlib

  117. Codec ID : S_HDMV/PGS

  118. Codec ID/Info : Picture based subtitle format used on BDs/HD-DVDs

  119. Duration : 1 h 48 min

  120. Bit rate : 25.3 kb/s

  121. Count of elements : 2118

  122. Stream size : 19.7 MiB (0%)

  123. Title : CHT

  124. Language : Chinese

  125. Default : Yes

  126. Forced : No

  127. Text #4

  128. ID : 7

  129. Format : PGS

  130. Muxing mode : zlib

  131. Codec ID : S_HDMV/PGS

  132. Codec ID/Info : Picture based subtitle format used on BDs/HD-DVDs

  133. Duration : 1 h 48 min

  134. Bit rate : 43.7 kb/s

  135. Count of elements : 2118

  136. Stream size : 34.0 MiB (0%)

  137. Title : CHS&ENG

  138. Language : Chinese

  139. Default : Yes

  140. Forced : No

  141. Text #5

  142. ID : 8

  143. Format : PGS

  144. Muxing mode : zlib

  145. Codec ID : S_HDMV/PGS

  146. Codec ID/Info : Picture based subtitle format used on BDs/HD-DVDs

  147. Duration : 1 h 48 min

  148. Bit rate : 44.1 kb/s

  149. Count of elements : 2118

  150. Stream size : 34.3 MiB (0%)

  151. Title : CHT&ENG

  152. Language : Chinese

  153. Default : Yes

  154. Forced : No

  155. Menu

  156. 00:00:00.000 : en:第 01 章

  157. 00:09:46.252 : en:第 02 章

  158. 00:09:46.336 : en:第 03 章

  159. 00:16:54.222 : en:第 04 章

  160. 00:16:54.305 : en:第 05 章

  161. 00:25:52.009 : en:第 06 章

  162. 00:25:52.092 : en:第 07 章

  163. 00:32:45.130 : en:第 08 章

  164. 00:32:45.213 : en:第 09 章

  165. 00:37:26.119 : en:第 10 章

  166. 00:37:26.202 : en:第 11 章

  167. 00:45:49.455 : en:第 12 章

  168. 00:45:49.538 : en:第 13 章

  169. 00:53:31.375 : en:第 14 章

  170. 00:53:31.458 : en:第 15 章

  171. 00:58:18.161 : en:第 16 章

  172. 00:58:18.245 : en:第 17 章

  173. 01:07:21.079 : en:第 18 章

  174. 01:07:21.162 : en:第 19 章

  175. 01:13:46.631 : en:第 20 章

  176. 01:13:46.714 : en:第 21 章

  177. 01:19:50.953 : en:第 22 章

  178. 01:19:51.036 : en:第 23 章

  179. 01:26:40.153 : en:第 24 章

  180. 01:26:40.237 : en:第 25 章

  181. 01:33:12.045 : en:第 26 章

  182. 01:33:12.128 : en:第 27 章

  183. 01:40:23.976 : en:第 28 章

  184. 01:40:24.060 : en:第 29 章

  185. 01:46:18.789 : en:第 30 章

  186. 01:46:18.872 : en:第 31 章


复制代码



文件下载


除非特别注明,本文『分歧者3:忠诚世界[简繁英字幕].Allegiant.2016.2160p.HDR.UHD.BluRay.TrueHD.7.1.x265-10bit-ENTHD 14.83GB』来源于互联网机器人自动抓取,非本站原创。 浮游电影网不对本文拥有版权,如有侵犯,请联系邮箱:fuyouu#yandex.com[#换成@]投诉。我们会在15个工作日内删除。 但烦请转载时请标明出处:“本文转载于『浮游电影网』,原文地址:https://www.fuyouu.com/22262.html

评论吧骚年!

发表你的见解   

昵称*

E-mail*(建议输入,以便收到博主回复的提示邮件)

验证码*

您可以使用eMule或eMule Mod(Windows)、aMule(Win、Linux、Mac)等软件下载eD2k链接。。
eMule收藏集(.emulecollection)文件是您选中的所有链接的列表文件。eMule可以直接下载它们。
按住SHIFT键选择可以选中多个选择框。
可用文件名和大小选择器来选择文件。
文件名选择器帮您根据文件名称或后缀来选择文件。不分大小写。
符号使用:
和:空格( )、+
不包含:-
或:|
转义:一对英文引号("");
匹配开头:^
匹配结尾:$
例如:
选中所有名称中包含有“eMule”或“0.49c”字眼,但不包含有“exe”字眼的:emule|0.49c -exe
选中所有名称的开头是“eMule”,结尾是“0.49c”的:^emule 0.49c$
选中所有名称中带有“eMule 0.49c”的(必须是“eMule 0.49c”,中间没有别的字符,不能是“eMule fake 0.49c”),需要转义:"emule 0.49c"
大小选择器帮您根据文件大小选择文件。