当前位置: 首页 >> 欧美电影 >> 荒岛余生[国英多音轨/中英字幕].Cast.Away.2000.BluRay.1080p.x265.10bit.2Audio-MiniHD 6.96GB >> 正文

荒岛余生[国英多音轨/中英字幕].Cast.Away.2000.BluRay.1080p.x265.10bit.2Audio-MiniHD 6.96GB

2022年05月23日 12:07:14     电影发布:来源于网络     电影分类:欧美电影     评论(0)    

◎译 名 荒岛余生 / 浩劫重生(台) / 劫后重生(港) / 荒岛男人

◎片 名 Cast Away

◎年 代 2000

◎产 地 美国

◎类 别 剧情 / 冒险

◎语 言 英语 / 俄语

◎上映日期 2000-12-22(美国)

◎IMDb链接 https://www.imdb.com/title/tt0162222/

◎豆瓣评分 8.6/10 (257773人评价)

◎豆瓣链接 https://movie.douban.com/subject/1298653/

◎片 长 143分钟

◎导 演 罗伯特·泽米吉斯 Robert Zemeckis (id:1053564)

◎编 剧 小威廉·保尔斯 William Broyles Jr. (id:1027610)

◎演 员 汤姆·汉克斯 Tom Hanks (id:1054450)

海伦·亨特 Helen Hunt (id:1019017)

克里斯·诺斯 Chris Noth (id:1040515)

尼克·瑟西 Nick Searcy (id:1031994)

Valerie Wildman Valerie Wildman (id:1168121)

温迪·沃辛顿 Wendy Worthington (id:1168708)

斯蒂夫·蒙罗埃 Steve Monroe (id:1124221)

詹妮弗·路易斯 Jenifer Lewis (id:1007034)

Viveka Davis Viveka Davis (id:1344848)

Wilson the Volleyball Wilson the Volleyball (id:1302340)

Aaron Rapke Aaron Rapke (id:1140303)

Ashley Trefger Ashley Trefger (id:1149315)

拉瑞·怀特 Lari White (id:1164766)

Lindsey Trefger Lindsey Trefger (id:1156440)

约翰·杜勒 John Duerler (id:1402363)

南·马丁 Nan Martin (id:1124028)

丹尼斯莱茨 Dennis Letts (id:1116349)

Valentina Ananyina Valentina Ananyina (id:1059588)

Lauren Gainer Lauren Gainer (id:1284391)

Kaitlyn Gainer Kaitlyn Gainer (id:1284393)

Alyssa Gainer Alyssa Gainer (id:1284398)

杰·阿克沃内 Jay Acovone (id:1056371)

David Allen Brooks David Allen Brooks (id:1067559)

Joe Conley Joe Conley (id:1075549)

迈克尔·福瑞斯特 Michael Forest (id:1081642)

埃尔登·汉森 Elden Henson (id:1049668)

杰弗里·布莱克 Geoffrey Blake (id:1066340)

Cherylanne Martin Cherylanne Martin (id:1291114)

杰克·拉普克 Jack Rapke (id:1295246)

史蒂夫·斯达克 Steve Starkey (id:1298281)

罗伯特·泽米吉斯 Robert Zemeckis (id:1053564)

汤姆·汉克斯 Tom Hanks (id:1054450)

亚伦·史维斯查 Alan Silvestri (id:1002819)

唐·伯吉斯 Don Burgess (id:1018519)

阿瑟·施密特 Arthur Schmidt (id:1296896)

维多利亚·伯罗斯 Victoria Burrows (id:1279694)

William James Teegarden William James Teegarden (id:1299026)

斯蒂凡·德昌特 Stefan Dechant (id:1282124)

凯伦·奥哈拉 Karen O'Hara (id:1293413)

罗斯玛丽·勃兰登堡 Rosemary Brandenburg (id:1279191)

瑞克·卡特 Rick Carter (id:1280172)

乔安娜·约翰斯顿 Joanna Johnston (id:1287829)

黛博拉·拉·米亚·德内弗 Deborah La Mia Denaver (id:1282236)

凯瑟琳·布伦黛尔 Kathryn Blondell (id:1067362)

Bill Myer Bill Myer (id:1291953)

Robin Fredriksz Robin Fredriksz (id:1084366)

罗尼·斯皮克特 Ronnie Specter (id:1298121)

丹尼尔C.斯瑞派克 Daniel C. Striepeke (id:1028832)

Gary Archer Gary Archer (id:1058559)

史蒂夫·斯达克 Steve Starkey (id:1298281)

乔什·麦克拉伦 Josh McLaglen (id:1032698)

Jeff Willette Jeff Willette (id:1167533)

Jennifer German Jennifer German (id:1284737)

Layne Friedman Layne Friedman (id:1284220)

Crys Forsyth-Smith Crys Forsyth-Smith (id:1284000)

Bill Houston Ball Bill Houston Ball (id:1066112)

Fish Essenfeld Fish Essenfeld (id:1283299)

罗布·布雷多 Rob Bredow (id:1279230)

Brian Battles Brian Battles (id:1278083)

大卫·伯顿 David Burton (id:1078748)

Debbie Denise Debbie Denise (id:1276381)

Garrick McLaughlin Garrick McLaughlin (id:1216491)

Audrea Topps Harjo Audrea Topps Harjo (id:1093587)

Rick Shick Rick Shick (id:1200005)

科林·德罗布尼斯 Colin Drobnis (id:1282732)

帕特里克·赞蒂斯 Patrick Zentis (id:1190745)

Eric Scott Eric Scott (id:1142135)

Jeff Olm Jeff Olm (id:1055723)

丹·考夫曼 Dan Kaufman (id:1288219)

安东尼·哈里斯 Anthony Harris (id:1017246)

Gavin Toomey Gavin Toomey (id:1022425)

希娜·达加尔 Sheena Duggal (id:1008579)

大卫·绍布 David Schaub (id:1296830)

加曼·黑日格施塔德 Garman Herigstad (id:1179544)

Dobbie Schiff Dobbie Schiff (id:1302632)

Richard Kidd Richard Kidd (id:1043605)

肯·拉斯顿 Ken Ralston (id:1295178)

马克·尼尔姆斯 Mark Nelmes (id:1293026)

罗伯特·斯特罗姆伯格 Robert Stromberg (id:1298560)

罗伯特·莱加托 Robert Legato (id:1289726)

凯里·维尔加斯 Carey Villegas (id:1300081)

◎简 介

查克(汤姆?汉克斯 Tom Hanks饰)任职于美国联邦快递,他系统工程师的职业决定了他的生活忙碌、自律、充满时间紧迫感。而查克总能把一切工作都井井有序的安排在每天的日程里,时间就在他的控制之下。他无暇顾及的只是女朋友凯莉(海伦?亨特 Helen Hunt 饰)。

一场飞机失事改变了这一切。所有人都以为查克丧生于这场灾难中,然而事实上他活了下来,被困在一个荒无人烟的小岛上。荒岛上的生活就连吃喝都成问题,查克成为了现代鲁滨逊。但另一方面,他在这里却因为与大自然依存,与险境搏斗,与孤独作伴,与饥饿抗争,得到了以前从来没有领悟到的感受。当他回到现代社会时,人生有了新的开始。

◎获奖情况 (共4项)

第73届奥斯卡金像奖 (2001)

最佳男主角(提名)

└──汤姆·汉克斯 (id:1054450)

最佳音响(提名)

第58届金球奖 (2001)

电影类 剧情片最佳男主角

└──汤姆·汉克斯 (id:1054450)

第54届英国电影学院奖 (2001)

电影奖 最佳男主角(提名)

└──汤姆·汉克斯 (id:1054450)

  1. ##### MediaInfo ######

  2. General

  3. Unique ID : 198519461886525373802000545587980347732 (0x9559752686517D5B989B9CEEBD2B2954)

  4. Complete name : Cast.Away.2000.BluRay.1080p.x265.10bit.2Audio-MiniHD.mkv

  5. Format : Matroska

  6. Format version : Version 4

  7. File size : 6.96 GiB

  8. Duration : 2 h 23 min

  9. Overall bit rate : 6 933 kb/s

  10. Encoded date : UTC 2016-11-04 15:07:18

  11. Writing application : mkvmerge v9.2.0 ('Photograph') 32bit

  12. Writing library : libebml v1.3.3 + libmatroska v1.4.4

  13. Video

  14. ID : 1

  15. Format : HEVC

  16. Format/Info : High Efficiency Video Coding

  17. Format profile : Main [email protected]@Main

  18. Codec ID : V_MPEGH/ISO/HEVC

  19. Duration : 2 h 23 min

  20. Bit rate : 5 602 kb/s

  21. Width : 1 920 pixels

  22. Height : 1 036 pixels

  23. Display aspect ratio : 1.85:1

  24. Frame rate mode : Constant

  25. Frame rate : 23.976 (24000/1001/53354) FPS

  26. Color space : YUV

  27. Chroma subsampling : 4:2:0

  28. Bit depth : 10 bits

  29. Bits/(Pixel*Frame) : 0.117

  30. Stream size : 5.63 GiB (81%)

  31. Writing library : x265 2.0+10-5a0e139e2938:[Windows][GCC 6.1.0][64 bit] 10bit

  32. Encoding settings : wpp / ctu=32 / min-cu-size=8 / max-tu-size=16 / tu-intra-depth=2 / tu-inter-depth=2 / me=3 / subme=5 / merange=25 / rect / no-amp / max-merge=3 / temporal-mvp / no-early-skip / rskip / rdpenalty=1 / no-tskip / no-tskip-fast / no-strong-intra-smoothing / no-lossless / no-cu-lossless / no-constrained-intra / no-fast-intra / no-open-gop / no-temporal-layers / interlace=0 / keyint=360 / min-keyint=1 / NTMzNTQ=uuDQuD2mJt9fsCf / scenecut=40 / rc-lookahead=60 / lookahead-slices=4 / bframes=8 / bframe-bias=0 / b-adapt=2 / ref=5 / limit-refs=3 / limit-modes / weightp / weightb / aq-mode=3 / qg-size=16 / aq-strength=0.90 / cbqpoffs=-3 / crqpoffs=-3 / rd=4 / psy-rd=1.00 / rdoq-level=2 / psy-rdoq=5.00 / no-rd-refine / signhide / deblock=-1:-1 / no-sao / no-sao-non-deblock / b-pyramid / cutree / no-intra-refresh / rc=crf / crf=21.0 / qcomp=0.65 / qpmin=0 / qpmax=69 / qpstep=4 / ipratio=1.40 / pbratio=1.30

  33. Default : Yes

  34. Forced : No

  35. Color range : Limited

  36. Color primaries : BT.709

  37. Audio #1

  38. ID : 2

  39. Format : AC-3

  40. Format/Info : Audio Coding 3

  41. Commercial name : Dolby Digital

  42. Codec ID : A_AC3

  43. Duration : 2 h 23 min

  44. Bit rate mode : Constant

  45. Bit rate : 640 kb/s

  46. Channel(s) : 6 channels

  47. Channel layout : L R C LFE Ls Rs

  48. Sampling rate : 48.0 kHz

  49. Frame rate : 31.250 FPS (1536 SPF)

  50. Compression mode : Lossy

  51. Stream size : 658 MiB (9%)

  52. Language : English

  53. Service kind : Complete Main

  54. Default : Yes

  55. Forced : No

  56. Audio #2

  57. ID : 3

  58. Format : AC-3

  59. Format/Info : Audio Coding 3

  60. Commercial name : Dolby Digital

  61. Codec ID : A_AC3

  62. Duration : 2 h 23 min

  63. Bit rate mode : Constant

  64. Bit rate : 640 kb/s

  65. Channel(s) : 6 channels

  66. Channel layout : L R C LFE Ls Rs

  67. Sampling rate : 48.0 kHz

  68. Frame rate : 31.250 FPS (1536 SPF)

  69. Compression mode : Lossy

  70. Stream size : 658 MiB (9%)

  71. Language : Chinese

  72. Service kind : Complete Main

  73. Default : No

  74. Forced : No

  75. Text #1

  76. ID : 4

  77. Format : PGS

  78. Muxing mode : zlib

  79. Codec ID : S_HDMV/PGS

  80. Codec ID/Info : Picture based subtitle format used on BDs/HD-DVDs

  81. Duration : 2 h 14 min

  82. Bit rate : 10.6 kb/s

  83. Count of elements : 1740

  84. Stream size : 10.2 MiB (0%)

  85. Language : English

  86. Default : Yes

  87. Forced : No

  88. Text #2

  89. ID : 5

  90. Format : PGS

  91. Muxing mode : zlib

  92. Codec ID : S_HDMV/PGS

  93. Codec ID/Info : Picture based subtitle format used on BDs/HD-DVDs

  94. Duration : 2 h 13 min

  95. Bit rate : 6 807 b/s

  96. Count of elements : 1660

  97. Stream size : 6.52 MiB (0%)

  98. Language : Chinese

  99. Default : No

  100. Forced : No

  101. Text #3

  102. ID : 6

  103. Format : PGS

  104. Muxing mode : zlib

  105. Codec ID : S_HDMV/PGS

  106. Codec ID/Info : Picture based subtitle format used on BDs/HD-DVDs

  107. Duration : 2 h 13 min

  108. Bit rate : 5 936 b/s

  109. Count of elements : 1513

  110. Stream size : 5.68 MiB (0%)

  111. Language : Chinese

  112. Default : No

  113. Forced : No

  114. Text #4

  115. ID : 7

  116. Format : PGS

  117. Muxing mode : zlib

  118. Codec ID : S_HDMV/PGS

  119. Codec ID/Info : Picture based subtitle format used on BDs/HD-DVDs

  120. Duration : 2 h 13 min

  121. Bit rate : 7 752 b/s

  122. Count of elements : 1513

  123. Stream size : 7.42 MiB (0%)

  124. Language : Chinese

  125. Default : No

  126. Forced : No

  127. Text #5

  128. ID : 8

  129. Format : PGS

  130. Muxing mode : zlib

  131. Codec ID : S_HDMV/PGS

  132. Codec ID/Info : Picture based subtitle format used on BDs/HD-DVDs

  133. Duration : 2 h 13 min

  134. Bit rate : 10.6 kb/s

  135. Count of elements : 1521

  136. Stream size : 10.1 MiB (0%)

  137. Language : Chinese

  138. Default : No

  139. Forced : No

  140. Text #6

  141. ID : 9

  142. Format : PGS

  143. Muxing mode : zlib

  144. Codec ID : S_HDMV/PGS

  145. Codec ID/Info : Picture based subtitle format used on BDs/HD-DVDs

  146. Duration : 2 h 13 min

  147. Bit rate : 10.6 kb/s

  148. Count of elements : 1521

  149. Stream size : 10.1 MiB (0%)

  150. Language : Chinese

  151. Default : No

  152. Forced : No

  153. Menu

  154. 00:00:00.000 : en:Chapter 01

  155. 00:01:50.819 : en:Chapter 02

  156. 00:08:37.850 : en:Chapter 03

  157. 00:12:23.325 : en:Chapter 04

  158. 00:17:41.268 : en:Chapter 05

  159. 00:20:43.533 : en:Chapter 06

  160. 00:22:40.233 : en:Chapter 07

  161. 00:25:45.460 : en:Chapter 08

  162. 00:31:11.619 : en:Chapter 09

  163. 00:35:55.319 : en:Chapter 10

  164. 00:39:35.623 : en:Chapter 11

  165. 00:42:23.207 : en:Chapter 12

  166. 00:46:34.208 : en:Chapter 13

  167. 00:51:49.314 : en:Chapter 14

  168. 00:56:29.052 : en:Chapter 15

  169. 01:01:34.357 : en:Chapter 16

  170. 01:04:33.119 : en:Chapter 17

  171. 01:13:11.845 : en:Chapter 18

  172. 01:17:37.736 : en:Chapter 19

  173. 01:19:09.744 : en:Chapter 20

  174. 01:20:42.045 : en:Chapter 21

  175. 01:26:37.900 : en:Chapter 22

  176. 01:34:00.176 : en:Chapter 23

  177. 01:40:37.364 : en:Chapter 24

  178. 01:45:21.398 : en:Chapter 25

  179. 01:47:38.368 : en:Chapter 26

  180. 01:53:30.470 : en:Chapter 27

  181. 01:55:59.952 : en:Chapter 28

  182. 02:04:59.575 : en:Chapter 29

  183. 02:08:27.574 : en:Chapter 30

  184. 02:12:21.725 : en:Chapter 31

  185. 02:16:54.414 : en:Chapter 32

  186. 02:23:45.616 : en:Chapter 33


复制代码



文件下载


除非特别注明,本文『荒岛余生[国英多音轨/中英字幕].Cast.Away.2000.BluRay.1080p.x265.10bit.2Audio-MiniHD 6.96GB』来源于互联网机器人自动抓取,非本站原创。 浮游电影网不对本文拥有版权,如有侵犯,请联系邮箱:fuyouu#yandex.com[#换成@]投诉。我们会在15个工作日内删除。 但烦请转载时请标明出处:“本文转载于『浮游电影网』,原文地址:https://www.fuyouu.com/22261.html

评论吧骚年!

发表你的见解   

昵称*

E-mail*(建议输入,以便收到博主回复的提示邮件)

验证码*

您可以使用eMule或eMule Mod(Windows)、aMule(Win、Linux、Mac)等软件下载eD2k链接。。
eMule收藏集(.emulecollection)文件是您选中的所有链接的列表文件。eMule可以直接下载它们。
按住SHIFT键选择可以选中多个选择框。
可用文件名和大小选择器来选择文件。
文件名选择器帮您根据文件名称或后缀来选择文件。不分大小写。
符号使用:
和:空格( )、+
不包含:-
或:|
转义:一对英文引号("");
匹配开头:^
匹配结尾:$
例如:
选中所有名称中包含有“eMule”或“0.49c”字眼,但不包含有“exe”字眼的:emule|0.49c -exe
选中所有名称的开头是“eMule”,结尾是“0.49c”的:^emule 0.49c$
选中所有名称中带有“eMule 0.49c”的(必须是“eMule 0.49c”,中间没有别的字符,不能是“eMule fake 0.49c”),需要转义:"emule 0.49c"
大小选择器帮您根据文件大小选择文件。