当前位置: 首页 >> 欧美电影 >> 致命快感[国英多音轨/中英字幕].The.Quick.and.the.Dead.1995.BluRay.1080p.x265.10bit.2Audio-MiniHD 6.93GB >> 正文

致命快感[国英多音轨/中英字幕].The.Quick.and.the.Dead.1995.BluRay.1080p.x265.10bit.2Audio-MiniHD 6.93GB

2022年05月23日 12:05:32     电影发布:来源于网络     电影分类:欧美电影     评论(0)    

◎译 名 致命快感 / 风舞狂沙 / 凤舞狂沙

◎片 名 The Quick and the Dead

◎年 代 1995

◎产 地 美国 / 日本

◎类 别 动作 / 西部 / 冒险

◎语 言 英语

◎上映日期 1995-02-10(美国)

◎IMDb链接 https://www.imdb.com/title/tt0114214/

◎豆瓣评分 6.8/10 (5812人评价)

◎豆瓣链接 https://movie.douban.com/subject/1295773/

◎片 长 107 分钟

◎导 演 山姆·雷米 Sam Raimi (id:1027159)

◎编 剧 西蒙·摩尔 Simon Moore (id:1292423)

◎演 员 莎朗·斯通 Sharon Stone (id:1031822)

罗素·克劳 Russell Crowe (id:1016674)

吉恩·哈克曼 Gene Hackman (id:1004589)

莱昂纳多·迪卡普里奥 Leonardo DiCaprio (id:1041029)

托宾·贝尔 Tobin Bell (id:1025219)

伍迪·斯特罗德 Woody Strode (id:1025269)

帕特里克·马基 Patrick Markey (id:1291017)

埃里克·齐默尔曼 Eric Zimmerman (id:1375254)

Brian Stewart Brian Stewart (id:1311764)

帕特里季亚·冯·布兰登斯坦 Patrizia von Brandenstein (id:1300169)

朱迪安娜·马科夫斯基 Judianna Makovsky (id:1290783)

邦尼·帕克尔 Bunny Parker (id:1293970)

安妮·摩根 Anne Morgan (id:1292487)

Gary Liddiard Gary Liddiard (id:1290022)

保罗·勒布朗 Paul LeBlanc (id:1289615)

Loretta James-Demasi Loretta James-Demasi (id:1287577)

小弗雷德·C·布鲁 Fred C. Blau Jr. (id:1278788)

Lisa C. Satriano Lisa C. Satriano (id:1276451)

特里·伦纳德 Terry Leonard (id:1289809)

罗布·霍奇森 Rob Hodgson (id:1286743)

◎简 介

美艳的神秘女郎爱伦(莎朗·斯通 Sharon Stone 饰)突然闯进美国西部一个充满暴力的小镇,为了一段不堪回首的回忆而开展复仇。在她到达小镇后不久,一位名叫科特的牧师(罗素·克劳 Russell Crowe 饰)也来到小镇。与此同时,蜂拥而至的神枪手们也从四面八方纷纷赶来。而让他们趋之若鹜的原因,是一场以巨额奖金为诱饵的枪击比赛。比赛只有一条规则,就是完全遵守大魔王赫罗德(吉恩·哈克曼 Gene Hackman 饰)的规则。赫罗德借此向镇民们征收大量税金。不仅如此,只手遮天、无恶不作的赫罗德更想通过这次枪击比赛,让高手们彼此厮杀,从而坐享渔翁之利。残酷的枪击比赛没有丝毫人性可言,半决赛中,赫罗德甚至亲手杀死了自己的儿子基德(莱昂纳多·迪卡普里奥 Leonardo DiCaprio 饰)。终于,一场扣人心弦的生死决斗在科特与赫罗德之间展开了。

  1. ##### MediaInfo ######

  2. General

  3. Unique ID : 220406161261539458597835340848983877737 (0xA5D0AEBE399D9BBA869B9961F382A869)

  4. Complete name : The.Quick.and.the.Dead.1995.BluRay.1080p.x265.10bit.2Audio-MiniHD.mkv

  5. Format : Matroska

  6. Format version : Version 4

  7. File size : 6.93 GiB

  8. Duration : 1 h 47 min

  9. Overall bit rate : 9 202 kb/s

  10. Encoded date : UTC 2016-07-27 04:47:21

  11. Writing application : mkvmerge v9.2.0 ('Photograph') 32bit

  12. Writing library : libebml v1.3.3 + libmatroska v1.4.4

  13. Video

  14. ID : 1

  15. Format : HEVC

  16. Format/Info : High Efficiency Video Coding

  17. Format profile : Main [email protected]@Main

  18. Codec ID : V_MPEGH/ISO/HEVC

  19. Duration : 1 h 47 min

  20. Bit rate : 7 739 kb/s

  21. Width : 1 920 pixels

  22. Height : 1 036 pixels

  23. Display aspect ratio : 1.85:1

  24. Frame rate mode : Constant

  25. Frame rate : 23.976 (24000/1001/53354) FPS

  26. Color space : YUV

  27. Chroma subsampling : 4:2:0

  28. Bit depth : 10 bits

  29. Bits/(Pixel*Frame) : 0.162

  30. Stream size : 5.83 GiB (84%)

  31. Writing library : x265 1.9+229-a932b4366235:[Windows][GCC 5.3.1][64 bit] 10bit

  32. Encoding settings : wpp / ctu=32 / min-cu-size=8 / max-tu-size=16 / tu-intra-depth=2 / tu-inter-depth=2 / me=3 / subme=5 / merange=25 / no-rect / no-amp / max-merge=3 / temporal-mvp / no-early-skip / rskip / rdpenalty=1 / no-tskip / no-tskip-fast / no-strong-intra-smoothing / no-lossless / no-cu-lossless / no-constrained-intra / no-fast-intra / no-open-gop / no-temporal-layers / interlace=0 / keyint=360 / min-keyint=1 / NTMzNTQ=uuDQuD2mJt9fsCf / scenecut=40 / rc-lookahead=60 / lookahead-slices=4 / bframes=8 / bframe-bias=0 / b-adapt=2 / ref=5 / limit-refs=3 / limit-modes / weightp / weightb / aq-mode=1 / qg-size=16 / aq-strength=1.00 / cbqpoffs=0 / crqpoffs=0 / rd=4 / psy-rd=0.30 / rdoq-level=1 / psy-rdoq=5.00 / no-rd-refine / signhide / deblock=-1:-1 / no-sao / no-sao-non-deblock / b-pyramid / no-cutree / no-intra-refresh / rc=crf / crf=20.0 / qcomp=0.70 / qpmin=0 / qpmax=51 / qpstep=4 / ipratio=1.40 / pbratio=1.30

  33. Default : Yes

  34. Forced : No

  35. Color range : Limited

  36. Color primaries : BT.709

  37. Audio #1

  38. ID : 2

  39. Format : AC-3

  40. Format/Info : Audio Coding 3

  41. Commercial name : Dolby Digital

  42. Codec ID : A_AC3

  43. Duration : 1 h 47 min

  44. Bit rate mode : Constant

  45. Bit rate : 640 kb/s

  46. Channel(s) : 6 channels

  47. Channel layout : L R C LFE Ls Rs

  48. Sampling rate : 48.0 kHz

  49. Frame rate : 31.250 FPS (1536 SPF)

  50. Compression mode : Lossy

  51. Stream size : 493 MiB (7%)

  52. Language : English

  53. Service kind : Complete Main

  54. Default : Yes

  55. Forced : No

  56. Audio #2

  57. ID : 3

  58. Format : AC-3

  59. Format/Info : Audio Coding 3

  60. Commercial name : Dolby Digital

  61. Codec ID : A_AC3

  62. Duration : 1 h 47 min

  63. Bit rate mode : Constant

  64. Bit rate : 640 kb/s

  65. Channel(s) : 6 channels

  66. Channel layout : L R C LFE Ls Rs

  67. Sampling rate : 48.0 kHz

  68. Frame rate : 31.250 FPS (1536 SPF)

  69. Compression mode : Lossy

  70. Stream size : 493 MiB (7%)

  71. Language : Chinese

  72. Service kind : Complete Main

  73. Default : No

  74. Forced : No

  75. Text #1

  76. ID : 4

  77. Format : PGS

  78. Muxing mode : zlib

  79. Codec ID : S_HDMV/PGS

  80. Codec ID/Info : Picture based subtitle format used on BDs/HD-DVDs

  81. Language : English

  82. Default : Yes

  83. Forced : No

  84. Text #2

  85. ID : 5

  86. Format : PGS

  87. Muxing mode : zlib

  88. Codec ID : S_HDMV/PGS

  89. Codec ID/Info : Picture based subtitle format used on BDs/HD-DVDs

  90. Language : Chinese

  91. Default : No

  92. Forced : No

  93. Text #3

  94. ID : 6

  95. Format : PGS

  96. Muxing mode : zlib

  97. Codec ID : S_HDMV/PGS

  98. Codec ID/Info : Picture based subtitle format used on BDs/HD-DVDs

  99. Language : Chinese

  100. Default : No

  101. Forced : No

  102. Text #4

  103. ID : 7

  104. Format : PGS

  105. Muxing mode : zlib

  106. Codec ID : S_HDMV/PGS

  107. Codec ID/Info : Picture based subtitle format used on BDs/HD-DVDs

  108. Language : Chinese

  109. Default : No

  110. Forced : No

  111. Text #5

  112. ID : 8

  113. Format : PGS

  114. Muxing mode : zlib

  115. Codec ID : S_HDMV/PGS

  116. Codec ID/Info : Picture based subtitle format used on BDs/HD-DVDs

  117. Language : Chinese

  118. Default : No

  119. Forced : No

  120. Text #6

  121. ID : 9

  122. Format : PGS

  123. Muxing mode : zlib

  124. Codec ID : S_HDMV/PGS

  125. Codec ID/Info : Picture based subtitle format used on BDs/HD-DVDs

  126. Language : Chinese

  127. Default : No

  128. Forced : No

  129. Text #7

  130. ID : 10

  131. Format : PGS

  132. Muxing mode : zlib

  133. Codec ID : S_HDMV/PGS

  134. Codec ID/Info : Picture based subtitle format used on BDs/HD-DVDs

  135. Language : Chinese

  136. Default : No

  137. Forced : No

  138. Menu

  139. 00:00:00.000 : en:Chapter 01

  140. 00:07:20.314 : en:Chapter 02

  141. 00:15:25.174 : en:Chapter 03

  142. 00:20:39.529 : en:Chapter 04

  143. 00:28:14.149 : en:Chapter 05

  144. 00:34:40.620 : en:Chapter 06

  145. 00:40:48.904 : en:Chapter 07

  146. 00:47:40.357 : en:Chapter 08

  147. 00:53:18.944 : en:Chapter 09

  148. 00:59:50.753 : en:Chapter 10

  149. 01:06:26.564 : en:Chapter 11

  150. 01:12:24.923 : en:Chapter 12

  151. 01:16:25.330 : en:Chapter 13

  152. 01:24:02.620 : en:Chapter 14

  153. 01:33:44.243 : en:Chapter 15

  154. 01:38:36.285 : en:Chapter 16


复制代码



文件下载


除非特别注明,本文『致命快感[国英多音轨/中英字幕].The.Quick.and.the.Dead.1995.BluRay.1080p.x265.10bit.2Audio-MiniHD 6.93GB』来源于互联网机器人自动抓取,非本站原创。 浮游电影网不对本文拥有版权,如有侵犯,请联系邮箱:fuyouu#yandex.com[#换成@]投诉。我们会在15个工作日内删除。 但烦请转载时请标明出处:“本文转载于『浮游电影网』,原文地址:https://www.fuyouu.com/22260.html

评论吧骚年!

发表你的见解   

昵称*

E-mail*(建议输入,以便收到博主回复的提示邮件)

验证码*

您可以使用eMule或eMule Mod(Windows)、aMule(Win、Linux、Mac)等软件下载eD2k链接。。
eMule收藏集(.emulecollection)文件是您选中的所有链接的列表文件。eMule可以直接下载它们。
按住SHIFT键选择可以选中多个选择框。
可用文件名和大小选择器来选择文件。
文件名选择器帮您根据文件名称或后缀来选择文件。不分大小写。
符号使用:
和:空格( )、+
不包含:-
或:|
转义:一对英文引号("");
匹配开头:^
匹配结尾:$
例如:
选中所有名称中包含有“eMule”或“0.49c”字眼,但不包含有“exe”字眼的:emule|0.49c -exe
选中所有名称的开头是“eMule”,结尾是“0.49c”的:^emule 0.49c$
选中所有名称中带有“eMule 0.49c”的(必须是“eMule 0.49c”,中间没有别的字符,不能是“eMule fake 0.49c”),需要转义:"emule 0.49c"
大小选择器帮您根据文件大小选择文件。