当前位置: 首页 >> 欧美电影 >> 亚当计划[简繁英字幕].The.Adam.Project.2022.2160p.NF.WEB-DL.HDR.HEVC.Atmos.DDP5.1-OPT 11.65GB >> 正文

亚当计划[简繁英字幕].The.Adam.Project.2022.2160p.NF.WEB-DL.HDR.HEVC.Atmos.DDP5.1-OPT 11.65GB

2022年05月20日 21:39:49     电影发布:来源于网络     电影分类:欧美电影     评论(0)    

◎译 名 亚当计划 / 超时空亚当计划(港) / 超时空亚当计画(台) / Our Name Is Adam

◎片 名 The Adam Project

◎年 代 2022

◎产 地 美国

◎类 别 喜剧 / 动作 / 科幻 / 冒险

◎语 言 英语

◎上映日期 2022-03-11(美国网络)

◎IMDb链接 https://www.imdb.com/title/tt2463208/

◎豆瓣评分 6.3/10 (30234人评价)

◎豆瓣链接 https://movie.douban.com/subject/34970181/

◎片 长 106分钟

◎导 演 肖恩·利维 Shawn Levy (id:1289935)

◎编 剧 乔纳森·崔普尔 Jonathan Tropper (id:1343226)

T·S·诺林 T.S. Nowlin (id:1342902)

珍妮佛·弗莱基特 Jennifer Flackett (id:1333775)

马克·莱温 Mark Levin (id:1317873)

◎演 员 瑞安·雷诺兹 Ryan Reynolds (id:1053623)

沃克·斯科贝尔 Walker Scobell (id:1468766)

马克·鲁弗洛 Mark Ruffalo (id:1040505)

詹妮弗·加纳 Jennifer Garner (id:1054512)

佐伊·索尔达娜 Zoe Saldana (id:1047985)

凯瑟琳·基纳 Catherine Keener (id:1002681)

小亚历克斯·马里亚里 Alex Mallari Jr. (id:1468769)

布拉克斯顿·比肯 Braxton Bjerken (id:1402795)

卡斯拉·王 Kasra Wong (id:1468772)

露西·格斯特 Lucie Guest (id:1468767)

唐纳德·沙利斯 Donald Sales (id:1469098)

Esther Li Esther Li (id:1455460)

本·威尔金森 Ben Wilkinson (id:1360570)

以赛亚·海格特 Isaiah Haegert (id:1469099)

米洛·山德尔 Milo Shandel (id:1468771)

埃莉·哈维 Ellie Harvie (id:1286188)

梅拉尼·休伯特 Mellanie Hubert (id:1468768)

◎简 介

一名飞行员穿越时空,与年轻的自己和已故的父亲一起面对过去,拯救未来。

  1. ##### MediaInfo ######

  2. General

  3. Unique ID : 28572478482494425059167753868579760119 (0x157EDBF3D77BF0EF0B3184DC5C10E7F7)

  4. Complete name : The.Adam.Project.2022.2160p.NF.WEB-DL.HDR.HEVC.Atmos.DDP5.1-OPT.mkv

  5. Format : Matroska

  6. Format version : Version 4

  7. File size : 11.6 GiB

  8. Duration : 1 h 46 min

  9. Overall bit rate : 15.6 Mb/s

  10. Movie name : The Adam Project

  11. Encoded date : UTC 2022-05-19 11:14:09

  12. Writing application : mkvmerge v61.0.0 ('So') 64-bit

  13. Writing library : libebml v1.4.2 + libmatroska v1.6.4

  14. Cover : Yes

  15. Attachments : Cover.jpg

  16. IMDB : tt2463208

  17. TMDB : movie/696806

  18. Video

  19. ID : 1

  20. Format : HEVC

  21. Format/Info : High Efficiency Video Coding

  22. Format profile : Main [email protected]@Main

  23. HDR format : SMPTE ST 2086, HDR10 compatible

  24. Codec ID : V_MPEGH/ISO/HEVC

  25. Duration : 1 h 44 min

  26. Bit rate : 15.1 Mb/s

  27. Width : 3 840 pixels

  28. Height : 2 160 pixels

  29. Display aspect ratio : 16:9

  30. Frame rate mode : Constant

  31. Frame rate : 24.000 FPS

  32. Color space : YUV

  33. Chroma subsampling : 4:2:0 (Type 2)

  34. Bit depth : 10 bits

  35. Bits/(Pixel*Frame) : 0.076

  36. Stream size : 11.0 GiB (94%)

  37. Default : Yes

  38. Forced : No

  39. Color range : Limited

  40. Color primaries : BT.2020

  41. Transfer characteristics : PQ

  42. Matrix coefficients : BT.2020 non-constant

  43. Mastering display color primaries : Display P3

  44. Mastering display luminance : min: 0.0001 cd/m2, max: 1000 cd/m2

  45. Maximum Content Light Level : 1634 cd/m2

  46. Maximum Frame-Average Light Level : 109 cd/m2

  47. Audio

  48. ID : 2

  49. Format : E-AC-3 JOC

  50. Format/Info : Enhanced AC-3 with Joint Object Coding

  51. Commercial name : Dolby Digital Plus with Dolby Atmos

  52. Codec ID : A_EAC3

  53. Duration : 1 h 46 min

  54. Bit rate mode : Constant

  55. Bit rate : 768 kb/s

  56. Channel(s) : 6 channels

  57. Channel layout : L R C LFE Ls Rs

  58. Sampling rate : 48.0 kHz

  59. Frame rate : 31.250 FPS (1536 SPF)

  60. Compression mode : Lossy

  61. Stream size : 586 MiB (5%)

  62. Title : DDP Atmos 5.1

  63. Language : English

  64. Service kind : Complete Main

  65. Default : Yes

  66. Forced : No

  67. Complexity index : 16

  68. Number of dynamic objects : 15

  69. Bed channel count : 1 channel

  70. Bed channel configuration : LFE

  71. Text #1

  72. ID : 3

  73. Format : UTF-8

  74. Codec ID : S_TEXT/UTF8

  75. Codec ID/Info : UTF-8 Plain Text

  76. Duration : 1 h 42 min

  77. Bit rate : 106 b/s

  78. Count of elements : 1818

  79. Stream size : 79.7 KiB (0%)

  80. Title : English (SDH)

  81. Language : English

  82. Default : No

  83. Forced : No

  84. Text #2

  85. ID : 4

  86. Format : UTF-8

  87. Codec ID : S_TEXT/UTF8

  88. Codec ID/Info : UTF-8 Plain Text

  89. Duration : 1 h 43 min

  90. Bit rate : 56 b/s

  91. Count of elements : 1483

  92. Stream size : 42.8 KiB (0%)

  93. Title : Spanish (Castilian)

  94. Language : Spanish

  95. Default : No

  96. Forced : No

  97. Text #3

  98. ID : 5

  99. Format : UTF-8

  100. Codec ID : S_TEXT/UTF8

  101. Codec ID/Info : UTF-8 Plain Text

  102. Duration : 1 h 43 min

  103. Bit rate : 57 b/s

  104. Count of elements : 1493

  105. Stream size : 43.6 KiB (0%)

  106. Title : Spanish (Latin American)

  107. Language : Spanish

  108. Default : No

  109. Forced : No

  110. Text #4

  111. ID : 6

  112. Format : UTF-8

  113. Codec ID : S_TEXT/UTF8

  114. Codec ID/Info : UTF-8 Plain Text

  115. Duration : 1 h 43 min

  116. Bit rate : 56 b/s

  117. Count of elements : 1542

  118. Stream size : 42.9 KiB (0%)

  119. Title : French (Parisian)

  120. Language : French

  121. Default : No

  122. Forced : No

  123. Text #5

  124. ID : 7

  125. Format : UTF-8

  126. Codec ID : S_TEXT/UTF8

  127. Codec ID/Info : UTF-8 Plain Text

  128. Duration : 1 h 43 min

  129. Bit rate : 66 b/s

  130. Count of elements : 1496

  131. Stream size : 50.2 KiB (0%)

  132. Title : 简体中字

  133. Language : Chinese

  134. Default : No

  135. Forced : No

  136. Text #6

  137. ID : 8

  138. Format : UTF-8

  139. Codec ID : S_TEXT/UTF8

  140. Codec ID/Info : UTF-8 Plain Text

  141. Duration : 1 h 43 min

  142. Bit rate : 61 b/s

  143. Count of elements : 1607

  144. Stream size : 46.4 KiB (0%)

  145. Title : 繁体中字

  146. Language : Chinese

  147. Default : No

  148. Forced : No

  149. Text #7

  150. ID : 9

  151. Format : PGS

  152. Muxing mode : zlib

  153. Codec ID : S_HDMV/PGS

  154. Codec ID/Info : Picture based subtitle format used on BDs/HD-DVDs

  155. Duration : 1 h 35 min

  156. Bit rate : 43.1 kb/s

  157. Count of elements : 2989

  158. Stream size : 29.5 MiB (0%)

  159. Title : 简体中字

  160. Language : Chinese

  161. Default : Yes

  162. Forced : No

  163. Text #8

  164. ID : 10

  165. Format : PGS

  166. Muxing mode : zlib

  167. Codec ID : S_HDMV/PGS

  168. Codec ID/Info : Picture based subtitle format used on BDs/HD-DVDs

  169. Duration : 1 h 35 min

  170. Bit rate : 44.1 kb/s

  171. Count of elements : 2989

  172. Stream size : 30.2 MiB (0%)

  173. Title : 繁体中字

  174. Language : Chinese

  175. Default : Yes

  176. Forced : No

  177. Text #9

  178. ID : 11

  179. Format : PGS

  180. Muxing mode : zlib

  181. Codec ID : S_HDMV/PGS

  182. Codec ID/Info : Picture based subtitle format used on BDs/HD-DVDs

  183. Duration : 1 h 35 min

  184. Bit rate : 69.6 kb/s

  185. Count of elements : 2989

  186. Stream size : 47.7 MiB (0%)

  187. Title : 简英双语

  188. Language : Chinese

  189. Default : Yes

  190. Forced : No

  191. Text #10

  192. ID : 12

  193. Format : PGS

  194. Muxing mode : zlib

  195. Codec ID : S_HDMV/PGS

  196. Codec ID/Info : Picture based subtitle format used on BDs/HD-DVDs

  197. Duration : 1 h 35 min

  198. Bit rate : 70.6 kb/s

  199. Count of elements : 2989

  200. Stream size : 48.3 MiB (0%)

  201. Title : 繁英双语

  202. Language : Chinese

  203. Default : Yes

  204. Forced : No

  205. Menu

  206. 01:38:36.000 : End Credits



文件下载


除非特别注明,本文『亚当计划[简繁英字幕].The.Adam.Project.2022.2160p.NF.WEB-DL.HDR.HEVC.Atmos.DDP5.1-OPT 11.65GB』来源于互联网机器人自动抓取,非本站原创。 浮游电影网不对本文拥有版权,如有侵犯,请联系邮箱:fuyouu#yandex.com[#换成@]投诉。我们会在15个工作日内删除。 但烦请转载时请标明出处:“本文转载于『浮游电影网』,原文地址:https://www.fuyouu.com/22257.html

评论吧骚年!

发表你的见解   

昵称*

E-mail*(建议输入,以便收到博主回复的提示邮件)

验证码*

您可以使用eMule或eMule Mod(Windows)、aMule(Win、Linux、Mac)等软件下载eD2k链接。。
eMule收藏集(.emulecollection)文件是您选中的所有链接的列表文件。eMule可以直接下载它们。
按住SHIFT键选择可以选中多个选择框。
可用文件名和大小选择器来选择文件。
文件名选择器帮您根据文件名称或后缀来选择文件。不分大小写。
符号使用:
和:空格( )、+
不包含:-
或:|
转义:一对英文引号("");
匹配开头:^
匹配结尾:$
例如:
选中所有名称中包含有“eMule”或“0.49c”字眼,但不包含有“exe”字眼的:emule|0.49c -exe
选中所有名称的开头是“eMule”,结尾是“0.49c”的:^emule 0.49c$
选中所有名称中带有“eMule 0.49c”的(必须是“eMule 0.49c”,中间没有别的字符,不能是“eMule fake 0.49c”),需要转义:"emule 0.49c"
大小选择器帮您根据文件大小选择文件。