当前位置: 首页 >> 欧美电影 >> 瞬息全宇宙[中英字幕/特效字幕].Everything.Everywhere.All.At.Once.2022.1080p.WEB-DL.DDP5.1.H.264-CTRLHD 6.50GB >> 正文

瞬息全宇宙[中英字幕/特效字幕].Everything.Everywhere.All.At.Once.2022.1080p.WEB-DL.DDP5.1.H.264-CTRLHD 6.50GB

2022年05月20日 21:38:16     电影发布:来源于网络     电影分类:欧美电影     评论(0)    

◎译 名 瞬息全宇宙 / 妈的多重宇宙(台) / 全部世界同时一切 / 瞬息各处所有 / 天马行空(新加坡) / 奇异女侠玩救宇宙(港)

◎片 名 Everything Everywhere All at Once

◎年 代 2022

◎产 地 美国

◎类 别 喜剧 / 奇幻 / 冒险

◎语 言 英语 / 汉语普通话 / 粤语

◎上映日期 2022-03-11(西南偏南电影节) / 2022-03-25(美国)

◎IMDb链接 https://www.imdb.com/title/tt6710474/

◎豆瓣评分 8.7/10 (11759人评价)

◎豆瓣链接 https://movie.douban.com/subject/30314848/

◎片 长 132分钟

◎导 演 丹·关 Dan Kwan (id:1356396)

丹尼尔·施纳特 Daniel Scheinert (id:1356397)

◎编 剧 丹·关 Dan Kwan (id:1356396)

丹尼尔·施纳特 Daniel Scheinert (id:1356397)

◎演 员 杨紫琼 Michelle Yeoh (id:1022664)

斯蒂芬妮·许 Stephanie Hsu (id:1356993)

关继威 Jonathan Ke Quan (id:1022565)

吴汉章 James Hong (id:1031824)

杰米·李·柯蒂斯 Jamie Lee Curtis (id:1041127)

珍妮·斯蕾特 Jenny Slate (id:1230973)

塔丽·梅德尔 Tallie Medel (id:1353816)

岑勇康 Harry Shum Jr. (id:1044718)

比夫·威夫 Biff Wiff (id:1469370)

苏妮特·玛尼 Sunita Mani (id:1366880)

阿隆·拉扎尔 Aaron Lazar (id:1343713)

布莱恩·勒 Brian Le (id:1456759)

安迪·黎 Andy Le (id:1456768)

切尔西·戈德史密斯 Chelsey Goldsmith (id:1469371)

克雷格·亨宁森 Craig Henningsen (id:1229199)

安东尼·莫利纳利 Anthony Molinari (id:1045545)

丹·布朗 Dan Brown (id:1181319)

帕努瓦特·安东尼·纳纳肯帕诺姆 Panuvat Anthony Nanakornpanom (id:1309119)

卡拉·玛丽·乔尔简 Cara Marie Chooljian (id:1469372)

兰达尔·阿切尔 Randall Archer (id:1351135)

埃夫卡·科瓦拉西尤斯 Efka Kvaraciejus (id:1331229)

奥德丽·瓦西莱夫斯基 Audrey Wasilewski (id:1328955)

布恩·平考 Boon Pin Koh (id:1377199)

蒂莫西·尤里齐 Timothy Eulich (id:1356398)

西协美智子 Michiko Nishiwaki (id:1041987)

蒂莫西·斯科特·拉尔斯顿 Timothy Scott Ralston (id:1148643)

D.Y. Sao D.Y. Sao (id:1239718)

安东尼·罗素 Anthony Russo (id:1321812)

乔·罗素 Joe Russo (id:1320870)

丹尼尔·施纳特 Daniel Scheinert (id:1356397)

丹·关 Dan Kwan (id:1356396)

杨紫琼 Michelle Yeoh (id:1022664)

萨拉·芬兰 Sarah Finn (id:1283741)

迈克·拉罗卡 Mike Larocca (id:1452625)

托德·马库拉思 Todd Makurath (id:1452633)

萨拉·芬兰 Sarah Finn (id:1283741)

◎简 介

55岁的美国华裔移民秀莲(杨紫琼 饰)家庭事业两崩溃。在老爸爸生日大寿这天,除了要阻止女儿(斯蒂芬妮·许 饰)暴走出柜、替无用丈夫(关继威 饰)擦屁股,还得去税务局向古板大婶(杰米·李·柯蒂斯 饰)解释不太妙的税务问题。才踏进大楼电梯,软烂丈夫竟摇身一变演起黑客任务,声 称自己是另一个宇宙的版本,而秀莲也是千万宇宙里的其中一个。还来不及理解,邪恶势力已在多元宇宙中蔓延,世界即将毁灭,只有在这个宇宙里,“一无是处”的秀莲才能拯救世界……

  1. ##### MediaInfo ######

  2. General

  3. Unique ID : 192454538627531261165669989626302788478 (0x90C96558E3C3A27A1CB818A2768D737E)

  4. Complete name : Everything.Everywhere.All.At.Once.2022.1080p.WEB-DL.DDP5.1.H.264-CTRLHD.mkv

  5. Format : Matroska

  6. Format version : Version 4

  7. File size : 6.50 GiB

  8. Duration : 2 h 19 min

  9. Overall bit rate : 6 679 kb/s

  10. Encoded date : UTC 2022-05-19 08:34:36

  11. Writing application : mkvmerge v20.0.0 ('I Am The Sun') 64-bit

  12. Writing library : libebml v1.3.5 + libmatroska v1.4.8

  13. Video

  14. ID : 1

  15. Format : AVC

  16. Format/Info : Advanced Video Codec

  17. Format profile : [email protected]

  18. Format settings : CABAC / 2 Ref Frames

  19. Format settings, CABAC : Yes

  20. Format settings, Reference frames : 2 frames

  21. Codec ID : V_MPEG4/ISO/AVC

  22. Duration : 2 h 19 min

  23. Bit rate : 6 197 kb/s

  24. Width : 1 920 pixels

  25. Height : 1 080 pixels

  26. Display aspect ratio : 16:9

  27. Frame rate mode : Constant

  28. Frame rate : 23.976 (24000/1001/53354) FPS

  29. Color space : YUV

  30. Chroma subsampling : 4:2:0

  31. Bit depth : 8 bits

  32. Scan type : Progressive

  33. Bits/(Pixel*Frame) : 0.125

  34. Stream size : 6.03 GiB (93%)

  35. Writing library : x264 core 155 r2901 7d0ff22

  36. Default : Yes

  37. Forced : No

  38. Color range : Limited

  39. Color primaries : BT.709

  40. Transfer characteristics : BT.709

  41. Matrix coefficients : BT.709

  42. Audio

  43. ID : 2

  44. Format : E-AC-3

  45. Format/Info : Enhanced AC-3

  46. Commercial name : Dolby Digital Plus

  47. Codec ID : A_EAC3

  48. Duration : 2 h 19 min

  49. Bit rate mode : Constant

  50. Bit rate : 384 kb/s

  51. Channel(s) : 6 channels

  52. Channel layout : L R C LFE Ls Rs

  53. Sampling rate : 48.0 kHz

  54. Frame rate : 31.250 FPS (1536 SPF)

  55. Compression mode : Lossy

  56. Stream size : 383 MiB (6%)

  57. Language : English

  58. Service kind : Complete Main

  59. Default : Yes

  60. Forced : No

  61. Text

  62. ID : 3

  63. Format : PGS

  64. Muxing mode : zlib

  65. Codec ID : S_HDMV/PGS

  66. Codec ID/Info : Picture based subtitle format used on BDs/HD-DVDs

  67. Duration : 2 h 18 min

  68. Bit rate : 169 kb/s

  69. Count of elements : 10439

  70. Stream size : 168 MiB (3%)

  71. Default : Yes

  72. Forced : No


复制代码



文件下载


除非特别注明,本文『瞬息全宇宙[中英字幕/特效字幕].Everything.Everywhere.All.At.Once.2022.1080p.WEB-DL.DDP5.1.H.264-CTRLHD 6.50GB』来源于互联网机器人自动抓取,非本站原创。 浮游电影网不对本文拥有版权,如有侵犯,请联系邮箱:fuyouu#yandex.com[#换成@]投诉。我们会在15个工作日内删除。 但烦请转载时请标明出处:“本文转载于『浮游电影网』,原文地址:https://www.fuyouu.com/22256.html

评论吧骚年!

发表你的见解   

昵称*

E-mail*(建议输入,以便收到博主回复的提示邮件)

验证码*

您可以使用eMule或eMule Mod(Windows)、aMule(Win、Linux、Mac)等软件下载eD2k链接。。
eMule收藏集(.emulecollection)文件是您选中的所有链接的列表文件。eMule可以直接下载它们。
按住SHIFT键选择可以选中多个选择框。
可用文件名和大小选择器来选择文件。
文件名选择器帮您根据文件名称或后缀来选择文件。不分大小写。
符号使用:
和:空格( )、+
不包含:-
或:|
转义:一对英文引号("");
匹配开头:^
匹配结尾:$
例如:
选中所有名称中包含有“eMule”或“0.49c”字眼,但不包含有“exe”字眼的:emule|0.49c -exe
选中所有名称的开头是“eMule”,结尾是“0.49c”的:^emule 0.49c$
选中所有名称中带有“eMule 0.49c”的(必须是“eMule 0.49c”,中间没有别的字符,不能是“eMule fake 0.49c”),需要转义:"emule 0.49c"
大小选择器帮您根据文件大小选择文件。