当前位置: 首页 >> 欧美电影 >> 美国甜心[中英字幕].American.Honey.2016.BluRay.1080p.x265.10bit-MiniHD 6.51GB >> 正文

美国甜心[中英字幕].American.Honey.2016.BluRay.1080p.x265.10bit-MiniHD 6.51GB

2022年05月20日 21:15:19     电影发布:来源于网络     电影分类:欧美电影     评论(0)    

◎译 名 美国甜心

◎片 名 American Honey

◎年 代 2016

◎产 地 美国 / 英国

◎类 别 剧情

◎语 言 英语

◎上映日期 2016-05-15(戛纳电影节) / 2016-09-30(美国)

◎IMDb链接 https://www.imdb.com/title/tt3721936/

◎豆瓣评分 7.4/10 (16302人评价)

◎豆瓣链接 https://movie.douban.com/subject/25884741/

◎片 长 163分钟

◎导 演 安德里亚·阿诺德 Andrea Arnold (id:1000325)

◎编 剧 安德里亚·阿诺德 Andrea Arnold (id:1000325)

◎演 员 萨莎·莱恩 Sasha Lane (id:1356951)

希亚·拉博夫 Shia LaBeouf (id:1022000)

丽莉·吉欧 Riley Keough (id:1237039)

麦考尔·隆巴蒂 McCaul Lombardi (id:1356705)

阿莉尔·霍尔姆斯 Arielle Holmes (id:1351686)

威尔·帕顿 Will Patton (id:1019066)

乍得·考克斯 Chad Cox (id:1365785)

以赛亚·斯通 Isaiah Stone (id:1365786)

劳拉·柯克 Laura Kirk (id:1453693)

罗比·瑞恩 Robbie Ryan (id:1323276)

◎简 介

斯塔(萨莎·莱恩 Sasha Lane 饰)带着妹妹和酒鬼父亲过着相依为命的生活,姐妹两人靠着在垃圾堆里捡别人吃剩的食物过活,不仅如此,斯塔还承受着来自父亲的侵犯和猥亵,精神在压抑中渐渐趋向绝望。某日,斯塔在偶然之中认识了名为杰克(希亚·拉博夫 Shia LaBeouf 饰)的男子,杰克是一支杂志推销团队里的领头人物,在杰克的邀请下,斯塔最终下定决心登上了驶往自由的面包车,彻底离开了荒谬不堪的原生家庭

就这样,斯塔成为了一名杂志推销员,由杰克负责指导。在此过程中,杰克和斯塔之间产生了炙热的感情,然而杰克一直以来和他们的顶头上司克里斯塔(莱莉·科奥 Riley Keough 饰)保持着肉体关系。这段注定见不得光的恋情让斯塔体味到了别样的辛酸和悸动。

◎获奖情况 (共20项)

第69届戛纳电影节 (2016)

主竞赛单元 金棕榈奖(提名)

└──安德里亚·阿诺德 (id:1000325)

主竞赛单元 评审团奖

└──安德里亚·阿诺德 (id:1000325)

第70届英国电影学院奖 (2017)

电影奖 最佳英国影片(提名)

第32届美国独立精神奖 (2017)

最佳影片(提名)

最佳导演(提名)

└──安德里亚·阿诺德 (id:1000325)

最佳女主角(提名)

└──萨莎·莱恩 (id:1356951)

最佳女配角(提名)

└──丽莉·吉欧 (id:1237039)

最佳男配角(提名)

└──希亚·拉博夫 (id:1022000)

最佳摄影(提名)

第19届英国独立电影奖 (2016)

最佳英国独立电影

最佳导演

└──安德里亚·阿诺德 (id:1000325)

最佳编剧(提名)

最佳女主角

└──萨莎·莱恩 (id:1356951)

最佳男主角(提名)

└──希亚·拉博夫 (id:1022000)

技术成就奖

第26届哥谭独立电影奖 (2016)

年度突破演员(提名)

└──萨莎·莱恩 (id:1356951)

第37届伦敦影评人协会奖 (2017)

年度电影(提名)

年度英国/爱尔兰电影(提名)

年度男配角(提名)

└──希亚·拉博夫 (id:1022000)

年度女配角(提名)

└──丽莉·吉欧 (id:1237039)

  1. ##### MediaInfo ######

  2. General

  3. Unique ID : 213033316075899576159133743589968595324 (0xA044B968FD695E8B96B097F55D2C497C)

  4. Complete name : American.Honey.2016.BluRay.1080p.x265.10bit-MiniHD.mkv

  5. Format : Matroska

  6. Format version : Version 4

  7. File size : 6.51 GiB

  8. Duration : 2 h 43 min

  9. Overall bit rate : 5 711 kb/s

  10. Encoded date : UTC 2016-12-24 14:43:40

  11. Writing application : mkvmerge v9.2.0 ('Photograph') 32bit

  12. Writing library : libebml v1.3.3 + libmatroska v1.4.4

  13. Video

  14. ID : 1

  15. Format : HEVC

  16. Format/Info : High Efficiency Video Coding

  17. Format profile : Main [email protected]@Main

  18. Codec ID : V_MPEGH/ISO/HEVC

  19. Duration : 2 h 43 min

  20. Bit rate : 4 957 kb/s

  21. Width : 1 440 pixels

  22. Height : 1 080 pixels

  23. Display aspect ratio : 4:3

  24. Frame rate mode : Constant

  25. Frame rate : 23.976 (24000/1001/53354) FPS

  26. Color space : YUV

  27. Chroma subsampling : 4:2:0

  28. Bit depth : 10 bits

  29. Bits/(Pixel*Frame) : 0.133

  30. Stream size : 5.65 GiB (87%)

  31. Writing library : x265 2.1+36-d216cb9b3b47:[Windows][GCC 6.2.0][64 bit] 10bit

  32. Encoding settings : wpp / ctu=32 / min-cu-size=8 / max-tu-size=16 / tu-intra-depth=2 / tu-inter-depth=2 / me=3 / subme=5 / merange=25 / rect / no-amp / max-merge=3 / temporal-mvp / no-early-skip / rskip / rdpenalty=1 / no-tskip / no-tskip-fast / no-strong-intra-smoothing / no-lossless / no-cu-lossless / no-constrained-intra / no-fast-intra / no-open-gop / no-temporal-layers / interlace=0 / keyint=360 / min-keyint=1 / NTMzNTQ=uuDQuD2mJt9fsCf / scenecut=40 / bias-for-scenecut=0.05 / rc-lookahead=60 / lookahead-slices=4 / bframes=8 / bframe-bias=0 / b-adapt=2 / ref=5 / limit-refs=3 / limit-modes / weightp / weightb / aq-mode=3 / qg-size=16 / aq-strength=0.90 / cbqpoffs=-2 / crqpoffs=-2 / rd=4 / psy-rd=1.00 / rdoq-level=2 / psy-rdoq=5.00 / log2-max-poc-lsb=8 / limit-tu=0 / no-rd-refine / signhide / deblock=-1:-1 / no-sao / no-sao-non-deblock / b-pyramid / cutree / no-intra-refresh / rc=crf / crf=20.0 / qcomp=0.70 / qpmin=0 / qpmax=69 / qpstep=4 / ipratio=1.40 / pbratio=1.30

  33. Default : Yes

  34. Forced : No

  35. Color range : Limited

  36. Color primaries : BT.709

  37. Audio

  38. ID : 2

  39. Format : AC-3

  40. Format/Info : Audio Coding 3

  41. Commercial name : Dolby Digital

  42. Codec ID : A_AC3

  43. Duration : 2 h 43 min

  44. Bit rate mode : Constant

  45. Bit rate : 640 kb/s

  46. Channel(s) : 6 channels

  47. Channel layout : L R C LFE Ls Rs

  48. Sampling rate : 48.0 kHz

  49. Frame rate : 31.250 FPS (1536 SPF)

  50. Compression mode : Lossy

  51. Stream size : 747 MiB (11%)

  52. Language : English

  53. Service kind : Complete Main

  54. Default : Yes

  55. Forced : No

  56. Text #1

  57. ID : 3

  58. Format : PGS

  59. Muxing mode : zlib

  60. Codec ID : S_HDMV/PGS

  61. Codec ID/Info : Picture based subtitle format used on BDs/HD-DVDs

  62. Language : English

  63. Default : Yes

  64. Forced : No

  65. Text #2

  66. ID : 4

  67. Format : PGS

  68. Muxing mode : zlib

  69. Codec ID : S_HDMV/PGS

  70. Codec ID/Info : Picture based subtitle format used on BDs/HD-DVDs

  71. Language : Chinese

  72. Default : No

  73. Forced : No

  74. Text #3

  75. ID : 5

  76. Format : PGS

  77. Muxing mode : zlib

  78. Codec ID : S_HDMV/PGS

  79. Codec ID/Info : Picture based subtitle format used on BDs/HD-DVDs

  80. Language : Chinese

  81. Default : No

  82. Forced : No

  83. Text #4

  84. ID : 6

  85. Format : PGS

  86. Muxing mode : zlib

  87. Codec ID : S_HDMV/PGS

  88. Codec ID/Info : Picture based subtitle format used on BDs/HD-DVDs

  89. Language : Chinese

  90. Default : No

  91. Forced : No

  92. Text #5

  93. ID : 7

  94. Format : PGS

  95. Muxing mode : zlib

  96. Codec ID : S_HDMV/PGS

  97. Codec ID/Info : Picture based subtitle format used on BDs/HD-DVDs

  98. Language : Chinese

  99. Default : No

  100. Forced : No

  101. Menu

  102. 00:00:00.000 : en:Chapter 01

  103. 00:10:03.019 : en:Chapter 02

  104. 00:18:45.916 : en:Chapter 03

  105. 00:30:14.354 : en:Chapter 04

  106. 00:40:24.797 : en:Chapter 05

  107. 00:52:44.619 : en:Chapter 06

  108. 00:59:36.572 : en:Chapter 07

  109. 01:10:40.527 : en:Chapter 08

  110. 01:30:11.614 : en:Chapter 09

  111. 01:36:07.803 : en:Chapter 10

  112. 01:45:19.271 : en:Chapter 11

  113. 01:52:13.059 : en:Chapter 12

  114. 02:00:41.108 : en:Chapter 13

  115. 02:08:55.936 : en:Chapter 14

  116. 02:21:21.639 : en:Chapter 15

  117. 02:30:27.977 : en:Chapter 16



文件下载


除非特别注明,本文『美国甜心[中英字幕].American.Honey.2016.BluRay.1080p.x265.10bit-MiniHD 6.51GB』来源于互联网机器人自动抓取,非本站原创。 浮游电影网不对本文拥有版权,如有侵犯,请联系邮箱:fuyouu#yandex.com[#换成@]投诉。我们会在15个工作日内删除。 但烦请转载时请标明出处:“本文转载于『浮游电影网』,原文地址:https://www.fuyouu.com/22255.html

评论吧骚年!

发表你的见解   

昵称*

E-mail*(建议输入,以便收到博主回复的提示邮件)

验证码*

您可以使用eMule或eMule Mod(Windows)、aMule(Win、Linux、Mac)等软件下载eD2k链接。。
eMule收藏集(.emulecollection)文件是您选中的所有链接的列表文件。eMule可以直接下载它们。
按住SHIFT键选择可以选中多个选择框。
可用文件名和大小选择器来选择文件。
文件名选择器帮您根据文件名称或后缀来选择文件。不分大小写。
符号使用:
和:空格( )、+
不包含:-
或:|
转义:一对英文引号("");
匹配开头:^
匹配结尾:$
例如:
选中所有名称中包含有“eMule”或“0.49c”字眼,但不包含有“exe”字眼的:emule|0.49c -exe
选中所有名称的开头是“eMule”,结尾是“0.49c”的:^emule 0.49c$
选中所有名称中带有“eMule 0.49c”的(必须是“eMule 0.49c”,中间没有别的字符,不能是“eMule fake 0.49c”),需要转义:"emule 0.49c"
大小选择器帮您根据文件大小选择文件。